#TITLE:K8107;
#SUBTITLE:;
#ARTIST:onoken;
#TITLETRANSLIT:;
#SUBTITLETRANSLIT:;
#ARTISTTRANSLIT:;
#CREDIT:;
#BANNER:;
#BACKGROUND:;
#LYRICSPATH:;
#CDTITLE:;
#MUSIC:K8107.mp3;
#OFFSET:0.040;
#SAMPLESTART:24.070;
#SAMPLELENGTH:12.000;
#SELECTABLE:YES;
#BPMS:0.000=90.000,32.000=65.000,33.000=180.000,98.000=67.600,104.000=90.000,138.000=180.000,234.000=89.999;
#DISPLAYBPM:180.000
#STOPS:33.000=1.500
;
#BGCHANGES:;

//---------------dance-single - ----------------
#NOTES:
     dance-single:
     :
     Beginner:
     1:
     0.164,0.214,0.027,0.000,0.000:
0000
0000
0000
0000
,
0000
0000
0000
0000
,
0000
0000
0000
0000
,
0000
0000
0000
0000
,
1000
0000
0100
0000
,
0010
0000
0001
0000
,
0010
0000
0001
0000
,
0100
0000
1000
0000
,
0010
0000
0010
0000
,
0010
0000
0010
0000
,
0000
0000
0001
0000
,
0001
0000
0001
0000
,
0000
0000
0100
0000
,
0100
0000
0100
0000
,
0000
0000
1000
0000
,
1000
0000
1000
0000
,
0000
0000
0010
0010
,
0010
0010
0010
0010
,
0010
0000
0100
0100
,
0100
0100
0100
0100
,
0100
0000
0001
0001
,
0001
0001
0001
0001
,
0001
0000
1000
1000
,
1000
1000
1000
1000
,
1000
0000
1001
0000
,
0000
0000
0000
0000
,
1000
0000
1000
0000
,
0010
0000
0010
0000
,
0100
0000
0100
0000
,
0001
0000
0001
0000
,
0010
0000
0001
0000
,
0100
0000
0010
0000
,
1000
0000
0100
0000
,
0010
0000
0001
0000
,
1001
0000
1000
0000
,
1000
0000
0010
0000
,
0010
0000
0100
0000
,
0100
0000
0001
0000
,
0001
0000
0010
0000
,
0010
0000
0001
0000
,
0001
0000
0100
0000
,
0100
0000
1000
0000
,
1000
0000
0010
0000
,
0010
0000
0010
0000
,
0000
0000
1000
0000
,
1000
0000
1000
0000
,
0000
0000
0100
0000
,
0100
0000
0100
0000
,
0000
0000
0001
0000
,
0001
0000
0001
0000
,
0000
0000
0010
0010
,
0010
0010
0010
0010
,
0010
0000
0001
0001
,
0001
0001
0001
0001
,
0001
0000
0100
0100
,
0100
0100
0100
0100
,
0100
0000
1000
1000
,
1000
1000
1000
1000
,
1000
0000
1001
0000
,
0000
0000
0010
0000
;

//---------------dance-single - ----------------
#NOTES:
     dance-single:
     :
     Easy:
     5:
     0.421,0.324,0.029,0.036,0.036:
0000
0000
0000
0000
,
0000
0000
0000
0000
,
0000
0000
0000
0000
,
0000
0000
0000
0000
,
1000
0000
0000
0000
0100
0000
0000
0000
1000
0000
0000
0000
0010
0000
0000
0100
,
0100
0000
0000
0000
0001
0000
0000
0000
0000
0010
0000
0000
0100
0000
0000
1000
,
1000
0000
0000
0000
0010
0000
0000
0000
0100
0000
0000
0000
0001
0000
0000
0010
,
0010
0100
1000
0010
,
0001
0000
1000
0100
,
1000
0010
0100
0001
,
0010
0001
0010
0000
0001
0000
0100
0000
,
0010
1000
0100
0010
,
0100
1000
0100
0000
0010
0000
0001
0000
,
0100
1000
0100
0001
,
0010
0100
0010
0000
0100
0000
1000
0000
,
0001
0100
0010
1000
,
0010
0100
0010
0000
0100
0000
0010
0000
,
0100
0010
1000
0001
,
1000
0001
0010
0001
,
0010
0001
1000
0100
,
1000
0000
0010
0000
0100
0001
0000
0100
,
0000
0001
0000
1000
0000
0100
0000
0010
,
0000
0100
0000
1000
0001
0000
0100
0000
,
0010
1000
0100
0010
,
0001
0100
1000
0000
0010
0000
0000
0000
,
0000
0000
0000
0000
,
1000
0000
0010
0000
0100
0001
0100
0000
,
0000
0001
0000
0000
0010
0000
0000
0000
0100
0000
1000
0000
0100
0000
0000
0000
,
0010
0000
0001
0000
0100
0010
0100
0000
,
0000
1000
0000
0000
0010
0000
0000
0000
0100
0000
0001
0000
1000
0000
0000
0000
,
0001
0000
0100
0000
0010
1000
0100
0000
,
0000
0010
0000
0000
0001
0000
0000
0000
0100
0000
0010
0000
1000
0000
0000
0000
,
0001
0000
0100
0000
0001
0010
0100
0000
,
0000
1000
0000
0000
0010
0000
0000
0000
0100
0000
0001
0000
1000
0000
0000
0000
,
2002
3003
1000
0100
,
1000
0100
1000
0000
0100
0000
1000
0000
,
0100
1000
0100
0000
0010
0000
0001
0000
,
0010
0001
0010
0000
0001
0000
0010
0000
,
0001
0010
0001
0000
0100
0000
0001
0000
,
0100
0001
0100
0000
0001
0000
0100
0000
,
0001
0100
0001
0000
1000
0000
0010
0000
,
1000
0010
1000
0000
0010
0000
1000
0000
,
0010
1000
0010
1000
0010
0000
1000
0000
,
0100
0001
0010
0001
,
0100
0001
0100
0000
0010
0000
1000
0000
,
0100
0010
0100
1000
,
0001
0100
0001
0000
0010
0000
0001
0000
,
0100
1000
0010
1000
,
0100
0010
0100
0000
0010
0000
0001
0000
,
0100
0010
1000
0001
,
0010
0100
1000
0100
0000
0010
0000
0001
,
0000
0010
0000
0001
0000
1000
0000
0100
,
0000
1000
0000
0100
0000
0001
0000
0100
,
0000
0001
0000
0100
0000
0010
0000
1000
,
0000
0010
0000
1000
0000
0010
0000
0001
,
0000
0100
0000
1000
0000
0100
0000
0001
,
0000
0010
0000
1000
0000
0010
0000
0100
,
0000
0001
0000
0010
0000
0100
0000
1000
,
0000
0001
1000
0001
2000
0000
0000
0000
,
0000
0000
0002
0000
,
0000
3003
0000
0000
0000
0000
0000
0000
;

//---------------dance-single - ----------------
#NOTES:
     dance-single:
     :
     Medium:
     7:
     0.484,0.461,0.018,0.045,0.039:
0000
0000
0000
0000
,
0000
0000
0000
0000
,
0000
0000
0000
0000
,
0000
0000
0000
0000
,
1000
0100
1000
0000
0100
0010
0100
0000
,
0010
0001
0010
0000
0001
0100
0001
0000
,
1000
0100
0001
0000
0001
0100
0010
0000
,
1000
0100
0010
0001
0100
0010
1000
0001
,
0020
0030
0001
0100
,
0010
1000
0100
0010
,
0001
0100
0010
0000
0100
0000
0001
0000
,
0010
0100
1000
0010
,
0100
0001
0100
0000
0010
0000
1000
0000
,
0001
0010
0001
1000
,
0010
0100
0001
0000
0010
0000
0100
0000
,
1000
0100
0010
0001
,
1000
0010
0100
0000
0000
0001
0000
1000
,
0000
0001
0000
1000
0000
0010
0000
0100
,
0000
0010
0000
0100
0000
0001
0000
0100
,
0000
0010
0000
1000
0000
0100
0000
0010
,
0000
0001
0000
0100
0010
1000
0000
0010
,
0000
0100
0000
0001
0000
0010
0000
0001
,
0000
0100
0000
1000
0000
0010
0000
0100
,
0000
0001
0000
0100
0010
0000
1000
0000
,
0001
0010
0200
0000
,
0000
0000
0000
0000
,
0301
0100
0001
0010
0100
1000
0100
0000
,
1000
1000
0010
0100
0001
0010
0100
0000
,
1000
0010
0100
0001
0100
0010
1000
0000
,
0001
0100
0001
0000
0010
0000
0100
0000
1000
0000
0100
0000
0010
0000
0000
0000
,
0001
0100
0001
0100
0010
1000
0010
0000
,
1000
0100
1000
0000
0010
0000
0100
0000
0001
0000
0010
0000
0100
0000
0000
0000
,
0010
0001
0100
0010
1000
0100
0010
0000
,
0001
0100
0001
0000
0100
0000
0010
0000
1000
0000
0100
0000
0010
0000
0100
0000
,
2000
0000
3001
0100
,
1000
0100
0001
0000
0010
0000
0100
0000
,
1000
0100
0010
0000
0001
0000
0010
0000
,
1000
0010
0001
0000
0100
0000
1000
0000
,
0100
0001
0100
0000
0010
0000
1000
0000
,
0001
0010
0100
0000
1000
0000
0100
0000
,
0010
0001
0100
0000
1010
0000
0101
0000
,
0001
0010
0001
0000
0100
0000
0010
0000
,
1000
0001
0010
0100
,
1000
0100
0010
0001
,
0100
0010
0100
0000
0001
0000
0010
0000
,
0100
1000
0010
0100
,
0001
1000
0100
0000
0010
0000
0001
0000
,
1000
0010
1000
0001
,
0010
0100
1000
0000
0100
0000
0010
0000
,
0001
0100
0010
1000
,
0001
0010
0001
1000
0000
0010
0000
0100
,
0000
0001
0000
0100
0000
0010
0000
1000
,
0000
0001
0000
0010
0000
0100
0000
1000
,
0000
0100
0000
0010
0000
0001
0000
0100
,
0000
0010
0000
1000
0001
0010
0000
0001
,
0000
0100
0000
0010
0000
1000
0000
0001
,
0000
0010
0000
0001
0000
0100
0000
0010
,
0000
1000
0000
0001
0000
0010
0000
0100
,
0000
1000
0000
0001
0002
0000
0000
0000
,
0000
0000
2000
0000
,
0000
0000
0000
3003
0000
0000
0000
0000
;

//---------------dance-single - ----------------
#NOTES:
     dance-single:
     :
     Hard:
     9:
     0.703,0.624,0.108,0.015,0.117: // measure 1
0000
0000
0000
0000
,  // measure 2
0000
0000
0000
0000
,  // measure 3
0000
0000
0000
0000
,  // measure 4
0000
0000
0000
0000
,  // measure 5
0010
1000
0000
0100
0000
0000
1000
0000
0001
0100
0000
0010
0000
0000
1000
0000
,  // measure 6
0001
0010
0000
0100
0000
0000
1000
0000
0100
0010
0000
0001
0000
0000
0100
0000
,  // measure 7
0010
1000
0000
0010
0000
0000
0100
0000
0001
0100
0000
0010
0000
0000
1000
0000
,  // measure 8
0001
0010
0000
0001
0100
0000
0010
0000
1000
0100
0000
0100
1000
0000
0010
0000
,  // measure 9
0200
0000
0300
0000
0010
1000
0100
0001
,  // measure 10
0100
1000
0010
0000
0010
0100
0001
0010
,  // measure 11
0100
1000
0100
0000
0010
0001
0100
1000
,  // measure 12
0100
0001
0010
0000
0001
0100
0010
1000
,  // measure 13
0001
0010
0001
0000
0001
0100
1000
0100
,  // measure 14
0001
0010
1000
0000
0010
1000
0001
0010
,  // measure 15
0100
1000
0100
0000
0010
0001
0100
0100
,  // measure 16
0010
1000
0100
0100
1000
0010
0100
0001
,  // measure 17
0010
0001
1000
1000
0010
0100
0001
0100
,  // measure 18
0010
1000
0001
0010
0100
1000
0100
0010
,  // measure 19
0001
1000
0010
0100
0010
1000
0001
0010
,  // measure 20
0001
0100
1000
0100
0001
0010
0001
0100
,  // measure 21
0010
1000
0100
0010
0100
1000
0010
0100
,  // measure 22
0001
0010
0001
1000
0010
1000
0100
0001
,  // measure 23
0100
1000
0010
0100
0001
0010
0001
1000
,  // measure 24
0100
0010
0100
1000
0001
0100
0010
1000
,  // measure 25
0010
0001
0100
0010
2000
0000
0000
0000
,  // measure 26
0000
0000
0000
0000
,  // measure 27
3001
0100
0001
0100
0010
1000
0100
0010
,  // measure 28
0100
1000
0001
0000
0100
0000
0010
0000
1000
0000
0001
0000
0010
0000
0001
0000
,  // measure 29
0101
0101
1010
1010
0010
1000
0100
0001
,  // measure 30
0100
1000
0010
0000
0100
0000
0001
0000
0010
0000
0100
0000
1000
0000
0010
0000
,  // measure 31
0011
0011
1100
1100
0001
0100
1000
0100
,  // measure 32
0001
0010
1000
0000
0010
0000
0001
0000
0100
0000
0010
0000
1000
0000
0001
0000
,  // measure 33
0101
0101
1010
1010
0010
0001
0100
1000
,  // measure 34
0100
0010
0001
0000
0100
0000
0010
0000
1000
0000
0001
0000
0010
0000
0100
0000
,  // measure 35
2000
0000
0000
0000
3010
1000
0100
0001
,  // measure 36
0100
1000
0010
0000
0010
0001
0100
1000
,  // measure 37
0100
0001
0010
0000
0001
0010
0001
1000
,  // measure 38
0010
0100
0001
0100
0010
1000
0001
0010
,  // measure 39
0100
1000
0100
0000
0010
0001
0100
1000
,  // measure 40
0100
0001
0010
0000
0010
1000
0100
0001
,  // measure 41
0100
1000
0010
0000
0010
1000
0001
0010
,  // measure 42
0100
1000
0100
0000
0010
0001
0100
0000
,  // measure 43
0010
1000
0100
0000
0010
1000
0100
0010
,  // measure 44
0100
1000
0001
0100
0010
1000
0001
0010
,  // measure 45
0100
1000
0100
0000
0010
0001
0100
0010
,  // measure 46
1000
0100
0001
0010
0001
0100
0010
1000
,  // measure 47
0001
0010
0100
0000
1000
0001
0100
0010
,  // measure 48
1000
0001
0010
0100
1000
0100
0010
0001
,  // measure 49
1000
0010
0100
0000
0001
1000
0001
0010
,  // measure 50
0100
1000
0100
0010
0001
1000
0010
0100
,  // measure 51
0001
0100
0010
0000
0010
1000
0100
0001
,  // measure 52
0100
1000
0010
0001
0100
1000
0100
0001
,  // measure 53
0010
0001
0100
0010
1000
0100
0001
0100
,  // measure 54
1000
0010
0100
0001
0010
0001
1000
0010
,  // measure 55
0001
0100
1000
0010
1000
0100
0001
1000
,  // measure 56
0100
0010
0100
1000
0001
0100
0010
1000
,  // measure 57
0100
0001
0100
1000
0010
0100
0001
0010
,  // measure 58
0100
0000
1000
0000
0100
0000
0010
0000
0100
1000
0100
0000
0010
0001
0010
0000
,  // measure 59
0100
1000
0100
1000
0001
1000
0002
0000
0000
0000
0000
0000
,  // measure 60
0000
0000
0000
0000
1000
2000
0000
0000
,  // measure 61
0000
0000
0000
3003
0000
0000
0000
0000
;
