#TITLE:ELICA;
#SUBTITLE:;
#ARTIST:Kaoru feat. pi;
#TITLETRANSLIT:;
#SUBTITLETRANSLIT:;
#ARTISTTRANSLIT:Kaoru feat. pi & Nigainin;
#GENRE:Melodic Sexdrum Octagon Puppet;
#CREDIT:Frozen_Heat/Azn_Punk_07/GuardianFrozen;
#MENUCOLOR:#ff9805;
#METERTYPE:DDR;
#BANNER:ELICA-bn.png;
#BACKGROUND:ELICA-bg.png;
#LYRICSPATH:ELICA.lrc;
#CDTITLE:!cdtitle.png;
#MUSIC:ELICA.mp3;
#OFFSET:-0.105;
#SAMPLESTART:72.220;
#SAMPLELENGTH:15.000;
#SELECTABLE:YES;
#LISTSORT:;
#BPMS:0.000=344.000,64.000=172.000,68.000=86.000,70.000=344.000,326.000=172.000,394.000=344.000;
#STOPS:;
#BGCHANGES:;
#ATTACKS:;

//---------------dance-single - ----------------
#NOTES:
     dance-single:
     :
     Challenge:
     10:
     0.937,1.000,0.744,0.031,0.012:
0000
0000
0000
0000
,
0000
0000
0000
0000
,
0000
0000
0000
0000
,
0000
0000
0000
0000
,
0000
0000
0000
0000
,
0000
0000
0000
0000
,
0000
0000
0000
0000
,
0000
0000
0000
0000
,
0001
0010
0001
0000
0100
0000
0001
1000
,
0001
0000
0010
0000
0001
0100
0001
0000
,
0010
0000
0001
0000
1000
0000
0010
0100
,
0010
1000
0001
0010
0100
1000
0001
0000
,
1000
0100
1000
0000
0010
0000
1000
0001
,
1000
0000
0100
0000
1000
0010
1000
0000
,
0100
0000
1000
0000
0001
0010
0100
1000
,
0001
0100
1000
0100
0010
1000
0001
0020
,
0000
0030
0000
0000
,
0200
0000
0000
1300
0001
0010
0100
0010
,
0001
1000
0010
0100
,
0001
0000
0010
0000
0001
0000
0000
0001
,
0100
0000
0000
0100
0010
0000
0000
0010
,
1000
0000
0000
1000
0100
0000
1000
0000
,
0010
0100
0101
0010
,
1000
0100
1100
0000
,
0110
0000
1001
0000
,
1000
0001
1001
0010
,
0100
0000
0010
0100
1000
0000
0010
0100
,
0001
0000
1000
0001
1000
0000
0000
1000
,
0010
0000
0000
0010
0100
0000
0000
0100
,
0001
0000
0000
0001
0010
0100
1000
0000
,
0010
0100
0001
0000
0010
0100
1000
0000
,
0010
1000
0001
0000
1000
0100
1000
0100
,
0010
0001
0010
0100
1000
0001
1000
0001
,
0100
0010
0100
0001
1000
0000
0010
0000
,
0100
0001
1000
0000
,
0010
0000
1000
0000
0001
0000
0000
0001
,
1000
0000
0000
1000
0100
0000
0000
0100
,
0010
0000
0000
0010
0001
0000
1000
0000
,
1010
0100
0001
0010
,
0011
0100
1000
0010
,
0100
0001
1001
0000
,
1000
0000
0010
0100
0010
0000
1000
0000
,
0001
0000
0100
0000
0001
0010
0001
0000
,
1000
0010
1000
0000
0001
1000
0100
0000
,
1000
0001
0100
0000
0010
1000
0100
0000
,
0010
0001
0100
0000
0010
1000
0010
1000
,
0001
0010
0001
0010
0100
1000
0100
1000
,
0001
0100
0001
0100
0010
0000
0000
0010
,
1000
0000
0000
1000
0100
0000
0000
0100
,
0010
0000
0000
0010
0100
1000
0100
0010
,
0001
0000
1000
0000
0001
0000
0000
0001
,
1000
0000
0000
1000
0100
0000
0000
0100
,
0010
0000
0000
0010
0001
0000
0000
0001
,
0100
0000
0000
0100
0010
0000
1000
0000
,
1010
0100
0001
0010
,
0011
0100
1000
0010
,
0100
0001
1001
0000
,
0001
0010
0011
0100
,
1000
0010
1010
0100
,
0001
0000
1000
0000
0001
0100
0001
0000
,
1000
0010
1000
0000
0100
1000
0100
0000
,
0010
0001
0010
0000
0100
1000
0001
0000
,
0100
0001
1000
0000
0001
0010
0100
0000
,
0010
0100
1000
0000
0001
0100
0010
0100
,
0001
1000
0001
1000
0100
0010
0001
0100
,
0010
1000
0001
0000
0100
0000
0010
0000
,
1000
0000
0100
0000
0010
0000
0000
0010
,
0001
0000
0000
0001
1000
0000
0000
1000
,
0010
0000
0000
0010
0100
0000
0000
0100
,
1000
0000
0000
1000
0100
0000
0001
0000
,
0101
0010
1000
0100
,
1100
0010
0001
1000
,
0010
0100
0110
0000
,
0010
0000
1000
0100
1000
0000
0100
0000
,
0010
0100
1000
0010
,
0001
0010
1000
0000
,
0010
0100
0101
0000
,
1000
0000
0001
1000
0001
0000
0000
0001
,
0010
0010
1100
0000
,
0010
0000
0001
0000
1000
0010
1000
0000
,
0001
0100
0001
0000
1000
0001
1000
0000
,
0100
0100
0000
0000
,
0000
0000
2000
0000
,
3000
0001
0100
0000
,
0000
0000
0020
0000
,
0030
1000
0001
0000
,
0000
0000
0010
0000
,
0100
0000
1000
0000
,
0001
0000
0100
0000
,
0010
0000
1000
0100
,
0010
0001
0100
0000
,
0010
1000
0001
0000
,
0010
0001
1000
0000
,
0010
0100
0001
0000
,
0000
0000
0001
1000
,
0001
0000
0000
0100
0000
0000
0001
0000
0010
0000
0000
0000
0100
0000
0000
0000
,
1000
0000
0000
0100
0000
0000
1000
0000
0010
0000
0000
0000
0100
0000
0001
0100
,
0001
0000
1000
0000
0100
0100
0010
0010
,
0001
0001
1000
1000
0101
0000
0100
0000
,
0010
1010
1000
0100
,
0011
1000
1001
0100
,
0010
1000
0001
0010
,
1100
0100
1000
0011
,
0010
0001
1001
0100
,
0010
1000
0010
0110
,
1000
0001
1100
1100
,
0010
0101
0101
0010
,
1001
1000
0010
0100
,
0001
0010
0100
1000
,
0011
0011
0100
1010
,
1010
0100
1001
1001
,
0100
0010
0110
0110
,
0001
1000
1001
1001
,
0100
0101
0101
0010
,
1010
0110
1010
0110
,
0001
1001
1100
1001
,
0011
0011
0100
1100
,
1100
0010
0011
0110
,
1100
1001
0001
1010
,
0110
0101
1001
1010
,
1001
1010
1010
0101
,
1001
0101
0101
0011
,
1001
0011
1001
1100
,
1010
1010
0100
0101
,
0101
1001
0011
0110
,
1100
0110
1100
1010
,
0110
0101
1001
0000
,
0000
0000
0000
0000
0001
0010
0100
1000
,
0001
0010
0100
0000
1000
0010
0100
0001
,
1000
0010
0100
0000
0001
0010
0100
1000
,
0001
0010
0100
0000
1000
0010
0100
0001
,
1000
0010
0100
0000
0001
0010
1000
0010
,
0001
0010
0100
0000
1000
0010
0001
0010
,
1000
0010
0100
0000
0001
0010
0100
1000
,
0001
0010
0100
1000
0001
0100
0010
1000
,
0001
0100
0010
1000
0001
0100
0001
0100
,
0010
0100
0001
0000
1000
0100
1000
0100
,
0010
0100
1000
0000
0001
0010
0100
0010
,
0001
1000
0001
0000
1000
0010
0100
0010
,
1000
0001
1000
0000
0001
0100
0010
1000
,
0001
0100
0010
0000
1000
0100
0010
0001
,
1000
0100
0010
0000
0001
0010
0001
0010
,
0100
1000
0100
1000
0001
0100
0001
0100
,
0010
1000
0010
1000
0001
0000
0010
0001
,
1000
0010
0001
0010
0100
0000
0001
1000
,
0100
0010
0100
1000
0001
0000
1000
0010
,
0100
0001
0010
1000
0010
0000
0100
1000
,
0100
0010
0001
1000
0001
0000
0100
0001
,
1000
0010
0001
0010
0100
0000
0001
1000
,
0001
0010
1000
0010
0100
0000
0010
0100
,
1000
0001
0010
0100
1000
0000
1000
0100
,
0010
0001
1000
0100
0010
0001
1000
0100
,
0010
0001
1000
0001
0010
0100
1000
0010
,
1000
0010
0100
0001
1000
0000
1000
0010
,
0001
0010
0100
0001
1000
0100
0010
0001
,
0010
0100
1000
0001
1000
0000
1100
0000
,
1010
1001
0001
0011
,
0101
0000
1001
0000
0001
0010
0100
1000
,
0001
1000
0100
0010
0001
1000
0001
0010
,
0100
1000
0001
0000
0000
0000
0000
0000
;

//---------------dance-single - ----------------
#NOTES:
     dance-single:
     :
     Hard:
     10:
     0.710,0.935,0.454,0.102,0.004:
0000
0000
0000
0000
,
0000
0000
0000
0000
,
0000
0000
0000
0000
,
0000
0000
0000
0000
,
0000
0000
0000
0000
,
0000
0000
0000
0000
,
0000
0000
0000
0000
,
0000
0000
0000
0000
,
0011
0000
0100
1100
,
0000
1000
1010
0000
,
0000
0101
0000
0010
,
0110
0000
1001
0000
,
1100
0000
0010
0011
,
0000
0001
0101
0000
,
0000
1010
0000
1000
,
1001
0000
0000
0000
0110
0000
0000
0002
,
0000
0000
0000
0000
,
2000
0000
0000
3003
1000
0000
0100
0000
,
0010
0100
1000
0001
,
0100
0010
1000
0000
,
1100
0000
0001
0000
,
0101
0000
0010
0001
,
0100
0010
1000
0100
,
0010
0001
1000
0000
,
1010
0000
1001
0000
,
0001
0010
0100
0000
,
0010
0001
1000
0000
,
0010
1000
0001
0100
,
0010
1000
0001
1000
,
0100
0000
0010
0000
0001
0000
0000
0001
,
0010
0000
0000
0010
0100
0000
0000
0100
,
1000
0000
0000
1000
0010
0000
0000
1000
,
0001
0000
0101
0000
,
1001
0000
0001
0100
,
0010
0100
0001
0010
,
0100
1000
1100
0000
,
0011
0000
1001
0000
,
0101
0000
0010
0000
,
1010
0000
0100
0000
,
0101
0000
1001
0000
,
0110
0000
1001
0000
,
1000
0000
0001
1000
0001
0000
0000
0000
,
1000
0100
0010
0100
,
1000
0100
0010
0001
,
0100
0010
1000
0001
,
0100
0000
0010
0000
1000
0000
0000
1000
,
0010
0000
0000
0010
0100
0000
0000
0100
,
0001
0000
0000
0001
0010
0000
0000
0001
,
1000
0000
0000
1000
0010
0000
0000
1000
,
0001
0000
0000
0000
1000
0001
1000
0000
,
0010
0100
0001
0010
,
0100
1000
1001
0100
,
0101
0010
1010
0000
,
0110
0000
0001
0010
,
0100
1000
0001
1000
,
0010
0100
0001
0000
,
1000
0100
1001
0000
,
0010
0010
0110
0000
,
1000
0100
0010
0001
,
1000
0001
0100
0010
,
0100
0001
1000
0100
,
0001
0000
0100
0000
1000
0000
0000
1000
,
0001
0000
0000
0001
0100
0000
0000
0100
,
0010
0000
0000
0010
1000
0000
0000
0010
,
0100
0000
0000
0100
0001
0000
0000
0000
,
0110
0001
1000
0001
,
0010
0100
1000
0001
,
0100
0010
1000
0100
,
0010
0100
1000
0001
,
0100
0010
0100
0100
,
0001
0001
1000
1000
,
0010
0010
1000
0001
,
0010
0100
0110
0000
,
0001
1000
1001
0100
,
0010
0100
0110
0001
,
1000
0001
1001
0000
,
0010
0100
1001
0000
,
1000
0100
1001
0000
,
0001
0100
1001
0000
,
0010
0100
1001
0000
,
0110
0000
0001
0010
,
0100
1000
0000
0000
,
0000
0000
0002
0000
,
0103
0010
0100
0000
,
0000
0000
0020
0000
,
1030
0100
1000
0000
,
0000
0000
0001
0000
,
1001
0100
0010
0000
,
0011
0000
0100
0000
,
2000
0000
3020
0230
,
0302
2003
3002
0003
,
0010
0100
2000
3000
,
0001
0100
0020
0030
,
1000
0001
0200
0300
,
0010
0000
0000
0000
1000
0000
0000
1000
,
0001
0000
0100
0000
0010
0000
0000
0010
,
0100
0000
0000
0000
0001
1000
0001
0000
0010
0000
0000
0000
0110
0000
0000
0000
,
1000
0000
1001
0000
0001
0001
0100
0100
,
0010
0010
1000
1000
0001
0000
0001
0000
,
0010
0100
0100
0010
,
0001
0001
1000
0010
,
0100
0010
1000
0100
,
1000
1000
0001
0100
,
0100
0010
1000
1000
,
0001
0001
0000
0010
,
0100
0110
0010
0010
,
0001
0100
0100
0010
,
1000
1000
0001
0010
,
0001
1000
0001
0100
,
0010
0010
1000
0100
,
0100
1000
0001
0001
,
0100
0100
0010
1000
,
1000
0100
0011
0001
,
1000
1010
0010
0100
,
0001
0100
1000
0100
,
0010
1000
0001
1000
,
0101
0001
1000
1100
,
0010
0001
0100
0100
,
0010
0010
1000
1000
,
0001
0001
0110
0001
,
1000
0110
1000
0001
,
0010
0010
1000
0010
,
0001
0010
0100
1000
,
1001
0100
0000
0010
,
0010
0100
0001
1000
,
1001
0010
0100
0010
,
0110
1000
1001
0000
,
0000
0000
0000
0000
0001
0000
0000
0001
,
0100
0000
0000
0100
0010
0000
0000
0010
,
1000
0000
0000
1000
0100
0000
0000
0100
,
0001
0000
0000
0001
0100
0000
0000
0100
,
0010
0000
0000
0010
0001
0000
0000
0001
,
1000
0000
0000
1000
0010
0000
0000
0010
,
0001
0000
0000
0001
0010
0000
0000
0010
,
0100
0000
0000
0100
0001
1000
0001
1000
,
0001
1000
0001
1000
0001
0000
0000
0001
,
1000
0000
0000
1000
0100
0000
0000
0100
,
0001
0000
0000
0001
0100
0000
0000
0100
,
0010
0000
0000
0010
0001
0000
0000
0001
,
1000
0000
0000
1000
0010
0000
0000
0010
,
0100
0000
0000
0100
0001
0000
0000
0001
,
1000
0000
0000
1000
0010
0100
0010
0100
,
0010
0000
0100
0000
0010
0100
0010
0100
,
0010
0000
0100
0000
0001
0000
0010
0001
,
0010
0000
0100
0000
1000
0000
0010
1000
,
0010
0000
0100
0000
0001
0000
1000
0100
,
1000
0000
0010
0000
0100
0000
0001
0100
,
0001
0000
1000
0000
0001
0010
0100
0010
,
0001
0000
1000
0000
0010
0100
1000
0100
,
0010
0000
1000
0000
0100
0010
0001
0000
,
1000
0000
0001
0100
0010
0000
1000
0000
,
0001
1000
0001
0000
1000
0100
0010
0100
,
1000
0000
0001
0000
0100
0010
0001
0010
,
0100
0000
0001
0000
1000
0100
0010
0000
,
0001
0000
0010
0100
1000
0000
0001
0100
,
0001
1000
0010
0010
,
0100
0100
0001
0001
,
1000
0000
1000
0000
0100
0010
0100
0010
,
0001
1000
0001
1000
0010
0100
0010
0100
,
0001
1000
0001
0000
0000
0000
0000
0000
;

//---------------dance-single - ----------------
#NOTES:
     dance-single:
     :
     Medium:
     7:
     0.475,0.810,0.368,0.078,0.000: // measure 1
0000
0000
0000
0000
,  // measure 2
0000
0000
0000
0000
,  // measure 3
0000
0000
0000
0000
,  // measure 4
0000
0000
0000
0000
,  // measure 5
0000
0000
0000
0000
,  // measure 6
0000
0000
0000
0000
,  // measure 7
0000
0000
0000
0000
,  // measure 8
0000
0000
0000
0000
,  // measure 9
1000
0000
0000
1100
,  // measure 10
0000
0000
0001
0000
,  // measure 11
0000
0101
0000
0000
,  // measure 12
1000
0000
1000
0000
,  // measure 13
0001
0000
0000
0011
,  // measure 14
0000
0000
1000
0000
,  // measure 15
0000
1010
0000
0000
,  // measure 16
0001
0000
0000
0000
0001
0000
0000
0100
,  // measure 17
0000
0000
0000
0000
,  // measure 18
0010
0000
1000
0100
,  // measure 19
1000
0000
0001
0000
,  // measure 20
0100
0000
0010
0000
,  // measure 21
1000
0000
0001
0000
,  // measure 22
0010
0000
0100
0000
,  // measure 23
0100
0000
0010
0000
,  // measure 24
0010
0000
0001
1000
,  // measure 25
0001
0000
1001
0000
,  // measure 26
0100
0010
0100
0000
,  // measure 27
0001
1000
0001
0000
,  // measure 28
0010
0100
1000
0000
,  // measure 29
0001
0000
0100
0000
,  // measure 30
0010
0000
1000
0000
,  // measure 31
1010
0000
0001
0000
,  // measure 32
0011
0000
1000
0000
,  // measure 33
1000
0000
0001
0000
,  // measure 34
0001
0000
0100
0000
,  // measure 35
0010
0100
0010
0000
,  // measure 36
1000
0000
0001
0000
,  // measure 37
0010
0000
0100
0000
,  // measure 38
1000
0000
0001
0000
,  // measure 39
0001
0000
1000
0000
,  // measure 40
1000
0000
0010
0000
,  // measure 41
0110
0000
1001
0000
,  // measure 42
1000
0100
0010
0000
,  // measure 43
0010
0100
1000
0000
,  // measure 44
0001
1000
0001
0000
,  // measure 45
0100
0000
0010
0000
,  // measure 46
1000
0000
0001
0000
,  // measure 47
0011
0000
1000
0000
,  // measure 48
1010
0000
0001
0000
,  // measure 49
0100
0000
0010
0000
,  // measure 50
1000
0000
0100
0000
,  // measure 51
0010
0100
1000
0000
,  // measure 52
0100
0010
0001
1000
,  // measure 53
0001
0000
0100
0000
,  // measure 54
0010
0000
1000
0010
,  // measure 55
1000
0100
0010
0000
,  // measure 56
0001
0000
1000
0000
,  // measure 57
0001
0100
0010
0000
,  // measure 58
1000
0001
1000
0000
,  // measure 59
0001
0010
0100
0000
,  // measure 60
0010
0001
1000
0001
,  // measure 61
0100
0001
0010
0000
,  // measure 62
0100
0000
1000
0000
,  // measure 63
1100
0000
0001
0000
,  // measure 64
0101
0000
1000
0000
,  // measure 65
0010
0000
0100
0000
,  // measure 66
0001
0000
1000
0001
,  // measure 67
1000
0000
0100
0010
,  // measure 68
0100
0010
0001
0000
,  // measure 69
0001
0000
1000
0000
,  // measure 70
1000
0000
0010
0000
,  // measure 71
1010
0000
0100
0000
,  // measure 72
0101
0000
1001
0000
,  // measure 73
0110
0000
1001
0000
,  // measure 74
1000
0100
0010
0000
,  // measure 75
0001
1000
0001
0000
,  // measure 76
0001
0100
0010
0000
,  // measure 77
1000
0001
1000
0001
,  // measure 78
1000
0001
0100
0000
,  // measure 79
0010
1000
0010
0000
,  // measure 80
0100
0001
0100
0000
,  // measure 81
0010
0000
1000
0000
,  // measure 82
0001
1000
0000
0000
,  // measure 83
0000
0000
0200
0000
,  // measure 84
0300
0000
0020
0000
,  // measure 85
0030
0000
0002
0000
,  // measure 86
0003
0000
2000
0000
,  // measure 87
3000
0000
0020
0000
,  // measure 88
2030
0000
3002
0000
,  // measure 89
0023
0000
0230
0000
,  // measure 90
2300
0000
3001
1000
,  // measure 91
0001
1000
0010
0000
,  // measure 92
0100
0001
0100
0000
,  // measure 93
0010
1000
0001
0000
,  // measure 94
0010
0100
1000
0000
,  // measure 95
0000
0000
0001
0100
,  // measure 96
0001
0010
1100
0010
,  // measure 97
0001
1000
0101
0010
,  // measure 98
1010
0100
0110
0001
,  // measure 99
1001
0010
1000
0000
,  // measure 100
0000
1100
0000
0000
,  // measure 101
1001
0000
0100
0010
,  // measure 102
0100
0000
0001
0000
,  // measure 103
0011
0000
0000
1100
,  // measure 104
0000
0000
1000
0001
,  // measure 105
1000
0001
0000
0100
,  // measure 106
0010
0100
0001
0000
,  // measure 107
0000
1100
0000
0000
,  // measure 108
1001
0000
0100
0010
,  // measure 109
0100
0000
1000
0000
,  // measure 110
1010
0000
0000
0101
,  // measure 111
0000
0000
0001
1000
,  // measure 112
0001
1000
0000
0100
,  // measure 113
0010
0100
1000
0000
,  // measure 114
0000
1010
0000
0000
,  // measure 115
1001
0000
0010
0100
,  // measure 116
0010
0000
0001
0000
,  // measure 117
0101
0000
0000
1010
,  // measure 118
0000
0000
1000
0001
,  // measure 119
1000
0001
0000
0010
,  // measure 120
0100
0010
0001
0000
,  // measure 121
0000
0011
0000
0000
,  // measure 122
1001
0000
0010
0100
,  // measure 123
0010
0000
1000
0000
,  // measure 124
1100
0000
0000
0011
,  // measure 125
0000
0000
0001
1000
,  // measure 126
0001
1000
0000
0010
,  // measure 127
0100
0010
0000
0000
,  // measure 128
0000
0000
1000
0100
,  // measure 129
0010
0000
0100
0010
,  // measure 130
0001
0000
1000
0001
,  // measure 131
1000
0000
0001
0100
,  // measure 132
0010
0000
1000
0010
,  // measure 133
1000
0000
0001
0100
,  // measure 134
0001
0000
0010
0100
,  // measure 135
1000
0000
0010
0100
,  // measure 136
0001
0000
1000
0001
,  // measure 137
1000
0000
0001
0100
,  // measure 138
0001
0000
0010
0100
,  // measure 139
1000
0000
0001
0010
,  // measure 140
0100
0000
0010
0001
,  // measure 141
0010
0000
0100
1000
,  // measure 142
0100
0000
1000
0001
,  // measure 143
1000
0000
0001
0100
,  // measure 144
0001
0000
1000
0000
,  // measure 145
1010
0000
0001
0000
,  // measure 146
0101
0000
1000
0000
,  // measure 147
1100
0000
0001
0000
,  // measure 148
0011
0000
0100
0000
,  // measure 149
0101
0000
0010
0000
,  // measure 150
1010
0000
0100
0000
,  // measure 151
1100
0000
0010
0000
,  // measure 152
0011
0000
1000
0100
,  // measure 153
0010
0001
1000
0000
,  // measure 154
0001
0000
1000
0010
,  // measure 155
0100
0001
1000
0000
,  // measure 156
0001
0000
1000
0100
,  // measure 157
1000
0000
0001
0100
,  // measure 158
0001
0000
1000
0100
,  // measure 159
0010
0001
1000
0100
,  // measure 160
0010
0001
0000
0000
;

//---------------dance-single - ----------------
#NOTES:
     dance-single:
     :
     Beginner:
     4:
     0.183,0.311,0.164,0.000,0.000: // measure 1
0000
0000
0000
0000
,  // measure 2
0000
0000
0000
0000
,  // measure 3
0000
0000
0000
0000
,  // measure 4
0000
0000
0000
0000
,  // measure 5
0000
0000
0000
0000
,  // measure 6
0000
0000
0000
0000
,  // measure 7
0000
0000
0000
0000
,  // measure 8
0000
0000
0000
0000
,  // measure 9
0001
0000
0000
0000
,  // measure 10
0000
0000
0000
0000
,  // measure 11
0000
0000
0000
0000
,  // measure 12
0000
0000
0000
0000
,  // measure 13
1000
0000
0000
0000
,  // measure 14
0000
0000
0000
0000
,  // measure 15
0000
0000
0000
0000
,  // measure 16
0000
0000
0000
0000
,  // measure 17
0010
0000
0000
0000
,  // measure 18
0100
0000
0001
0000
,  // measure 19
0001
0000
0000
0000
,  // measure 20
0000
0000
1000
0000
,  // measure 21
0000
0000
0000
0000
,  // measure 22
0000
0000
0100
0000
,  // measure 23
0000
0000
0000
0000
,  // measure 24
0000
0000
0010
0000
,  // measure 25
0000
0000
0001
0000
,  // measure 26
0000
0000
1000
0000
,  // measure 27
0000
0000
0000
0000
,  // measure 28
0000
0000
0010
0000
,  // measure 29
0000
0000
0000
0000
,  // measure 30
0000
0000
0100
0000
,  // measure 31
0000
0000
0001
0000
,  // measure 32
0000
0000
1000
0000
,  // measure 33
1000
0000
1000
0000
,  // measure 34
0000
0000
0100
0000
,  // measure 35
0000
0000
0000
0000
,  // measure 36
0000
0000
0010
0000
,  // measure 37
0000
0000
0000
0000
,  // measure 38
0000
0000
0001
0000
,  // measure 39
0000
0000
1000
0000
,  // measure 40
0000
0000
0010
0000
,  // measure 41
0000
0000
0000
0000
,  // measure 42
0000
0000
0100
0000
,  // measure 43
0000
0000
0000
0000
,  // measure 44
0000
0000
0001
0000
,  // measure 45
0000
0000
1000
0000
,  // measure 46
0000
0000
0100
0000
,  // measure 47
0100
0000
0010
0000
,  // measure 48
0000
0000
0001
0000
,  // measure 49
0001
0000
1000
0000
,  // measure 50
0000
0000
0110
0000
,  // measure 51
0000
0000
0000
0000
,  // measure 52
0000
0000
1001
0000
,  // measure 53
0000
0000
0000
0000
,  // measure 54
0000
0000
0110
0000
,  // measure 55
0000
0000
0000
0000
,  // measure 56
0000
0000
1001
0000
,  // measure 57
0000
0000
0000
0000
,  // measure 58
0001
0000
1001
0000
,  // measure 59
0000
0000
0000
0000
,  // measure 60
0000
0000
1001
0000
,  // measure 61
0000
0000
0000
0000
,  // measure 62
0000
0000
1000
0000
,  // measure 63
1000
0000
0001
0000
,  // measure 64
0000
0000
0001
0000
,  // measure 65
0001
0000
1000
0000
,  // measure 66
0001
0000
1001
0000
,  // measure 67
0000
0000
0000
0000
,  // measure 68
0000
0000
0110
0000
,  // measure 69
0000
0000
0000
0000
,  // measure 70
0000
0000
1001
0000
,  // measure 71
0000
0000
0000
0000
,  // measure 72
0000
0000
0110
0000
,  // measure 73
0000
0000
0000
0000
,  // measure 74
0000
0000
0010
0000
,  // measure 75
0000
0000
0100
0000
,  // measure 76
0000
0000
1000
0000
,  // measure 77
0001
0000
1001
0000
,  // measure 78
0000
0000
0001
0000
,  // measure 79
1000
0000
1001
0000
,  // measure 80
0000
0000
0100
0000
,  // measure 81
0100
0000
0010
0000
,  // measure 82
0010
0000
0000
0000
,  // measure 83
0000
0000
1000
0000
,  // measure 84
0000
0000
0001
0000
,  // measure 85
0000
0000
1000
0000
,  // measure 86
0000
0000
0001
0000
,  // measure 87
0000
0000
1000
0000
,  // measure 88
0100
0000
0010
0000
,  // measure 89
0001
0000
1000
0000
,  // measure 90
0010
0000
0100
0000
,  // measure 91
0001
0000
1000
0000
,  // measure 92
0000
0000
0001
0000
,  // measure 93
0000
0000
0010
0000
,  // measure 94
0000
0000
0100
0000
,  // measure 95
0000
0000
1000
0000
,  // measure 96
0000
0000
0001
0000
,  // measure 97
0000
0000
1000
0000
,  // measure 98
0001
0000
1000
0001
,  // measure 99
1000
0001
1000
0000
,  // measure 100
0000
1000
0000
0000
,  // measure 101
0000
0000
0000
0000
,  // measure 102
0000
0000
0000
0000
,  // measure 103
0001
0000
0000
0001
,  // measure 104
0000
0000
0000
0000
,  // measure 105
0000
0000
0000
0000
,  // measure 106
0000
0000
0100
0000
,  // measure 107
0000
0100
0000
0000
,  // measure 108
0000
0000
0000
0000
,  // measure 109
0000
0000
0000
0000
,  // measure 110
0010
0000
0000
0010
,  // measure 111
0000
0000
0000
0000
,  // measure 112
0000
0000
0000
0000
,  // measure 113
0000
0000
0100
0000
,  // measure 114
0000
0100
0000
0000
,  // measure 115
0000
0000
0000
0000
,  // measure 116
0000
0000
0000
0000
,  // measure 117
0001
0000
0000
0001
,  // measure 118
0000
0000
0000
0000
,  // measure 119
0000
0000
0000
0000
,  // measure 120
0000
0000
0010
0000
,  // measure 121
0000
0010
0000
0000
,  // measure 122
0000
0000
0000
0000
,  // measure 123
0000
0000
0000
0000
,  // measure 124
0100
0000
0000
0100
,  // measure 125
0000
0000
1000
0000
,  // measure 126
0000
1000
0000
0000
,  // measure 127
0000
0000
0000
0000
,  // measure 128
0000
0000
0001
0000
,  // measure 129
0000
0000
1000
0000
,  // measure 130
0000
0000
0010
0000
,  // measure 131
0000
0000
0100
0000
,  // measure 132
0000
0000
0001
0000
,  // measure 133
0000
0000
1000
0000
,  // measure 134
0000
0000
0100
0000
,  // measure 135
0000
0000
0010
0000
,  // measure 136
0000
0000
0001
0000
,  // measure 137
0000
0000
0001
0000
,  // measure 138
0000
0000
1000
0000
,  // measure 139
0000
0000
1000
0000
,  // measure 140
0000
0000
0010
0000
,  // measure 141
0000
0000
0100
0000
,  // measure 142
0000
0000
0010
0000
,  // measure 143
0000
0000
0100
0000
,  // measure 144
0000
0000
0001
0000
,  // measure 145
1000
0000
1001
0000
,  // measure 146
0000
0000
1000
0000
,  // measure 147
0001
0000
1001
0000
,  // measure 148
0000
0000
0100
0000
,  // measure 149
0010
0000
0110
0000
,  // measure 150
0000
0000
0010
0000
,  // measure 151
0100
0000
0110
0000
,  // measure 152
0000
0000
1001
0000
,  // measure 153
0000
0000
0110
0000
,  // measure 154
0000
0000
1001
0000
,  // measure 155
0000
0000
0110
0000
,  // measure 156
0000
0000
0001
0000
,  // measure 157
0001
0000
1000
0000
,  // measure 158
1000
0000
0001
0000
,  // measure 159
1000
0000
0001
0000
,  // measure 160
1001
0000
0000
0000
;

//---------------dance-single - ----------------
#NOTES:
     dance-single:
     :
     Easy:
     5:
     0.301,0.436,0.110,0.157,0.000: // measure 1
0000
0000
0000
0000
,  // measure 2
0000
0000
0000
0000
,  // measure 3
0000
0000
0000
0000
,  // measure 4
0000
0000
0000
0000
,  // measure 5
0000
0000
0000
0000
,  // measure 6
0000
0000
0000
0000
,  // measure 7
0000
0000
0000
0000
,  // measure 8
0000
0000
0000
0000
,  // measure 9
1000
0000
0000
1000
,  // measure 10
0000
0000
0001
0000
,  // measure 11
0000
0001
0000
0000
,  // measure 12
0100
0000
0110
0000
,  // measure 13
0001
0000
0000
0001
,  // measure 14
0000
0000
1000
0000
,  // measure 15
0000
1000
0000
0000
,  // measure 16
0100
0000
0110
0000
,  // measure 17
0001
0000
0000
0000
,  // measure 18
1000
0000
0010
0000
,  // measure 19
0000
0000
0100
0000
,  // measure 20
0001
0000
0010
0000
,  // measure 21
0100
0000
1000
0000
,  // measure 22
0001
0000
0010
0000
,  // measure 23
0000
0000
0100
0000
,  // measure 24
0000
0000
0010
0000
,  // measure 25
0001
0000
1000
0000
,  // measure 26
0000
0000
0010
0000
,  // measure 27
0000
0000
0100
0000
,  // measure 28
0001
0000
1000
0000
,  // measure 29
0100
0000
0010
0000
,  // measure 30
0100
0000
1000
0000
,  // measure 31
1000
0000
0001
0000
,  // measure 32
0001
0000
0100
0000
,  // measure 33
0010
0000
0100
0000
,  // measure 34
0000
0000
0001
0000
,  // measure 35
0000
0000
1000
0000
,  // measure 36
0001
0000
0010
0000
,  // measure 37
0100
0000
1000
0000
,  // measure 38
0010
0000
0100
0000
,  // measure 39
0000
0000
0010
0000
,  // measure 40
0010
0000
1000
0000
,  // measure 41
0001
0000
1000
0000
,  // measure 42
0000
0000
0100
0000
,  // measure 43
0000
0000
0010
0000
,  // measure 44
0001
0000
1000
0000
,  // measure 45
0010
0000
0100
0000
,  // measure 46
0010
0000
1000
0000
,  // measure 47
1000
0000
0001
0000
,  // measure 48
0001
0000
1000
0000
,  // measure 49
0001
0000
1000
0000
,  // measure 50
0001
0000
0010
0000
,  // measure 51
0000
0000
0100
0000
,  // measure 52
1000
0000
0100
0000
,  // measure 53
0000
0000
0010
0000
,  // measure 54
0001
0000
1000
0000
,  // measure 55
0000
0000
0010
0000
,  // measure 56
0100
0000
0010
0000
,  // measure 57
1000
0000
0001
0000
,  // measure 58
0000
0000
0100
0000
,  // measure 59
0000
0000
0010
0000
,  // measure 60
1000
0000
0100
0000
,  // measure 61
0010
0000
0001
0000
,  // measure 62
1000
0000
0001
0000
,  // measure 63
0001
0000
1000
0000
,  // measure 64
1000
0000
0010
0000
,  // measure 65
0100
0000
0100
0000
,  // measure 66
0000
0000
0001
0000
,  // measure 67
0000
0000
1000
0000
,  // measure 68
0100
0000
0100
0000
,  // measure 69
0010
0000
0100
0000
,  // measure 70
1000
0000
0001
0000
,  // measure 71
0001
0000
0100
0000
,  // measure 72
0010
0000
0100
0000
,  // measure 73
0001
0000
1000
0000
,  // measure 74
0000
0000
0001
0000
,  // measure 75
0000
0000
1000
0000
,  // measure 76
0100
0000
0010
0000
,  // measure 77
0000
0000
1001
0000
,  // measure 78
0000
0000
0010
0000
,  // measure 79
0010
0000
0100
0000
,  // measure 80
0000
0000
0001
0000
,  // measure 81
0100
0000
1000
0000
,  // measure 82
0010
0000
0000
0000
,  // measure 83
0000
0000
0001
0000
,  // measure 84
0000
0000
0000
0000
,  // measure 85
0000
0000
1000
0000
,  // measure 86
0000
0000
0000
0000
,  // measure 87
0000
0000
0010
0000
,  // measure 88
0000
0000
0100
0000
,  // measure 89
0000
0000
0001
0000
,  // measure 90
0000
0000
1000
0000
,  // measure 91
0100
0000
0010
0000
,  // measure 92
0000
0000
0100
0000
,  // measure 93
0000
0000
1000
0000
,  // measure 94
0001
0000
1000
0000
,  // measure 95
0000
0000
0010
0000
,  // measure 96
0100
0000
0001
0000
,  // measure 97
1000
0000
0100
0000
,  // measure 98
0010
0000
0100
0010
,  // measure 99
0100
0000
1000
0000
,  // measure 100
0000
1000
0000
0000
,  // measure 101
0010
0000
1000
0000
,  // measure 102
0001
0000
0100
0000
,  // measure 103
0001
0000
0000
0001
,  // measure 104
0000
0000
0010
0000
,  // measure 105
0001
0000
0100
0000
,  // measure 106
0010
0000
1000
0000
,  // measure 107
0000
1000
0000
0000
,  // measure 108
0100
0000
0010
0000
,  // measure 109
0001
0000
1000
0000
,  // measure 110
0001
0000
0000
0001
,  // measure 111
0000
0000
0100
0000
,  // measure 112
0010
0000
1000
0000
,  // measure 113
0100
0000
0010
0000
,  // measure 114
0000
0010
0000
0000
,  // measure 115
0100
0000
1000
0000
,  // measure 116
0001
0000
0100
0000
,  // measure 117
0010
0000
0000
0010
,  // measure 118
0000
0000
0100
0000
,  // measure 119
0001
0000
1000
0000
,  // measure 120
0001
0000
0100
0000
,  // measure 121
0000
0100
0000
0000
,  // measure 122
0010
0000
1000
0000
,  // measure 123
0001
0000
0010
0000
,  // measure 124
0100
0000
0000
0100
,  // measure 125
0000
0000
1000
0000
,  // measure 126
0001
0000
0100
0000
,  // measure 127
0010
0000
1000
0000
,  // measure 128
0000
0000
0002
0000
,  // measure 129
0003
0000
2000
0000
,  // measure 130
3000
0000
0020
0000
,  // measure 131
0030
0000
0200
0000
,  // measure 132
0300
0000
0002
0000
,  // measure 133
0003
0000
0020
0000
,  // measure 134
0030
0000
0200
0000
,  // measure 135
0300
0000
2000
0000
,  // measure 136
3000
0000
0020
0000
,  // measure 137
0030
0000
0220
0000
,  // measure 138
0330
0000
0200
0000
,  // measure 139
0300
0000
0220
0000
,  // measure 140
0330
0000
0002
0000
,  // measure 141
0003
0000
2000
0000
,  // measure 142
3002
0000
0023
0000
,  // measure 143
0030
0000
0220
0000
,  // measure 144
0330
0000
0001
0000
,  // measure 145
0011
0000
1000
0000
,  // measure 146
1100
0000
0001
0000
,  // measure 147
0000
0000
1000
0000
,  // measure 148
0000
0000
0010
0000
,  // measure 149
1010
0000
0100
0000
,  // measure 150
0101
0000
1000
0000
,  // measure 151
0000
0000
0100
0000
,  // measure 152
0010
0000
0100
0000
,  // measure 153
1100
0000
0010
0000
,  // measure 154
0011
0000
1000
0000
,  // measure 155
0000
0000
0001
0000
,  // measure 156
0100
0000
0010
0000
,  // measure 157
1010
0000
0100
0000
,  // measure 158
0101
0000
1000
0000
,  // measure 159
0001
0000
1000
0000
,  // measure 160
0001
0000
0000
0000
;
