#TITLE:Bring Me to Life;
#SUBTITLE:;
#ARTIST:Evanescence;
#TITLETRANSLIT:;
#SUBTITLETRANSLIT:;
#ARTISTTRANSLIT:;
#GENRE:;
#CREDIT:;
#MENUCOLOR:;
#METERTYPE:DDR X;
#BANNER:[Speed Changes] - Bring Me to Life.png;
#BACKGROUND:[Speed Changes] - Bring Me to Life-bg.png;
#JACKET:[Speed Changes] - Bring Me to Life-jacket.png
#LYRICSPATH:;
#CDTITLE:;
#MUSIC:[Speed Changes] - Bring Me to Life.mp3;
#OFFSET:2.000;
#SAMPLESTART:52.320;
#SAMPLELENGTH:15.000;
#SELECTABLE:YES;
#LISTSORT:;
#BPMS:0.000=95.010,52.000=190.020,228.000=95.010;
#STOPS:115.500=1.263
;
#BGCHANGES:;
#ATTACKS:;

//---------------dance-single - ----------------
#NOTES:
     dance-single:
     :
     Hard:
     8:
     0.402,0.494,0.185,0.342,0.000: // measure 1
0000
0000
0000
0000
0000
0000
0000
1000
,  // measure 2
0001
0000
1000
0001
0000
1000
0001
0000
,  // measure 3
0001
0010
0000
0001
1000
0000
0000
1000
,  // measure 4
0001
0000
1000
0001
0000
1000
0001
0000
,  // measure 5
0001
0010
0000
0001
1000
0000
1000
0001
,  // measure 6
0020
0000
0000
0000
1030
0010
0000
2000
,  // measure 7
0000
0000
0001
3001
0000
0001
1000
0200
,  // measure 8
0000
0000
0000
1300
0100
0010
0000
0010
,  // measure 9
0200
0010
0010
0000
0010
0310
0000
0000
,  // measure 10
0002
0000
0000
0000
0103
0020
1030
2000
,  // measure 11
0000
0000
3001
0200
0000
0310
1000
2000
,  // measure 12
0000
0000
0000
3001
1000
0100
0000
0020
,  // measure 13
0000
0001
0000
0100
0002
0000
0033
0000
,  // measure 14
0010
0001
0000
0010
0001
0000
0001
0100
,  // measure 15
0000
0100
0010
0000
0000
0000
1010
0000
,  // measure 16
1000
0100
1000
0000
0100
0010
0000
0010
,  // measure 17
0100
0000
1000
0000
0001
0001
0200
0000
,  // measure 18
0310
1000
0000
0010
1000
0000
1000
0001
,  // measure 19
0000
0001
0100
0000
0000
0000
1010
0000
,  // measure 20
0000
1000
0100
0000
0100
0001
0000
0001
,  // measure 21
0100
0000
1000
0000
0010
0010
2000
0000
,  // measure 22
3001
1000
0000
1000
0010
0000
0010
0100
,  // measure 23
0000
0100
0001
0000
0000
0000
1100
0000
,  // measure 24
0000
1000
0010
0000
0010
0100
0000
0100
,  // measure 25
0001
0000
1000
0000
0001
0001
0020
0000
,  // measure 26
0130
1000
0000
1000
0100
0000
0100
0010
,  // measure 27
0002
0000
0000
0000
,  // measure 28
2000
0000
0000
0000
,  // measure 29
0000
0000
0000
3003
,  // measure 30
1100
0000
0110
0000
1100
0000
0000
0010
,  // measure 31
0000
0001
0000
0100
0000
0001
0000
0010
,  // measure 32
0011
0000
0101
0000
0011
0000
0000
0010
,  // measure 33
0000
0001
0000
0100
0000
0001
0010
0100
,  // measure 34
2000
0000
0000
0000
3010
0000
0000
0100
,  // measure 35
0000
0001
0000
1000
0000
0000
0100
0000
,  // measure 36
0120
0000
0032
0000
,  // measure 37
2003
0000
0000
0000
3200
0000
1000
1300
,  // measure 38
1100
0000
1001
0000
1100
0000
0000
0010
,  // measure 39
0000
0100
0000
1000
0000
0010
0000
0100
,  // measure 40
0101
0000
0011
0000
0101
0000
0100
0001
,  // measure 41
0000
0010
0000
0001
0000
0010
0100
1000
,  // measure 42
0020
0000
0000
0000
1030
0000
0000
1000
,  // measure 43
0000
0001
0000
0100
0000
0000
0110
0000
,  // measure 44
0020
0000
2030
0000
,  // measure 45
3002
0000
0203
0300
,  // measure 46
0202
0000
0000
0300
,  // measure 47
2000
0000
0000
3000
,  // measure 48
0020
0000
0000
0030
,  // measure 49
0200
0000
0000
0300
,  // measure 50
2000
0000
0000
0000
3003
0000
1000
0100
,  // measure 51
0010
0100
1000
0001
0100
0001
0100
0001
,  // measure 52
0101
0000
0001
0000
0001
0010
0000
0010
,  // measure 53
0000
0100
0000
0100
0000
0110
0000
0000
,  // measure 54
0200
0000
0000
0000
,  // measure 55
2000
0000
0000
3000
,  // measure 56
0020
0000
0000
0030
,  // measure 57
0002
0000
0000
0003
,  // measure 58
0020
0000
0000
0330
0100
0000
0010
0100
,  // measure 59
0000
0010
0100
0000
0100
0010
0000
0000
,  // measure 60
0010
0100
0010
0001
0010
0001
0100
0001
,  // measure 61
0100
1000
0100
1000
0100
0001
0010
0100
,  // measure 62
1000
0100
1000
0100
0010
0100
1000
0001
,  // measure 63
1000
0100
0010
0100
0010
0001
0100
0001
,  // measure 64
1000
0000
0000
0000
;

//---------------dance-single - ----------------
#NOTES:
     dance-single:
     :
     Easy:
     3:
     0.153,0.184,0.018,0.194,0.000:
0000
0000
0000
0000
0000
0000
0000
1000
,
0000
0000
1000
0000
0000
0001
0000
0000
,
0001
0000
0000
1000
0000
0000
0000
0010
,
0000
0000
0100
0000
0000
0010
0000
0000
,
0100
0000
0000
0010
0000
0000
0000
0000
,
2000
0000
3001
0000
,
0002
0000
0013
0000
,
0020
0000
0000
0000
,
0200
0000
0000
0330
,
0200
0000
1300
0000
,
2000
0000
3001
0000
,
0002
0000
0013
0000
,
0020
0000
0000
0000
,
0130
0000
0100
0000
,
0100
0000
0000
0000
,
0000
0000
1000
0000
,
1000
0000
0001
0000
,
0010
0000
0010
0000
,
0010
0000
0000
0000
,
0000
0000
0100
0000
,
1000
0000
0001
0000
,
1000
0000
1000
0000
,
1000
0000
0000
0000
,
0000
0000
0100
0000
,
0010
0000
0001
0000
,
0010
0000
0010
0000
,
0010
0000
0000
0000
,
0000
0000
0100
0000
,
0100
0000
0200
0000
,
0300
0000
0100
0000
,
0010
0000
0100
0000
,
0000
0000
0010
0000
,
0100
0000
0010
0000
,
0000
0000
0010
0000
,
0001
0000
0100
0000
,
0002
0000
2003
0000
,
3020
0000
0230
0000
,
0301
0000
0010
0000
,
0100
0000
0010
0000
,
0000
0000
0100
0000
,
0010
0000
0100
0000
,
0000
0000
0010
0000
,
0001
0000
0100
0000
,
0002
0000
2003
0000
,
3020
0000
0230
0000
,
0310
0000
0000
0000
,
0100
0000
0000
0000
,
0110
0000
0000
0000
,
1001
0000
0000
0000
,
1000
0000
0000
0000
,
0001
0001
0001
0000
,
1000
0000
0010
1000
,
0010
1000
0010
0000
,
2000
0000
0000
0000
,
3002
0000
0000
0000
,
2003
0000
0000
0000
,
3020
0000
0000
0000
,
0130
0000
0000
0000
;

//---------------dance-single - ----------------
#NOTES:
     dance-single:
     :
     Medium:
     6:
     0.363,0.366,0.323,0.434,0.000:
0000
0000
0000
0000
0000
0000
0000
1000
,
0001
0000
1000
0001
0000
1000
0001
0000
,
1000
0001
0000
1000
0001
0000
0000
1000
,
0001
0000
0010
0100
0000
0010
0100
0000
,
0010
0100
0000
0010
0100
0000
0010
0100
,
2000
0000
0000
0000
3001
0001
0000
0020
,
0000
0000
0130
1000
0000
1000
0001
1000
,
0000
0000
0000
1000
0010
2000
0000
3002
,
0000
0010
0013
0000
,
0210
0000
0000
0000
1300
0100
0000
0020
,
0000
0000
0130
0010
0000
0010
0001
0100
,
0000
0000
0000
0001
1000
0001
0000
0000
,
0000
0001
2000
0002
0000
0000
0000
3003
,
1001
0000
0000
1100
0000
0000
1001
0000
,
0000
0001
0100
0010
,
0000
1010
0000
0000
1001
0000
0000
1010
,
0000
1000
0100
0010
,
0011
0000
0000
1001
0000
0000
1100
0000
,
1000
0100
0000
2000
,
0000
3001
0001
0010
,
0000
0010
0010
0100
,
1100
0000
0000
1010
0000
0000
1100
0000
,
1000
0100
0000
0110
,
0000
0011
0001
0000
,
1001
1000
0100
1000
,
1001
0001
0100
0001
,
2000
0000
0000
0000
,
3020
0000
0000
0000
,
0230
0000
0000
0000
,
0001
0000
0301
0000
0101
0000
0000
1000
,
0000
0100
0000
0010
0000
0100
0000
0100
,
1000
0000
1000
0000
1100
0000
0000
0001
,
0000
0100
0000
0010
0000
0100
0000
0001
,
0102
0000
0000
0000
2003
0000
0000
3010
,
0000
0100
0000
0001
0000
0000
0010
0000
,
0220
0330
2002
3003
,
2020
3030
0202
0303
,
1000
0000
1000
0000
1010
0000
0000
0001
,
0000
0010
0000
0100
0000
0010
0000
0001
,
0001
0000
0001
0000
0011
0000
0000
1000
,
0000
0010
0000
0100
0000
0001
0000
1000
,
2001
0000
0000
0000
3100
0000
0000
0010
,
0000
0100
0000
1000
0000
0000
0001
0000
,
2002
3003
0220
0330
,
0022
0033
2200
3300
,
2000
0000
0000
3000
,
0002
0000
0000
0003
,
0020
0000
0000
0030
,
0200
0000
0000
0300
,
2000
0000
0000
3001
,
0001
0100
0001
0100
0000
0000
0010
0000
,
1010
0000
0000
0000
1100
1000
0000
0100
,
0000
0010
0000
0001
0000
1001
0000
0000
,
2000
0000
3020
0000
,
0230
0000
0302
0000
,
2003
0000
3002
0000
,
2003
0000
0000
0000
3010
0100
0010
0100
,
0002
1000
1000
1003
,
2000
0001
0001
3001
,
0020
0100
0100
0130
,
0200
0010
0010
0310
,
0110
0000
0000
0000
;
