#TITLE:You Belong With Me;
#SUBTITLE:;
#ARTIST:Taylor Swift;
#TITLETRANSLIT:;
#SUBTITLETRANSLIT:;
#ARTISTTRANSLIT:;
#GENRE:;
#CREDIT:Chewi☆;
#BANNER:You Belong With Me-BN.png;
#BACKGROUND:You Belong With Me-bg.png;
#LYRICSPATH:;
#CDTITLE:;
#MUSIC:You Belong With Me.mp3;
#OFFSET:-0.372;
#SAMPLESTART:51.366;
#SAMPLELENGTH:15.000;
#SELECTABLE:YES;
#DISPLAYBPM:130.000;
#BPMS:0.000=130.000;
#STOPS:;
#BGCHANGES:;
#KEYSOUNDS:;

//---------------dance-single - Chewi----------------
#NOTES:
     dance-single:
     Chewi:
     Hard:
     8:
     0.404,0.000,0.202,0.092,0.000: // measure 1
0000
0000
0000
0000
,  // measure 2
0000
0000
0000
0000
,  // measure 3
0000
0000
0000
0000
,  // measure 4
0000
0000
0000
0000
,  // measure 5
1000
0000
0100
0000
1000
0010
0100
0000
,  // measure 6
0001
0000
0100
0000
0001
1000
0010
0100
,  // measure 7
0001
0000
1000
0000
0100
1000
0100
0000
,  // measure 8
1000
0000
0010
0000
0100
0001
0010
0100
,  // measure 9
1000
0000
0001
0000
0100
0001
1000
0000
,  // measure 10
0001
0000
0100
0000
0010
1000
0100
0010
,  // measure 11
0001
0000
1000
0000
0100
1000
0100
0000
,  // measure 12
1000
0100
0001
0100
1000
0010
0001
0010
,  // measure 13
0100
0000
0001
0000
0010
0100
1000
0000
,  // measure 14
0001
0000
0100
0000
0010
1000
0100
0001
,  // measure 15
0100
0000
1000
0000
0010
0100
0001
0000
,  // measure 16
1000
0000
0010
0000
0100
0001
0100
0010
,  // measure 17
1000
0000
0100
0000
1000
0010
0100
0000
,  // measure 18
0001
0000
0100
0000
0010
0100
0001
0010
,  // measure 19
1000
0000
0010
0000
0001
0100
0010
0000
,  // measure 20
1000
0100
0001
0100
0010
0001
0100
0010
,  // measure 21
1000
0000
1001
0000
0001
1000
0100
0000
,  // measure 22
1100
0000
0011
0000
0100
1000
0100
0000
,  // measure 23
1001
0000
0101
0000
0001
0001
0020
0000
,  // measure 24
0130
0000
1000
0001
0100
0000
0110
0000
,  // measure 25
0001
0100
1000
0100
0001
0000
1000
0100
,  // measure 26
0010
0001
1000
0001
0000
0100
0010
1000
,  // measure 27
0002
0000
0000
1000
1003
0000
0000
0000
,  // measure 28
2000
0000
0000
0001
3001
0000
1001
0000
,  // measure 29
0001
0100
1000
0100
0001
0010
0100
1000
,  // measure 30
0010
1000
0100
1000
0001
0000
0101
0000
,  // measure 31
1000
0010
0001
0010
0100
0010
1000
0001
,  // measure 32
1000
0100
0010
0000
0011
0000
1100
0000
,  // measure 33
0210
0010
0001
0310
,  // measure 34
1000
0000
0001
1000
0001
0000
0101
0000
,  // measure 35
2001
0001
0010
3001
,  // measure 36
1000
0100
0001
0100
1000
0010
0010
0000
,  // measure 37
0100
0001
0100
0010
1000
0100
0010
0001
,  // measure 38
0100
1000
0100
0001
1000
0000
1001
0000
,  // measure 39
1000
0100
1000
0001
1000
0010
0100
0001
,  // measure 40
0010
0100
1000
0001
1000
0000
1010
0000
,  // measure 41
0210
0010
1000
0310
,  // measure 42
0001
0000
0001
0010
0100
0000
1100
0000
,  // measure 43
2010
0001
0100
3001
,  // measure 44
0100
0001
0100
0010
2000
0000
3001
0000
,  // measure 45
0001
0100
1000
0100
0001
0010
0100
0000
,  // measure 46
1000
0100
1000
0000
0001
0100
0001
0000
,  // measure 47
1000
0010
0001
0010
0100
0001
1000
0000
,  // measure 48
0100
1000
0010
0100
0001
0000
0011
0000
,  // measure 49
0102
1000
0100
1003
,  // measure 50
0001
0000
0100
0010
1000
0000
1010
0000
,  // measure 51
1002
1000
0100
1003
,  // measure 52
0010
1000
0100
0010
0001
1000
0001
0100
,  // measure 53
0010
0000
0000
0000
;

//---------------dance-single - Chewi----------------
#NOTES:
     dance-single:
     Chewi:
     Medium:
     6:
     0.305,0.000,0.092,0.092,0.000:
0000
0000
0000
0000
,
0000
0000
0000
0000
,
0000
0000
0000
0000
,
0000
0000
0000
0000
,
1000
0001
1000
0001
,
0100
0000
0001
0000
0100
0000
0010
1000
,
0100
1000
0100
1000
,
0010
0000
0001
0000
0010
0000
1000
0100
,
0010
0001
0100
1000
,
0100
0000
0001
0000
0010
0000
0100
1000
,
0002
1003
2000
3001
,
0000
0000
0000
0000
,
0001
1000
0001
1000
,
0100
0000
1000
0000
0010
0000
0100
0100
,
0001
0010
0100
1000
,
0010
0000
0100
0000
0001
0001
1000
0000
,
0100
1000
0010
0100
,
0001
1000
1000
0001
,
0200
0301
2000
3100
,
1000
0001
1000
0000
0001
0100
0001
0000
,
0100
0010
1000
1100
,
1000
0001
0100
0101
,
0001
1000
0100
0010
,
1001
0010
1001
1001
,
1000
0100
1000
0010
,
0100
0001
1000
0100
,
0110
0000
0000
0010
0010
0000
0000
0000
,
1001
0000
0000
1000
1000
0000
0001
0000
,
1000
0000
0100
1000
0000
0000
1000
0010
,
0000
0010
0100
0001
1000
0000
1100
0000
,
1000
0000
0001
1000
0000
0000
1000
0001
,
0000
0001
0100
0000
0100
0000
0010
0000
,
2000
0001
0001
3001
,
0001
0000
1000
0100
1000
0000
0010
0000
,
0200
0010
0010
0310
,
1000
0001
1000
0000
0001
1000
0001
0000
,
1000
0000
0100
0010
0000
0000
0010
0001
,
0000
0001
1000
0100
1000
0000
1001
0000
,
0001
0000
0100
0001
0000
0000
0001
0010
,
0000
0010
0100
0000
1100
0000
0001
0000
,
2000
0001
0001
3001
,
0000
0000
0001
0100
0010
0000
1000
0000
,
2000
0001
0001
3001
,
0001
0100
0010
0000
1000
0100
0010
0000
,
0001
0000
0001
0000
1000
0100
1000
0000
,
0001
0000
0001
0000
0010
0100
0010
0000
,
0100
0000
0100
0000
1000
0100
1000
0000
,
0001
0100
0010
0000
1000
0000
0001
0000
,
2000
0001
0001
3001
,
0001
0000
0100
0001
0100
0000
0001
0000
,
0002
1000
1000
1003
,
1000
0000
0100
0000
0010
0000
0001
1000
,
0001
0000
0000
0000
;

//---------------dance-single - ----------------
#NOTES:
     dance-single:
     :
     Easy:
     4:
     0.195,0.000,0.009,0.000,0.000:
0000
0000
0000
0000
,
0000
0000
0000
0000
,
0000
0000
0000
0000
,
0000
0000
0000
0000
,
1000
1000
0000
0001
,
0000
0010
0000
0100
,
0100
1000
0000
1000
,
0000
0010
0000
0001
,
0001
0000
0010
0000
,
1000
0000
0100
0000
,
0010
0000
0001
0000
,
1000
0000
0000
0000
,
1000
0100
0000
1000
,
0000
0001
0010
0001
,
0100
0000
0100
0000
,
0100
0000
0010
0000
,
0010
1000
0000
1000
,
0000
0001
0000
0001
,
0100
0000
0100
0000
,
0010
0010
0010
0010
,
1000
0001
1000
1000
,
0001
1000
0001
0001
,
1000
0001
1000
1000
,
0001
1000
0001
0001
,
0001
1000
0001
1000
,
0001
0001
1000
0100
,
1000
0000
0010
0000
,
0100
0000
0001
0000
,
1000
1000
1000
0000
,
0001
0000
0010
0010
,
0100
0100
0100
0000
,
1000
0000
0010
0010
,
0100
0000
0100
0000
,
0100
0001
0010
0100
,
1000
0000
1000
0000
,
1000
1000
0001
0001
,
0100
0100
0010
0010
,
0100
0001
0100
0010
,
1000
1000
0001
0001
,
1000
0010
0100
0001
,
1000
0001
0000
0001
,
0000
0001
0100
0010
,
1000
0001
0000
0001
,
1000
0100
0010
0001
,
1000
1000
1000
0000
,
0001
0001
0001
0000
,
0100
0100
0100
0000
,
0010
1000
0001
1000
,
0100
0010
0000
0010
,
0001
0100
0010
1000
,
0001
1000
0000
1000
,
1000
0001
0100
0010
,
1001
0000
0000
0000
;
