#TITLE:Session 9;
#SUBTITLE:-Chronicles-;
#ARTIST:PRASTIK DANCEFLOOR;
#TITLETRANSLIT:;
#SUBTITLETRANSLIT:;
#ARTISTTRANSLIT:;
#GENRE:;
#CREDIT:;
#BANNER:[The Letter S] - Session 9 -Chronicles-.png;
#BACKGROUND:[The Letter S] - Session 9 -Chronicles--bg.png;
#LYRICSPATH:;
#CDTITLE:;
#MUSIC:[The Letter S] - Session 9 -Chronicles-.mp3;
#OFFSET:-1.350;
#SAMPLESTART:55.550;
#SAMPLELENGTH:15.220;
#SELECTABLE:YES;
#DISPLAYBPM:95.000:189.000;
#BPMS:0.000=182.000
,56.000=364.000
,88.000=189.000
,222.000=378.000
,236.000=94.500
,252.000=189.000
;
#STOPS:234.000=0.952
;
#BGCHANGES:;
#KEYSOUNDS:;
#ATTACKS:;

//---------------dance-single - Blank----------------
#NOTES:
     dance-single:
     :
     Hard:
     9:
     0.660,0.755,0.203,0.203,0.268,519.000,25.000,25.000,0.000,0.000,0.000,0.660,0.755,0.203,0.203,0.268,519.000,25.000,25.000,0.000,0.000,0.000:
0000
0000
0000
0000
,
0000
0000
0000
0000
,
0000
0000
0000
0000
,
0000
0000
0000
0000
,
1001
0000
0000
1000
0010
1000
0020
0000
0000
0030
0000
0000
,
1001
0000
0000
0001
0010
0001
0020
0000
0000
0030
0000
0000
,
1001
0000
0000
1000
0100
1000
0200
0000
0000
0302
0000
0000
,
0203
2300
3020
0130
,
1001
0000
0000
0001
0100
0001
0200
0000
0000
0300
0000
0000
,
1001
0000
0000
1000
0100
1000
0200
0000
0000
0300
0000
0000
,
1001
0000
0000
0001
0010
0001
0020
0000
0000
2030
0000
0000
,
3020
0032
0203
0310
,
1000
0000
1000
0100
0000
0100
0010
0000
0010
1000
0000
1000
,
0010
0000
0010
0100
0000
0100
0001
0000
0001
0100
0000
0200
,
2000
0000
0000
0000
,
0000
0000
0000
0000
,
0000
0000
0000
0000
,
0000
0000
0000
0000
,
0000
0000
0000
0000
,
0000
0000
0000
0000
,
0000
0000
0000
0000
,
0000
0000
0000
3300
,
1000
0000
0000
1000
0010
0000
0100
0000
0000
0000
0001
0000
0010
0000
0000
0010
,
0100
1000
0000
0110
0000
0101
0000
0010
,
0001
0000
0000
0001
0100
0000
0010
0000
0000
0000
1000
0000
0100
0000
0000
0100
,
0010
0001
0000
0110
0000
1010
0000
0100
,
1000
0000
0000
1000
0100
0000
0010
0000
0000
0000
0001
0000
0100
0000
0000
0100
,
0010
1000
0000
0110
0000
0011
0000
0100
,
0001
0000
0000
0001
0010
0000
0100
0000
0000
0000
1000
0000
0010
0000
0000
0010
,
0100
0001
0000
0110
0000
1100
0000
0010
,
1000
0000
0000
1000
0010
0000
0100
0000
0000
0000
0001
0000
0010
0000
0000
0010
,
0100
1000
0010
0100
0010
1000
0100
0010
,
0001
0000
0000
0001
0100
0000
0010
0000
0000
0000
1000
0000
0100
0000
0000
0100
,
0010
0001
0100
0010
0100
0001
0010
0100
,
1000
0000
0000
1000
0100
0000
0010
0000
0000
0000
0001
0000
0100
0000
0000
0100
,
0010
1000
0100
0010
0100
1000
0010
0100
,
0001
0000
0000
0001
0010
0000
0100
0000
0000
0000
1000
0000
0010
0000
0000
0010
,
0100
0000
0000
1000
0000
0000
0100
0000
0000
0001
0000
0000
0010
0000
0100
0000
,
1000
0010
0100
1000
0100
0001
0010
0000
,
0100
1000
0010
0001
0010
1000
0100
0000
,
1000
0010
0100
0001
0010
0100
1000
0000
,
0001
0100
0010
1000
0100
0010
0001
0000
,
0100
0010
0100
0001
0010
0100
1000
0000
,
0010
0100
0010
1000
0100
0010
0001
0000
,
1000
0010
0001
0010
1000
0100
0001
0000
,
0001
0100
1000
0010
0001
0010
1000
0000
,
0010
0100
0001
0010
0100
1000
0001
0000
,
0100
0010
1000
0100
0010
0001
1000
0000
,
0010
0100
0001
0010
1000
0010
0001
0000
,
0100
0010
1000
0100
0001
0100
1000
0000
,
0010
1000
0100
0010
0001
1000
0100
0000
,
0010
0001
0100
0010
1000
0001
0100
0000
,
1000
0100
0001
0100
0010
1000
0100
0000
,
0001
0100
1000
0100
0010
0001
0100
0000
,
0001
1000
0100
0001
0000
0100
1000
0000
,
0100
0001
0000
0200
2000
0000
0000
0000
,
0000
0000
0000
0000
,
0000
0000
0000
0000
,
0000
0000
3300
0000
,
2000
0010
3001
0000
0002
0100
1003
0000
,
2000
0100
3001
0000
0002
0010
1003
0000
,
1010
0010
0101
0100
1001
1000
0110
0010
,
0002
0000
0000
0000
0000
0000
0000
0000
0000
0010
0000
0000
0000
0000
0000
0000
0000
0000
1003
0000
0000
0000
0000
0000
2010
0000
0000
0000
0000
0000
0000
0000
0000
0000
0000
0000
0001
0000
0000
0000
0001
0000
0000
0000
0001
0000
0000
0000
,
3001
0000
0001
0010
0000
0010
0100
0000
,
0100
1000
0000
1000
0010
0000
0010
0100
,
0000
0100
0001
0010
0100
1000
0010
0100
,
0001
0010
1000
0001
0100
1000
0001
0000
,
1000
0000
0010
0000
0100
0000
0010
1000
0000
1000
0010
0000
0001
0000
0010
0000
,
1000
0000
0000
0001
0000
0000
0100
0000
1000
0000
0000
0100
0000
0000
0001
0000
,
0010
0000
0100
1000
0000
0010
0100
0000
0001
0000
0010
0000
1000
0000
0010
0000
,
0001
0000
0000
0100
0000
0000
0010
0000
1000
0000
0001
0000
0010
0100
0010
0000
,
0001
0100
0010
1000
0100
0010
0100
1000
,
0010
0001
0010
1000
0100
0010
0001
0100
,
0010
0100
0001
0010
1000
0010
0001
0100
,
0010
0001
0010
1000
0100
0010
0001
0100
,
0010
0000
1000
0000
0001
0000
0010
0100
0000
0100
0010
0000
0001
0000
0100
0000
,
0010
0000
0000
0001
0000
0000
0010
0000
1000
0000
0000
0100
0000
0000
0001
0000
,
0100
0000
1000
0001
0000
0010
0100
0000
1000
0000
0010
0000
0001
0000
0010
0000
,
1000
0000
0000
0001
0000
0000
0000
0000
1000
0010
1000
0000
0001
0100
0001
0000
,
0110
0000
0000
0100
0000
0000
0001
0000
0011
0000
0000
0010
0000
0000
0100
0000
,
1100
0000
0000
1000
0000
0000
0001
0000
0011
0000
0000
0001
0000
0000
1000
0000
,
1010
0000
0000
0010
0000
0000
0100
0000
0101
0000
0000
0001
0000
0000
0010
0000
,
0100
1000
0010
0001
0010
1000
0100
0010
,
0001
0100
0010
0001
0010
1000
0001
0010
,
0100
1000
0010
0100
1000
0100
0001
0010
,
0100
1000
0010
0001
0010
1000
0100
0000
,
1000
0010
0001
0010
0100
0010
0001
0010
,
1000
0100
0010
0100
0001
0100
1000
0010
,
0001
0010
1000
0100
0010
0001
0100
0010
,
0001
0010
0100
1000
0100
0001
0010
0100
,
1000
0001
1000
0001
2000
0000
0000
0000
0000
0000
0000
0000
0000
0000
0000
0000
,
0000
0000
0000
0000
,
0000
0000
0000
0000
,
3000
0000
0000
0000
;

//---------------dance-single - Blank----------------
#NOTES:
     dance-single:
     :
     Easy:
     5:
     0.376,0.528,0.365,0.211,0.000,253.000,45.000,26.000,0.000,0.000,0.000,0.376,0.528,0.365,0.211,0.000,253.000,45.000,26.000,0.000,0.000,0.000:
0000
0000
0000
0000
,
0000
0000
0000
0000
,
0000
0000
0000
0000
,
0000
0000
0000
0000
,
2200
0000
0000
3300
,
2002
0000
0000
3003
,
0202
0000
0000
0303
,
0022
0000
0000
0033
,
2002
0000
0000
3003
,
2020
0000
0000
3030
,
2002
0000
0000
3003
,
0220
0000
0000
0330
,
0001
0100
1000
0100
,
0001
0100
1000
0100
,
2002
0000
0000
0000
,
0000
0000
0000
0000
,
0000
0000
0000
0000
,
0000
0000
0000
0000
,
0000
0000
0000
0000
,
0000
0000
0000
0000
,
0000
0000
0000
0000
,
0000
0000
0000
3003
,
1000
0010
0100
0001
,
1000
0100
1000
0000
,
0001
0010
0100
1000
,
0010
0100
0010
0000
,
1000
0001
0010
0100
,
1000
0010
0100
0000
,
0001
0100
1000
0100
,
0001
0001
1000
1000
,
0100
0001
0100
1000
,
0010
0100
0001
0000
,
1000
0010
0001
0010
,
1000
0100
0010
0000
,
0001
0100
0010
0100
,
0001
1000
0100
0000
,
0001
0100
1000
0010
,
0100
0100
0001
0001
,
1000
0100
1100
0000
,
0001
0100
0101
0000
,
1000
0010
1010
0000
,
0001
0010
0011
0000
,
1000
0001
0101
0000
,
1000
0001
1010
0000
,
1000
0001
0100
1000
,
0100
0001
0010
0100
,
1000
0010
0110
0000
,
0100
0001
0110
0000
,
1000
0010
0110
0000
,
0001
1000
1100
0000
,
1000
0001
0011
0000
,
0001
0100
0110
0000
,
2002
3003
2020
3030
,
0001
0100
0010
0100
,
0001
0000
0000
1000
0000
0000
0100
0000
,
0000
1000
0000
0000
0220
0000
0000
0000
,
0000
0000
0000
0000
,
0000
0000
0000
0000
,
0000
0000
0330
0000
,
1000
0010
0100
0000
0001
1000
0100
0000
,
1000
0001
0010
0000
0001
1000
0010
0000
,
1100
1001
0101
0011
,
1001
0110
1001
0001
,
1000
0000
0000
0100
0000
0000
1000
0000
,
0000
0010
0000
0000
0100
0000
0000
0001
,
0000
0000
1000
0000
0000
0100
0000
0000
,
0010
0000
0010
0000
,
0001
0100
0010
0100
,
0001
1000
0100
0001
,
0100
1000
0010
0100
,
1000
0100
0001
0010
,
0100
0100
1000
1000
,
0001
0001
0010
0010
,
0100
1000
0010
0100
,
0001
1000
0010
0001
,
0010
1000
0100
0010
,
0001
0100
1000
0100
,
0001
0010
0100
1000
,
0010
0100
0001
1000
,
0100
0100
1000
1000
,
0010
0010
0100
0100
,
0001
1000
0100
0001
,
0100
1000
0010
0100
,
0101
0101
0101
0100
,
0010
1000
0100
0010
,
1001
1001
1001
0100
,
0010
0100
0001
1000
,
1100
1100
1100
1000
,
0010
0100
0001
1000
,
1010
1010
1010
0110
,
0000
2002
0000
0000
,
0000
0000
0000
0000
,
0000
0000
0000
0000
0000
0000
0000
3003
;

//---------------dance-single - Blank----------------
#NOTES:
     dance-single:
     :
     Medium:
     7:
     0.451,0.716,0.170,0.130,0.000,352.000,21.000,16.000,0.000,0.000,0.000,0.451,0.716,0.170,0.130,0.000,352.000,21.000,16.000,0.000,0.000,0.000: // measure 0
0000
0000
0000
0000
,  // measure 1
0000
0000
0000
0000
,  // measure 2
0000
0000
0000
0000
,  // measure 3
0000
0000
0000
0000
,  // measure 4
1000
0001
0202
0303
,  // measure 5
0001
1000
2020
3030
,  // measure 6
1000
0001
0100
0010
,  // measure 7
0100
0001
1000
0100
,  // measure 8
0010
0001
2002
3003
,  // measure 9
1000
0010
0220
0330
,  // measure 10
0001
1000
0100
0010
,  // measure 11
0001
0100
0010
1000
,  // measure 12
1000
1000
0001
0001
,  // measure 13
0100
0100
0010
0010
,  // measure 14
2002
0000
0000
0000
,  // measure 15
0000
0000
0000
0000
,  // measure 16
0000
0000
0000
0000
,  // measure 17
0000
0000
0000
0000
,  // measure 18
0000
0000
0000
0000
,  // measure 19
0000
0000
0000
0000
,  // measure 20
0000
0000
0000
0000
,  // measure 21
0000
0000
0000
3003
,  // measure 22
1000
0000
0000
0010
0000
0000
0100
0000
,  // measure 23
0000
0001
0000
1000
0000
0100
0000
0010
,  // measure 24
0001
0000
0000
0100
0000
0000
1000
0000
,  // measure 25
0000
0100
0000
0001
0000
0010
0000
0100
,  // measure 26
1000
0000
0000
0010
0000
0000
0100
0000
,  // measure 27
0000
0001
0000
1000
0000
0100
0000
0001
,  // measure 28
0100
0000
0000
1000
0000
0000
0010
0000
,  // measure 29
0100
0001
1000
0100
,  // measure 30
1000
0000
0000
0010
0000
0000
0100
0000
,  // measure 31
0000
0001
0000
0100
0000
1000
0000
0100
,  // measure 32
0001
0000
0000
0010
0000
0000
0100
0000
,  // measure 33
0000
1000
0000
0010
0000
0100
0000
0001
,  // measure 34
1000
0000
0000
0100
0000
0000
1000
0000
,  // measure 35
0000
0010
0000
0100
0000
0001
0000
0010
,  // measure 36
1000
0000
0000
0010
0000
0000
0001
0000
,  // measure 37
0100
0010
0110
0110
,  // measure 38
0100
0000
0001
0000
1000
0100
1000
0000
,  // measure 39
0001
0010
0100
0000
1000
0010
0100
0000
,  // measure 40
0001
0000
0100
0000
1000
0100
0001
0000
,  // measure 41
0010
0100
1000
0000
0010
0100
0001
0000
,  // measure 42
1000
0000
0001
0000
0010
1000
0010
0000
,  // measure 43
0001
0100
0010
0000
1000
0001
0100
0000
,  // measure 44
0010
1000
0100
1000
,  // measure 45
0001
0100
0010
0100
0001
0100
0010
0000
,  // measure 46
0100
0000
0001
0000
1000
0100
0001
0000
,  // measure 47
0100
1000
0010
0000
0100
0001
0010
0000
,  // measure 48
0100
0000
1000
0000
0010
0100
0010
0000
,  // measure 49
0100
0001
1000
0000
0100
1000
0001
0000
,  // measure 50
0100
0000
0010
0000
0100
0001
0010
0000
,  // measure 51
1000
0010
0001
0000
0100
0010
0100
0000
,  // measure 52
0001
1000
0100
1000
,  // measure 53
0001
1000
0010
1000
0001
1000
0010
0000
,  // measure 54
1000
0000
0000
1001
0000
0000
0001
0000
,  // measure 55
0000
1001
0000
0000
2020
0000
0000
0000
,  // measure 56
0000
0000
0000
0000
,  // measure 57
0000
0000
0000
0000
,  // measure 58
0000
0000
3030
0000
,  // measure 59
0001
0100
0010
0100
0001
1000
0100
0000
,  // measure 60
1000
0010
0100
0010
1000
0001
0100
0000
,  // measure 61
0001
0101
0100
0110
0010
1010
1000
1001
,  // measure 62
1000
0000
0100
0000
2002
0000
0000
3003
,  // measure 63
1000
0000
0000
0010
0000
0000
0100
0000
,  // measure 64
0000
0001
0000
0000
0100
0000
0000
0010
,  // measure 65
0000
0000
1000
0000
0000
0001
0000
0000
,  // measure 66
0010
0000
0100
0000
,  // measure 67
1000
0010
0100
0000
0001
1000
0100
0000
,  // measure 68
1000
0001
0100
0010
,  // measure 69
0100
0001
1000
0000
0100
1000
0001
0000
,  // measure 70
0010
0100
1000
0010
0100
0010
0100
0000
,  // measure 71
0001
1000
0100
0000
1000
0001
0010
0000
,  // measure 72
0100
1000
0010
0000
0100
0001
0010
0000
,  // measure 73
0100
1000
0010
0000
0100
0001
0010
0000
,  // measure 74
0100
0000
1100
0000
1000
0010
0100
0010
,  // measure 75
1000
0000
0100
0000
0010
0001
0010
0000
,  // measure 76
0100
1000
0010
0100
,  // measure 77
0001
1000
0100
0000
1000
0001
0100
0000
,  // measure 78
0010
1000
0100
1000
0010
0100
0001
0000
,  // measure 79
1000
1100
1000
0101
,  // measure 80
0100
0110
0100
1001
,  // measure 81
1000
0100
1000
0100
1000
0100
1000
0000
,  // measure 82
0010
0100
0001
1000
0100
1000
0001
0000
,  // measure 83
0100
0010
0100
0001
,  // measure 84
1000
0010
0100
0010
1000
0100
0010
0000
,  // measure 85
0001
1000
0010
0100
,  // measure 86
0001
1000
0100
1000
0001
0100
0010
0000
,  // measure 87
1000
0001
0100
0010
,  // measure 88
0100
0001
0010
0100
1000
0001
0100
0000
,  // measure 89
0010
0100
0001
1000
,  // measure 90
0100
1000
2200
0000
0000
0000
0000
0000
,  // measure 91
0000
0000
0000
0000
,  // measure 92
0000
0000
0000
0000
0000
0000
0000
3300
;
