#VERSION:0.81;
#TITLE:Remain;
#SUBTITLE:;
#ARTIST:ZERO+ZIBA;
#TITLETRANSLIT:;
#SUBTITLETRANSLIT:;
#ARTISTTRANSLIT:;
#GENRE:;
#ORIGIN:;
#CREDIT:;
#BANNER:remain-bn.png;
#BACKGROUND:remain-bg.png;
#PREVIEWVID:;
#JACKET:;
#CDIMAGE:;
#DISCIMAGE:;
#LYRICSPATH:;
#CDTITLE:cdtitle.png;
#MUSIC:Remain.ogg;
#OFFSET:-0.405;
#SAMPLESTART:31.978;
#SAMPLELENGTH:12.000;
#SELECTABLE:YES;
#BPMS:0.000=150.000;
#STOPS:;
#DELAYS:;
#WARPS:;
#TIMESIGNATURES:0.000=4=4;
#TICKCOUNTS:0.000=4;
#COMBOS:0.000=1;
#SPEEDS:0.000=1.000=0.000=0;
#SCROLLS:0.000=1.000;
#FAKES:;
#LABELS:0.000=Song Start;
#BGCHANGES:;
#KEYSOUNDS:;
#ATTACKS:
;

//---------------dance-single - Rygon----------------
#NOTEDATA:;
#CHARTNAME:;
#STEPSTYPE:dance-single;
#DESCRIPTION:Rygon;
#CHARTSTYLE:;
#DIFFICULTY:Hard;
#METER:10;
#RADARVALUES:0.693,0.837,0.262,0.270,0.769,528.000,32.000,33.000,0.000,0.000,0.000,0.000,0.000,0.693,0.837,0.262,0.270,0.769,528.000,32.000,33.000,0.000,0.000,0.000,0.000,0.000;
#CREDIT:Rygon;
#OFFSET:-0.405;
#BPMS:0.000=150.000
;
#STOPS:;
#DELAYS:;
#WARPS:;
#TIMESIGNATURES:0.000=4=4
;
#TICKCOUNTS:0.000=4
;
#COMBOS:0.000=1
;
#SPEEDS:0.000=1.000=0.000=0
;
#SCROLLS:0.000=1.000
;
#FAKES:;
#LABELS:0.000=Song Start
;
#NOTES:
0000
0000
0000
0000
,
0000
0000
0000
0000
,
0000
0000
0000
0000
,
0000
0000
0000
0000
,
0020
0000
0000
0000
,
2030
0000
0000
0000
,
3002
0000
0000
0000
,
0023
0000
0000
0000
,
0130
0000
0100
0000
0010
0000
0100
1000
0001
0000
1001
0000
1000
0000
1001
0000
,
0001
0000
0100
0000
0010
0000
0100
0001
1000
0000
1001
0000
0001
0000
1001
0000
,
1000
0000
0100
0000
0010
0000
0100
1000
0001
0000
0101
0000
0010
0000
1010
0000
,
1000
0000
0010
0000
0100
0000
0001
0010
0100
0000
1100
0000
0010
0000
0011
0000
,
0001
0000
1000
0000
0010
0000
0100
0001
0010
0000
1100
0000
0010
0000
0101
0000
,
0100
0000
0010
0000
1000
0000
0001
0010
0100
0000
1010
0000
0100
0000
0011
0000
,
0100
1000
0100
1000
0001
1000
0001
1000
0001
0100
0001
0100
0010
0100
0010
0100
,
0002
0000
0000
0000
,
1003
0000
0100
0010
0100
0000
1000
0000
,
0002
0100
0023
0100
,
0031
0000
1000
0010
0100
0000
0001
0000
,
2000
3200
0320
0031
,
1000
0000
0000
1000
0020
0000
0000
0000
,
0130
0010
0100
0001
0100
0010
0100
0000
0001
0000
1000
0000
,
1200
0320
0000
0031
0201
0320
0000
1030
,
1100
0011
2001
3001
,
1000
0010
1000
0001
0100
0001
1000
0010
2000
0000
0000
0000
3001
0000
0000
0000
,
1001
0000
0000
0001
0000
0000
0100
0000
0000
0010
0000
0000
1000
0000
0000
0000
1100
0000
0000
0000
0011
0000
0000
0000
,
1002
0000
0000
0000
2003
0000
0000
0000
3010
0100
0000
0100
0001
0000
1000
0000
,
0100
0010
0000
0010
0001
0000
0010
0000
0100
1000
0001
0100
0001
0000
2000
0000
,
3010
0000
0000
0100
0000
0100
0000
0100
0001
0000
0000
0000
1000
0000
0000
0000
,
0100
0000
0000
0010
0000
0010
0000
0010
0002
0000
0000
0000
1000
0000
0000
0000
,
1003
0010
0000
0010
0001
0000
0001
0010
0000
0010
1000
0000
1000
0100
0000
0100
,
1000
0001
1000
0001
0110
2001
0000
3001
,
1000
0000
0000
0000
0100
0000
0010
0001
0201
0000
0000
0000
1000
0000
0000
0000
,
0301
0000
0000
0000
0100
0000
0010
1000
1200
0000
0000
0000
0310
0000
0000
0000
,
2002
0000
0000
0000
,
3003
0000
0000
0000
,
0110
0000
0100
0000
,
0001
0000
1000
0000
,
0100
0010
0001
0010
,
0100
1000
0001
0100
,
0010
1000
0100
0001
0100
1000
0010
0100
0001
0010
1000
0010
,
0001
0100
0010
1000
0100
0001
1000
0010
0001
0100
0010
1000
,
0001
0010
0100
1000
0001
0100
0010
1000
0100
0001
0100
1000
,
0010
0001
0010
1000
0100
0010
0001
0100
0010
0001
0010
1000
,
0001
0000
0001
0000
1000
0000
0000
0000
1010
0000
0000
0000
0110
0000
0000
0010
,
0100
0000
0100
0000
0001
0000
0000
1000
0001
0000
1000
0000
0100
0010
0100
0010
,
0001
0000
0010
0000
0100
0000
1000
0010
0100
0000
0001
0000
1000
0001
1000
0000
,
0010
0000
0100
0000
0001
0000
0010
0100
0010
0000
0001
0000
0100
0010
1000
0000
,
0001
0100
0010
1000
0001
0100
0010
1000
,
0001
0010
0100
1000
0001
0010
0100
1000
,
0010
0100
0001
0100
0010
0100
0001
0100
0010
1000
0100
0010
0100
1000
0100
0010
,
0100
0000
0000
0000
0000
0000
1000
0001
1000
0001
1000
0001
,
0100
0001
1000
0001
1000
0100
0010
0000
0100
1000
0001
1000
0001
0100
0010
0000
,
0100
0001
0010
0001
0010
0100
1000
0000
0010
1000
0010
0100
0001
0100
0010
0000
,
1000
0100
0010
0000
0010
0100
1000
0000
1000
0010
0100
0000
0100
0010
1000
0000
,
0001
0010
0100
1000
0001
0100
0010
1000
0001
0000
0000
0110
0000
0000
1001
0000
,
1000
0000
0000
0100
0000
0000
0010
0000
0000
0001
0000
0000
0010
0000
0000
0100
0000
0000
1000
0000
0000
0001
0000
0000
0100
0000
0000
0000
0100
0000
0000
0000
0010
0000
0000
0000
0100
0000
0000
0000
0010
0000
0000
0000
0010
0000
0000
0000
,
1000
0010
0100
0001
0010
0100
1000
0001
0100
0010
0100
0001
0010
0000
0100
0000
,
0010
0001
0010
0100
1000
0010
0100
0010
1000
0100
0001
0100
1000
0010
0001
0010
,
1000
0100
0010
0100
1000
0001
0100
0010
0200
0000
0000
0000
0300
0000
0000
0000
,
0010
1000
0010
0100
0001
0010
0100
1000
0002
0000
0000
0000
1003
0001
0000
0001
,
0100
0010
1000
0100
0010
0001
0010
0100
2000
0000
0000
0000
3010
0100
0000
0100
,
0010
0100
0001
0100
0010
1000
0100
0010
0200
0000
0010
0000
0000
0000
0310
0000
,
0100
1000
0001
0100
1000
0100
0001
0100
1000
0100
0001
0100
1000
0000
0100
0000
,
0010
0000
1000
0000
0100
0000
0010
0100
1000
0100
0010
0001
0100
0010
1000
0001
,
0100
0010
0100
0001
0010
0100
1000
0100
0010
0001
0100
0010
0100
0001
1000
0010
,
0100
0001
1000
0100
0010
0100
1000
0010
0100
0001
0100
1000
0100
0010
0100
0001
,
0020
0000
0000
0000
,
0030
0000
2002
0000
,
0000
0000
0000
0000
,
0000
0000
3003
0000
;

//---------------dance-single - SM5 Only----------------
#NOTEDATA:;
#CHARTNAME:;
#STEPSTYPE:dance-single;
#DESCRIPTION:SM5 Only;
#CHARTSTYLE:;
#DIFFICULTY:Edit;
#METER:10;
#RADARVALUES:0.641,1.000,0.229,0.074,1.000,511.000,28.000,9.000,15.000,0.000,0.000,0.000,3607.000,0.641,1.000,0.229,0.074,1.000,511.000,28.000,9.000,15.000,0.000,0.000,0.000,3607.000;
#CREDIT:Rygon;
#OFFSET:-0.405;
#BPMS:0.000=150.000
;
#STOPS:;
#DELAYS:;
#WARPS:16.167=8.000
,24.333=8.000
,32.667=8.000
,41.000=8.000
,49.333=8.000
,57.667=8.000
,66.000=8.000
,74.333=8.000
,82.667=8.000
,91.000=8.000
,99.333=8.000
,107.667=8.000
,116.000=8.000
,124.333=8.000
,132.667=8.000
,141.000=8.000
,149.333=8.000
,157.667=8.000
,166.000=8.000
,174.333=8.000
,182.667=8.000
,191.000=8.000
,199.333=8.000
,207.667=8.000
,216.000=8.000
,224.333=8.000
,232.667=8.000
,241.000=8.000
,284.063=8.000
,292.125=8.000
,300.188=8.000
,308.250=8.000
,316.313=8.000
,324.375=8.000
,332.438=8.000
,340.500=8.000
,348.563=8.000
,356.625=8.000
,364.688=8.000
,372.750=8.000
,380.813=8.000
,388.875=8.000
,396.938=8.000
,405.000=8.000
,413.063=8.000
,421.125=8.000
,429.188=8.000
,437.250=8.000
,445.313=8.000
,453.375=8.000
,461.438=8.000
,469.500=8.000
,477.563=8.000
,485.625=8.000
,493.688=8.000
,501.750=8.000
,509.813=8.000
,517.875=8.000
,525.938=8.000
,534.000=8.000
,542.063=8.000
,550.125=8.000
,558.188=8.000
,566.250=8.000
,574.313=8.000
,582.375=8.000
,590.438=8.000
,598.500=8.000
,606.563=8.000
,614.625=8.000
,622.688=8.000
,630.750=8.000
,638.813=8.000
,646.875=8.000
,654.938=8.000
,663.000=8.000
,671.063=8.000
,679.125=8.000
,687.188=8.000
,695.250=8.000
,703.313=8.000
,711.375=8.000
,719.438=8.000
,727.500=8.000
,735.563=8.000
,743.625=8.000
,751.688=8.000
,759.750=8.000
,767.813=8.000
,775.875=8.000
,783.938=8.000
,792.000=8.000
,816.125=8.000
,824.250=8.000
,832.375=8.000
,840.500=8.000
,848.625=8.000
,856.750=8.000
,864.875=8.000
,873.000=8.000
,881.125=8.000
,889.250=8.000
,897.375=8.000
,905.500=8.000
,913.625=8.000
,921.750=8.000
,929.875=8.000
,938.000=8.000
,946.083=8.000
,954.167=8.000
,962.250=8.000
,970.333=8.000
,978.417=8.000
,986.500=8.000
,994.583=8.000
,1002.667=8.000
,1010.750=8.000
,1018.833=8.000
,1026.917=8.000
,1035.000=8.000
,1043.083=8.000
,1051.167=8.000
,1059.250=8.000
,1067.333=8.000
,1075.417=8.000
,1083.500=8.000
,1091.583=8.000
,1099.667=8.000
,1107.750=8.000
,1115.833=8.000
,1123.917=8.000
,1132.000=8.000
,1142.083=8.000
,1150.167=8.000
,1158.250=8.000
,1166.333=8.000
,1174.417=8.000
,1182.500=8.000
,1190.583=8.000
,1198.667=8.000
,1206.750=8.000
,1214.833=8.000
,1222.917=8.000
,1231.000=8.000
,1239.083=8.000
,1247.167=8.000
,1255.250=8.000
,1263.333=8.000
,1271.417=8.000
,1279.500=8.000
,1287.583=8.000
,1295.667=8.000
,1303.750=8.000
,1311.833=8.000
,1319.917=8.000
,1328.000=8.000
,1336.625=8.000
,1344.750=8.000
,1352.875=8.000
,1361.000=8.000
,1369.125=8.000
,1377.250=8.000
,1385.375=8.000
,1393.500=8.000
,1401.625=8.000
,1409.750=8.000
,1417.875=8.000
,1426.000=8.000
,1434.625=8.000
,1442.750=8.000
,1450.875=8.000
,1459.000=8.000
,1467.125=8.000
,1475.250=8.000
,1483.375=8.000
,1491.500=8.000
,1499.625=8.000
,1507.750=8.000
,1515.875=8.000
,1524.000=8.000
,1536.125=8.000
,1544.250=8.000
,1552.375=8.000
,1560.500=8.000
,1568.625=8.000
,1576.750=8.000
,1584.875=8.000
,1593.000=8.000
,1601.125=8.000
,1609.250=8.000
,1617.375=8.000
,1625.500=8.000
,1633.625=8.000
,1641.750=8.000
,1649.875=8.000
,1658.000=8.000
,1670.083=8.000
,1678.167=8.000
,1686.250=8.000
,1694.333=8.000
,1702.417=8.000
,1710.500=8.000
,1718.583=8.000
,1726.667=8.000
,1734.750=8.000
,1742.833=8.000
,1750.917=8.000
,1759.000=8.000
,1767.083=8.000
,1775.167=8.000
,1783.250=8.000
,1791.333=8.000
,1799.417=8.000
,1807.500=8.000
,1815.583=8.000
,1823.667=8.000
,1831.750=8.000
,1839.833=8.000
,1847.917=8.000
,1856.000=8.000
,1872.125=8.000
,1880.250=8.000
,1888.375=8.000
,1896.500=8.000
,1904.625=8.000
,1912.750=8.000
,1920.875=8.000
,1929.000=8.000
,1937.125=8.000
,1945.250=8.000
,1953.375=8.000
,1961.500=8.000
,1969.625=8.000
,1977.750=8.000
,1985.875=8.000
,1994.000=8.000
,2004.125=8.000
,2012.250=8.000
,2020.375=8.000
,2028.500=8.000
,2036.625=8.000
,2044.750=8.000
,2052.875=8.000
,2061.000=8.000
,2069.125=8.000
,2077.250=8.000
,2085.375=8.000
,2093.500=8.000
,2101.625=8.000
,2109.750=8.000
,2117.875=8.000
,2126.000=8.000
,2140.125=8.000
,2148.250=8.000
,2156.375=8.000
,2164.500=8.000
,2172.625=8.000
,2180.750=8.000
,2188.875=8.000
,2197.000=8.000
,2205.125=8.000
,2213.250=8.000
,2221.375=8.000
,2229.500=8.000
,2237.625=8.000
,2245.750=8.000
,2253.875=8.000
,2262.000=8.000
,2270.125=8.000
,2278.250=8.000
,2286.375=8.000
,2294.500=8.000
,2302.625=8.000
,2310.750=8.000
,2318.875=8.000
,2327.000=8.000
,2335.125=8.000
,2343.250=8.000
,2351.375=8.000
,2359.500=8.000
,2370.125=8.000
,2378.250=8.000
,2386.375=8.000
,2394.500=8.000
,2402.625=8.000
,2410.750=8.000
,2418.875=8.000
,2427.000=8.000
,2435.125=8.000
,2443.250=8.000
,2451.375=8.000
,2459.500=8.000
,2470.125=8.000
,2478.250=8.000
,2486.375=8.000
,2494.500=8.000
,2502.625=8.000
,2510.750=8.000
,2518.875=8.000
,2527.000=8.000
,2535.125=8.000
,2543.250=8.000
,2551.375=8.000
,2559.500=8.000
,2574.000=8.000
,2582.083=8.000
,2590.167=8.000
,2598.250=8.000
,2606.333=8.000
,2614.417=8.000
,2622.500=8.000
,2630.583=8.000
,2638.667=8.000
,2646.750=8.000
,2654.833=8.000
,2662.917=8.000
,2671.000=8.000
,2679.083=8.000
,2687.167=8.000
,2695.250=8.000
,2703.333=8.000
,2711.417=8.000
,2719.500=8.000
,2727.583=8.000
,2735.667=8.000
,2743.750=8.000
,2751.833=8.000
,2759.917=8.000
,2768.000=8.000
,2838.083=8.000
,2846.167=8.000
,2854.250=8.000
,2862.333=8.000
,2870.417=8.000
,2878.500=8.000
,2886.583=8.000
,2894.667=8.000
,2902.750=8.000
,2910.833=8.000
,2918.917=8.000
,2927.000=8.000
,2935.083=8.000
,2943.167=8.000
,2951.250=8.000
,2959.333=8.000
,2967.417=8.000
,2975.500=8.000
,2983.583=8.000
,2991.667=8.000
,2999.750=8.000
,3007.833=8.000
,3015.917=8.000
,3024.000=8.000
,3046.000=8.000
,3054.250=8.000
,3062.500=8.000
,3070.750=8.000
,3079.000=8.000
,3087.250=8.000
,3095.500=8.000
,3103.750=8.000
,3112.000=8.000
,3122.083=8.000
,3130.167=8.000
,3138.250=8.000
,3146.333=8.000
,3154.417=8.000
,3162.500=8.000
,3170.583=8.000
,3178.667=8.000
,3186.750=8.000
,3194.833=8.000
,3202.917=8.000
,3211.000=8.000
,3219.083=8.000
,3227.167=8.000
,3235.250=8.000
,3243.333=8.000
,3251.417=8.000
,3259.500=8.000
,3267.583=8.000
,3275.667=8.000
,3283.750=8.000
,3291.833=8.000
,3299.917=8.000
,3308.000=8.000
,3328.125=8.000
,3336.250=8.000
,3344.375=8.000
,3352.500=8.000
,3360.625=8.000
,3368.750=8.000
,3376.875=8.000
,3385.000=8.000
,3393.125=8.000
,3401.250=8.000
,3409.375=8.000
,3417.500=8.000
,3425.625=8.000
,3433.750=8.000
,3441.875=8.000
,3450.000=8.000
,3460.125=8.000
,3468.250=8.000
,3476.375=8.000
,3484.500=8.000
,3492.625=8.000
,3500.750=8.000
,3508.875=8.000
,3517.000=8.000
,3525.125=8.000
,3533.250=8.000
,3541.375=8.000
,3549.500=8.000
,3557.625=8.000
,3565.750=8.000
,3573.875=8.000
,3582.000=8.000
,3612.125=8.000
,3620.250=8.000
,3628.375=8.000
,3636.500=8.000
,3644.625=8.000
,3652.750=8.000
,3660.875=8.000
,3669.000=8.000
,3677.125=8.000
,3685.250=8.000
,3693.375=8.000
,3701.500=8.000
,3709.625=8.000
,3717.750=8.000
,3725.875=8.000
,3734.000=8.000
,3742.125=8.000
,3750.250=8.000
,3758.375=8.000
,3766.500=8.000
,3774.625=8.000
,3782.750=8.000
,3790.875=8.000
,3799.000=8.000
,3807.125=8.000
,3815.250=8.000
,3823.375=8.000
,3831.500=8.000
,3839.625=8.000
,3847.750=8.000
,3855.875=8.000
,3864.000=8.000
,3872.125=8.000
,3880.250=8.000
,3888.375=8.000
,3896.500=8.000
,3904.625=8.000
,3912.750=8.000
,3920.875=8.000
,3929.000=8.000
,3937.125=8.000
,3945.250=8.000
,3953.375=8.000
,3961.500=8.000
,3969.625=8.000
,3977.750=8.000
,3985.875=8.000
,3994.000=8.000
;
#TIMESIGNATURES:0.000=4=4
;
#TICKCOUNTS:0.000=4
;
#COMBOS:0.000=1
;
#SPEEDS:0.000=1.000=0.000=0
;
#SCROLLS:0.000=1.000
;
#FAKES:;
#LABELS:0.000=Song Start
;
#NOTES:
// measure 0
0000
0000
0000
0000
,  // measure 1
0000
0000
0000
0000
,  // measure 2
0000
0000
0000
0000
,  // measure 3
0000
0000
0000
0000
,  // measure 4
1001
0000
0000
0000
,  // measure 5
0000
0000
0000
0000
,  // measure 6
0000
0000
M00M
0000
0000
0000
0000
0000
0000
0000
0000
0000
,  // measure 7
0000
0000
0000
0000
,  // measure 8
0000
0000
0000
0000
M00M
0000
0000
0000
0000
0000
0000
0000
,  // measure 9
0000
0000
0000
0000
,  // measure 10
0000
0000
M00M
0000
,  // measure 11
0000
0000
0000
0000
,  // measure 12
0000
0000
0000
0000
0000
0000
0000
0000
M00M
0000
0000
0000
,  // measure 13
0000
0000
0000
0000
,  // measure 14
0000
0000
0000
0000
0000
0000
0000
0000
0000
0000
M00M
0000
,  // measure 15
0000
0000
0000
0000
,  // measure 16
0000
0000
0000
0000
,  // measure 17
M00M
0000
0000
0000
,  // measure 18
0000
0000
0000
0000
,  // measure 19
0000
0000
M00M
0000
0000
0000
0000
0000
0000
0000
0000
0000
,  // measure 20
0000
0000
0000
0000
,  // measure 21
0000
0000
0000
0000
M00M
0000
0000
0000
0000
0000
0000
0000
,  // measure 22
0000
0000
0000
0000
,  // measure 23
0000
0000
M00M
0000
,  // measure 24
0000
0000
0000
0000
,  // measure 25
0000
0000
0000
0000
0000
0000
0000
0000
M00M
0000
0000
0000
,  // measure 26
0000
0000
0000
0000
,  // measure 27
0000
0000
0000
0000
0000
0000
0000
0000
0000
0000
M00M
0000
,  // measure 28
0000
0000
0000
0000
,  // measure 29
0000
0000
0000
0000
,  // measure 30
M00M
0000
0000
0000
,  // measure 31
0000
0000
0000
0000
,  // measure 32
0000
0000
M00M
0000
0000
0000
0000
0000
0000
0000
0000
0000
,  // measure 33
0000
0000
0000
0000
,  // measure 34
0000
0000
0000
0000
M00M
0000
0000
0000
0000
0000
0000
0000
,  // measure 35
0000
0000
0000
0000
,  // measure 36
0000
0000
M00M
0000
,  // measure 37
0000
0000
0000
0000
,  // measure 38
0000
0000
0000
0000
0000
0000
0000
0000
M00M
0000
0000
0000
,  // measure 39
0000
0000
0000
0000
,  // measure 40
0000
0000
0000
0000
0000
0000
0000
0000
0000
0000
M00M
0000
,  // measure 41
0000
0000
0000
0000
,  // measure 42
0000
0000
0000
0000
,  // measure 43
M00M
0000
0000
0000
,  // measure 44
0000
0000
0000
0000
,  // measure 45
0000
0000
M00M
0000
0000
0000
0000
0000
0000
0000
0000
0000
,  // measure 46
0000
0000
0000
0000
,  // measure 47
0000
0000
0000
0000
M00M
0000
0000
0000
0000
0000
0000
0000
,  // measure 48
0000
0000
0000
0000
,  // measure 49
0000
0000
M00M
0000
,  // measure 50
0000
0000
0000
0000
,  // measure 51
0000
0000
0000
0000
0000
0000
0000
0000
M00M
0000
0000
0000
,  // measure 52
0000
0000
0000
0000
,  // measure 53
0000
0000
0000
0000
0000
0000
0000
0000
0000
0000
M00M
0000
,  // measure 54
0000
0000
0000
0000
,  // measure 55
0000
0000
0000
0000
,  // measure 56
M00M
0000
0000
0000
,  // measure 57
0000
0000
0000
0000
,  // measure 58
0000
0000
M00M
0000
0000
0000
0000
0000
0000
0000
0000
0000
,  // measure 59
0000
0000
0000
0000
,  // measure 60
0000
0000
0000
0000
M00M
0000
0000
0000
0000
0000
0000
0000
,  // measure 61
0000
0000
0000
0000
,  // measure 62
0000
0000
0000
0000
,  // measure 63
0000
0000
0000
0000
,  // measure 64
0100
0000
0010
0000
0100
0000
0001
1000
0100
0000
0010
0000
0011
0000
0001
0000
,  // measure 65
1000
0000
0010
0000
0100
0000
0001
0010
0100
0000
1000
0000
1100
0000
0100
0000
,  // measure 66
0010
0000
0100
0000
1000
0000
0001
0100
0010
0000
0100
0000
0101
0000
0001
0000
,  // measure 67
1000
0000
0100
0000
0010
0000
0100
1000
0001
0000
0100
0000
0110
0000
0010
0000
,  // measure 68
1000
0100
0010
0100
1000
0001
0100
0010
,  // measure 69
0100
0001
0010
0100
1000
0001
0100
0010
,  // measure 70
1000
0100
1000
0100
0010
0001
0010
0001
0100
0010
0100
0010
1000
0001
1000
0001
,  // measure 71
0010
0000
0000
0000
,  // measure 72
0001
0000
0000
0000
,  // measure 73
0000
0000
0000
0000
0000
0000
0000
0000
0000
0000
0000
0000
0000
0000
0000
0000
0000
0000
0000
0000
0000
0000
0000
0000
0000
0000
0000
0000
0000
0000
0000
0000
0000
0000
0000
0000
0000
0000
0000
0000
0000
0000
0000
0000
0000
0000
0000
0001
,  // measure 74
0000
0000
0000
0000
,  // measure 75
0000
0000
0000
0000
0000
0000
0000
0000
0000
0000
0000
0000
0000
0000
0000
0000
0000
0000
0000
0000
0000
0000
0000
0001
,  // measure 76
0000
0000
0000
0000
,  // measure 77
0000
0000
0000
0000
0000
0000
0000
0000
0000
0000
0000
0000
0000
0000
0000
0000
0000
0000
0000
0000
0000
0000
0000
0000
0000
0000
0000
0000
0000
0000
0000
0000
0000
0000
0000
0000
0000
0000
0000
0000
0000
0000
0000
0000
0000
0000
0000
0001
,  // measure 78
0000
0000
0000
0000
,  // measure 79
0000
0000
0000
0000
,  // measure 80
0001
0000
0000
0000
,  // measure 81
0000
0000
0000
0000
,  // measure 82
0000
0001
0000
0000
0000
0000
0000
0000
0000
0000
0000
0000
0000
0000
0000
0000
0000
0000
0000
0000
0000
0000
0000
0000
0000
0000
0000
0000
0000
0000
0000
0000
0000
0000
0000
0000
0000
0000
0000
0000
0000
0000
0000
0000
0000
0000
0000
0000
,  // measure 83
0000
0000
0000
0000
,  // measure 84
0000
0001
0000
0000
0000
0000
0000
0000
0000
0000
0000
0000
0000
0000
0000
0000
0000
0000
0000
0000
0000
0000
0000
0000
,  // measure 85
0000
0000
0000
0000
,  // measure 86
0000
0001
0000
0000
0000
0000
0000
0000
0000
0000
0000
0000
0000
0000
0000
0000
0000
0000
0000
0000
0000
0000
0000
0000
0000
0000
0000
0000
0000
0000
0000
0000
0000
0000
0000
0000
0000
0000
0000
0000
0000
0000
0000
0000
0000
0000
0000
0000
,  // measure 87
0000
0000
0000
0000
,  // measure 88
0001
0000
0000
0000
,  // measure 89
0000
0000
0000
0000
0000
0000
0000
0000
0000
0000
0000
0000
0000
0000
0000
0001
,  // measure 90
0000
0000
0000
0000
,  // measure 91
0000
0000
0000
0000
0000
0000
0000
0001
,  // measure 92
0000
0000
0000
0000
,  // measure 93
0000
0000
0000
0000
0000
0000
0000
0000
0000
0000
0000
0000
0000
0000
0000
0001
,  // measure 94
0000
0000
0000
0000
,  // measure 95
0000
0000
0000
0000
,  // measure 96
0001
0000
0000
0000
,  // measure 97
0000
0000
0000
0000
,  // measure 98
0000
0001
0000
0000
0000
0000
0000
0000
0000
0000
0000
0000
0000
0000
0000
0000
,  // measure 99
0000
0000
0000
0000
,  // measure 100
0000
0001
0000
0000
0000
0000
0000
0000
,  // measure 101
0000
0000
0000
0000
,  // measure 102
0000
0001
0000
0000
0000
0000
0000
0000
0000
0000
0000
0000
0000
0000
0000
0000
,  // measure 103
0000
0000
0000
0000
,  // measure 104
0001
0000
0000
0000
,  // measure 105
0000
0000
0000
0000
0000
0000
0000
0000
0000
0000
0000
0001
,  // measure 106
0000
0000
0000
0000
,  // measure 107
0000
0000
0000
0000
0000
0000
0000
0000
0000
0000
0001
0000
,  // measure 108
0000
0000
0000
0000
,  // measure 109
0000
0000
0000
0000
0000
0000
0000
0000
0000
0000
0000
0001
,  // measure 110
0000
0000
0000
0000
,  // measure 111
0000
0000
0000
0000
,  // measure 112
0001
0000
0000
0000
,  // measure 113
0000
0000
0000
0000
,  // measure 114
0000
0001
0000
0000
0000
0000
0000
0000
0000
0000
0000
0000
,  // measure 115
0000
0000
0000
0000
,  // measure 116
0000
0000
0001
0000
0000
0000
0000
0000
0000
0000
0000
0000
,  // measure 117
0000
0000
0000
0000
,  // measure 118
0000
0001
0000
0000
0000
0000
0000
0000
0000
0000
0000
0000
,  // measure 119
0000
0000
0000
0000
,  // measure 120
0001
0000
0000
0000
,  // measure 121
0000
0000
0000
0000
0000
0000
0000
0001
,  // measure 122
0000
0000
0000
0000
,  // measure 123
0000
0000
0000
0001
,  // measure 124
0000
0000
0000
0000
,  // measure 125
0000
0000
0000
0000
0000
0000
0000
0001
,  // measure 126
0000
0000
0000
0000
,  // measure 127
0000
0000
0000
0000
,  // measure 128
0001
0000
0000
0000
,  // measure 129
0000
0000
0000
0000
,  // measure 130
0000
0001
0000
0000
0000
0000
0000
0000
,  // measure 131
0000
0000
0000
0000
,  // measure 132
0000
0001
0000
0000
,  // measure 133
0000
0000
0000
0000
,  // measure 134
0000
0001
0000
0000
0000
0000
0000
0000
,  // measure 135
0000
0000
0000
0000
,  // measure 136
0001
0000
0000
0000
,  // measure 137
0000
0000
0000
0000
0000
0000
0000
0000
0000
0000
0001
0000
,  // measure 138
0000
0000
0000
0000
,  // measure 139
0000
0000
0000
0000
0000
0000
0000
0000
0001
0000
0000
0000
,  // measure 140
0000
0000
0000
0000
,  // measure 141
0000
0000
0000
0000
0000
0000
0000
0000
0000
0000
0001
0000
,  // measure 142
0000
0000
0000
0000
,  // measure 143
0000
0000
0000
0000
,  // measure 144
0001
0000
0000
0000
,  // measure 145
0000
0000
0000
0000
,  // measure 146
0000
0000
0001
0000
0000
0000
0000
0000
0000
0000
0000
0000
,  // measure 147
0000
0000
0000
0000
,  // measure 148
0000
0000
0000
0000
0001
0000
0000
0000
0000
0000
0000
0000
,  // measure 149
0000
0000
0000
0000
,  // measure 150
0000
0000
0001
0000
0000
0000
0000
0000
0000
0000
0000
0000
,  // measure 151
0000
0000
0000
0000
,  // measure 152
0001
0000
0000
0000
,  // measure 153
0000
0000
0000
0000
0000
0000
0000
0001
,  // measure 154
0000
0000
0000
0000
,  // measure 155
0000
0000
0000
0001
,  // measure 156
0000
0000
0000
0000
,  // measure 157
0000
0000
0000
0000
0000
0000
0000
0001
,  // measure 158
0000
0000
0000
0000
,  // measure 159
0000
0000
0000
0000
,  // measure 160
0001
0000
0000
0000
,  // measure 161
0000
0000
0000
0000
,  // measure 162
0000
0001
0000
0000
0000
0000
0000
0000
,  // measure 163
0000
0000
0000
0000
,  // measure 164
0000
0001
0000
0000
,  // measure 165
0000
0000
0000
0000
,  // measure 166
0000
0001
0000
0000
0000
0000
0000
0000
,  // measure 167
0000
0000
0000
0000
,  // measure 168
0001
0000
0000
0000
,  // measure 169
0000
0000
0000
0000
0000
0000
0000
0000
0000
0000
0000
0001
,  // measure 170
0000
0000
0000
0000
,  // measure 171
0000
0000
0000
0000
0000
0000
0000
0000
0000
0000
0001
0000
,  // measure 172
0000
0000
0000
0000
,  // measure 173
0000
0000
0000
0000
0000
0000
0000
0000
0000
0000
0000
0001
,  // measure 174
0000
0000
0000
0000
,  // measure 175
0000
0000
0000
0000
,  // measure 176
0001
0000
0000
0000
,  // measure 177
0000
0000
0000
0000
,  // measure 178
0000
0001
0000
0000
0000
0000
0000
0000
0000
0000
0000
0000
,  // measure 179
0000
0000
0000
0000
,  // measure 180
0000
0000
0001
0000
0000
0000
0000
0000
0000
0000
0000
0000
,  // measure 181
0000
0000
0000
0000
,  // measure 182
0000
0001
0000
0000
0000
0000
0000
0000
0000
0000
0000
0000
,  // measure 183
0000
0000
0000
0000
,  // measure 184
0001
0000
0000
0000
,  // measure 185
0000
0000
0000
0000
0000
0000
0000
0000
0000
0000
0000
0000
0000
0000
0000
0001
,  // measure 186
0000
0000
0000
0000
,  // measure 187
0000
0000
0000
0000
0000
0000
0000
0001
,  // measure 188
0000
0000
0000
0000
,  // measure 189
0000
0000
0000
0000
0000
0000
0000
0000
0000
0000
0000
0000
0000
0000
0000
0001
,  // measure 190
0000
0000
0000
0000
,  // measure 191
0000
0000
0000
0000
,  // measure 192
0001
0000
0000
0000
,  // measure 193
0000
0000
0000
0000
,  // measure 194
0000
0001
0000
0000
0000
0000
0000
0000
0000
0000
0000
0000
0000
0000
0000
0000
,  // measure 195
0000
0000
0000
0000
,  // measure 196
0000
0001
0000
0000
0000
0000
0000
0000
,  // measure 197
0000
0000
0000
0000
,  // measure 198
0000
0001
0000
0000
0000
0000
0000
0000
0000
0000
0000
0000
0000
0000
0000
0000
,  // measure 199
0000
0000
0000
0000
,  // measure 200
0001
0000
0000
0000
0010
0100
1000
0010
,  // measure 201
0100
0000
0001
1000
0100
0000
0010
0100
,  // measure 202
2000
0000
0001
0000
3020
0000
0130
0010
,  // measure 203
0100
0000
0001
0010
0100
1000
0001
0000
,  // measure 204
1001
0000
0010
0000
,  // measure 205
0100
0001
0100
1000
0100
0001
0100
0000
0110
0000
1001
0000
,  // measure 206
0000
0000
0000
0000
0000
0000
0000
0000
0000
0000
0000
0000
0000
0000
0000
0000
0000
0000
0000
0000
0000
0000
0000
0000
0000
0010
0000
0000
0000
0000
0000
0000
0000
0000
0000
0000
0000
0000
0000
0000
0000
0000
0000
0000
0000
0000
0000
0000
,  // measure 207
0000
0100
0000
0000
0000
0001
0000
0000
0000
0100
0000
0000
0000
1000
0000
0000
0000
0100
0000
0000
0000
0001
0000
0000
0000
0100
0000
0000
0000
0000
0000
0000
0000
0110
0000
0000
0000
0000
0000
0000
0000
1001
0000
0000
0000
0000
0000
0000
,  // measure 208
0000
0000
0000
0000
0000
0000
0000
0000
0000
0000
0000
0000
0000
0010
0000
0000
0000
0000
0000
0000
0000
0000
0000
0000
,  // measure 209
0000
0100
0000
0001
0000
0100
0000
1000
0000
0100
0000
0001
0000
0100
0000
0000
0000
0110
0000
0000
0000
1001
0000
0000
,  // measure 210
0000
0000
0000
0000
0000
0000
0000
0000
0000
0010
0000
0000
0000
0000
0000
0000
,  // measure 211
0000
0000
0000
0100
0000
0000
0000
0001
0000
0000
0000
0100
0000
0000
0000
1000
0000
0000
0000
0100
0000
0000
0000
0001
0000
0000
0000
0100
0000
0000
0000
0000
0000
0000
0000
0110
0000
0000
0000
0000
0000
0000
0000
1001
0000
0000
0000
0000
,  // measure 212
0000
0000
0000
0000
0000
0000
0000
0010
0000
0000
0000
0000
,  // measure 213
0000
0100
0001
0100
1000
0100
0001
0100
0000
0110
0000
1001
,  // measure 214
0000
0000
0000
0000
0000
0000
0000
0000
0000
0000
0000
0000
0000
0000
0000
0000
0000
0000
0000
0000
0000
0000
0000
0000
0000
0000
0000
0000
0000
0010
0000
0000
0000
0000
0000
0000
0000
0000
0000
0000
0000
0000
0000
0000
0000
0000
0000
0000
,  // measure 215
0000
0000
0000
0000
0000
0100
0000
0000
0000
0001
0000
0000
0000
0100
0000
0000
0000
1000
0000
0000
0000
0100
0000
0000
0000
0001
0000
0000
0000
0100
0000
0000
0000
0000
0000
0000
0000
0110
0000
0000
0000
0000
0000
0000
0000
1001
0000
0000
,  // measure 216
0000
0000
0000
0000
0000
0010
0000
0000
,  // measure 217
0000
0000
0000
0100
0000
0001
0000
0100
0000
1000
0000
0100
0000
0001
0000
0100
0000
0000
0000
0110
0000
0000
0000
1001
,  // measure 218
0000
0000
0000
0000
0000
0000
0000
0000
0000
0000
0000
0000
0000
0000
0000
0000
0000
0000
0000
0000
0000
0000
0000
0000
0000
0000
0000
0000
0000
0000
0000
0010
0000
0000
0000
0000
0000
0000
0000
0000
0000
0000
0000
0000
0000
0000
0000
0000
,  // measure 219
0000
0000
0000
0000
0000
0000
0000
0100
0000
0000
0000
0001
0000
0000
0000
0100
0000
0000
0000
1000
0000
0000
0000
0100
0000
0000
0000
0001
0000
0000
0000
0100
0000
0000
0000
0000
0000
0000
0000
0110
0000
0000
0000
0000
0000
0000
0000
1001
,  // measure 220
0000
0000
0000
0000
0000
0000
0000
0000
0010
0000
0000
0000
,  // measure 221
0000
0000
0100
0001
0100
1000
0100
0001
0100
0000
0110
0000
,  // measure 222
1001
0000
0000
0000
0000
0000
0000
0000
0000
0000
0000
0010
0000
0000
0000
0000
,  // measure 223
0000
0000
0000
0000
0000
0000
0000
0000
0000
0100
0000
0000
0000
0001
0000
0000
0000
0100
0000
0000
0000
1000
0000
0000
0000
0100
0000
0000
0000
0001
0000
0000
0000
0100
0000
0000
0000
0000
0000
0000
0000
0110
0000
0000
0000
0000
0000
0000
,  // measure 224
0000
1001
0000
0000
0000
0000
0000
0000
0000
0000
0000
0000
0000
0000
0000
0000
0000
0000
0000
0000
0000
0000
0000
0000
0000
0000
0000
0000
0000
0000
0000
0000
0000
0000
0010
0000
0000
0000
0000
0000
0000
0000
0000
0000
0000
0000
0000
0000
,  // measure 225
0000
0000
0000
0000
0000
0100
0000
0001
0000
0100
0000
1000
0000
0100
0000
0001
0000
0100
0000
0000
0000
0110
0000
0000
,  // measure 226
0000
1001
0000
0000
0000
0000
0000
0000
0000
0000
0000
0000
0000
0000
0000
0000
0010
0000
0000
0000
0000
0000
0000
0000
,  // measure 227
0000
0000
0100
0001
0100
1000
0100
0001
0100
0000
0110
0000
,  // measure 228
1001
0000
0000
0000
0000
0010
0000
0000
,  // measure 229
0000
0000
0000
0100
0000
0001
0000
0100
0000
1000
0000
0100
0000
0001
0000
0100
0000
0000
0000
0110
0000
0000
0000
1001
,  // measure 230
0000
0000
0000
0000
0000
0000
0000
0010
0000
0000
0000
0000
,  // measure 231
0000
0100
0001
0100
1000
0100
0001
0100
0000
0110
0000
1001
,  // measure 232
0000
0000
0000
0000
0000
0000
0000
0000
0000
0000
0000
0000
0000
0010
0000
0000
0000
0000
0000
0000
0000
0000
0000
0000
,  // measure 233
0000
0100
0000
0001
0000
0100
0000
1000
0000
0100
0000
0001
0000
0100
0000
0000
0000
0110
0000
0000
0000
1001
0000
0000
,  // measure 234
0000
0000
0000
0000
0000
0000
0000
0000
0000
0000
0000
0000
0000
0000
0000
0000
0000
0000
0000
0000
0000
0000
0000
0000
0000
0010
0000
0000
0000
0000
0000
0000
0000
0000
0000
0000
0000
0000
0000
0000
0000
0000
0000
0000
0000
0000
0000
0000
,  // measure 235
0000
0100
0000
0000
0000
0001
0000
0000
0000
0100
0000
0000
0000
1000
0000
0000
0000
0100
0000
0000
0000
0001
0000
0000
0000
0100
0000
0000
0000
0000
0000
0000
0000
0110
0000
0000
0000
0000
0000
0000
0000
1001
0000
0000
0000
0000
0000
0000
,  // measure 236
0000
0000
0010
0000
,  // measure 237
0100
0001
0100
1000
0100
0001
0100
0000
0110
0000
1001
0000
,  // measure 238
1000
0000
0000
0101
0000
0000
0000
0000
0000
0000
0000
0000
0000
0000
0000
0000
0000
0000
0000
0000
0000
0000
0000
0100
,  // measure 239
0000
0001
0000
0100
0000
0000
0000
1100
0000
0001
0000
0100
0000
0000
0000
0100
0000
0010
0000
0001
0000
1000
0000
0000
,  // measure 240
0000
1000
0001
0100
0000
0000
0000
0000
0000
0000
0000
0000
0000
0000
0000
0000
0000
0000
0000
0000
0000
0000
0000
0000
,  // measure 241
0000
0100
0001
0000
0000
0100
1000
0000
0000
0100
0001
0000
0000
0100
0000
0010
0000
0100
0000
0000
1001
0000
0000
0000
,  // measure 242
1000
0000
0000
0101
0000
0000
0000
0000
0000
0000
0000
0000
0000
0000
0000
0000
0000
0000
0000
0000
0000
0000
0000
0100
,  // measure 243
0000
0000
0000
0101
0000
1000
0000
0100
0000
0000
0000
0101
0000
0000
0000
0100
0000
0010
0000
1000
0000
0001
0000
1000
,  // measure 244
0000
0000
0000
0100
0001
0000
0000
0000
0000
0000
0000
0000
0000
0000
0000
0000
0000
0000
0000
0000
0000
0000
0000
0000
,  // measure 245
0000
0100
0001
0000
0000
0100
1000
0000
0000
0100
0001
0000
0000
0100
0000
0010
0000
0100
0000
0000
1001
0000
0000
0000
,  // measure 246
1000
0000
0000
0101
0000
0000
0000
0000
0000
0000
0000
0000
0000
0000
0000
0000
0000
0000
0000
0000
0000
0000
0000
0100
,  // measure 247
0000
0001
0000
0100
0000
0000
0000
1100
0000
0001
0000
0100
0000
0000
0000
0100
0000
0010
0000
0001
0000
1000
0000
0000
,  // measure 248
0000
1000
0001
0100
0000
0000
0000
0000
0000
0000
0000
0000
0000
0000
0000
0000
0000
0000
0000
0000
0000
0000
0000
0000
,  // measure 249
0000
0100
0001
0000
0000
0100
1000
0000
0000
0100
0001
0000
0000
0100
0000
0010
0000
0100
0000
0000
1001
0000
0000
0000
,  // measure 250
1000
0000
0000
0101
0000
0000
0000
0000
0000
0000
0000
0000
0000
0000
0000
0000
0000
0000
0000
0000
0000
0000
0000
0100
,  // measure 251
0000
0000
0000
0101
0000
1000
0000
0100
0000
0000
0000
0101
0000
0000
0000
0100
0000
0010
0000
1000
0000
0001
0000
1000
,  // measure 252
0000
0000
0000
0100
0001
0000
0000
0000
0000
0000
0000
0000
0000
0000
0000
0000
0000
0000
0000
0000
0000
0000
0000
0100
,  // measure 253
0000
0000
0001
0000
0000
0100
1000
0000
0000
0100
0001
0000
0000
0100
0000
0010
0000
0100
0000
0000
1001
0000
0000
0000
,  // measure 254
1000
0000
0000
0101
0000
0000
0000
0000
0000
0000
0000
0000
0000
0000
0000
0000
0000
0000
0000
0000
0000
0000
0000
0100
,  // measure 255
0000
0001
0000
0100
0000
0000
0000
1100
0000
0001
0000
0100
0000
0000
0000
0100
0000
0010
0000
0001
0000
1000
0000
0000
,  // measure 256
0000
1000
0001
0100
0000
0000
0000
0000
0000
0000
0000
0000
0000
0000
0000
0000
0000
0000
0000
0000
0000
0000
0000
0000
,  // measure 257
0000
0100
0001
0000
0000
0100
1000
0000
0000
0100
0001
0000
0000
0100
0000
0010
0000
0100
0000
0000
1001
0000
0000
0000
,  // measure 258
1000
0000
0000
0101
0000
0000
0000
0000
0000
0000
0000
0000
0000
0000
0000
0000
0000
0000
0000
0000
0000
0000
0000
0100
,  // measure 259
0000
0000
0000
0101
0000
1000
0000
0100
0000
0000
0000
0101
0000
0000
0000
0100
0000
0010
0000
1000
0000
0001
0000
1000
,  // measure 260
0000
0000
0000
0100
0001
0000
0000
0000
0000
0000
0000
0000
0000
0000
0000
0000
0000
0000
0000
0000
0000
0000
0000
0000
,  // measure 261
0000
0100
0001
0000
0000
0100
1000
0000
0000
0100
0001
0000
0000
0100
0000
0010
0000
0100
0000
0000
1001
0000
0000
0000
,  // measure 262
1000
0000
0000
0101
0000
0000
0000
0000
0000
0000
0000
0000
0000
0000
0000
0000
0000
0000
0000
0000
0000
0000
0000
0100
,  // measure 263
0000
0001
0000
0100
0000
0000
0000
1100
0000
0001
0000
0100
0000
0000
0000
0100
0000
0010
0000
0001
0000
1000
0000
0000
,  // measure 264
0000
1000
0001
0100
0000
0000
0000
0000
0000
0000
0000
0000
0000
0000
0000
0000
0000
0000
0000
0000
0000
0000
0000
0000
,  // measure 265
0000
0100
0001
0000
0000
0100
1000
0000
0000
0100
0001
0000
0000
0100
0000
0010
0000
0100
0000
0000
1001
0000
0000
0000
,  // measure 266
1000
0000
0000
0101
0000
0000
0000
0000
0000
0000
0000
0000
0000
0000
0000
0000
0000
0000
0000
0000
0000
0000
0000
0100
,  // measure 267
0000
0000
0000
0101
0000
1000
0000
0100
0000
0000
0000
0101
0100
0000
0000
0100
0000
0010
0000
1000
0000
0001
0000
1000
,  // measure 268
0000
0000
0000
0100
0001
0000
0000
0000
0000
0000
0000
0000
0000
0000
0000
0000
0000
0000
0000
0000
0000
0000
0000
0000
,  // measure 269
0000
0100
0001
0000
0000
0100
1000
0000
0000
0100
0001
0000
0000
0100
0000
0010
0000
0100
0000
0000
1001
0000
0000
0000
,  // measure 270
1000
0000
0000
0101
0000
0000
0000
0000
0000
0000
0000
0000
0000
0000
0000
0000
0000
0000
0000
0000
0000
0000
0000
0100
,  // measure 271
0000
0001
0000
0100
0000
0000
0000
1100
0000
0001
0000
0100
0000
0000
0000
0100
0000
0010
0000
0001
0000
1000
0000
0000
,  // measure 272
0000
1000
0001
0100
0000
0000
0000
0000
0000
0000
0000
0000
0000
0000
0000
0000
0000
0000
0000
0000
0000
0000
0000
0000
,  // measure 273
0000
0100
0001
0000
0000
0100
1000
0000
0000
0100
0001
0000
0000
0100
0000
0010
0000
0100
0000
0000
1001
0000
0000
0000
,  // measure 274
1000
0000
0000
0101
0000
0000
0000
0000
0000
0000
0000
0000
0000
0000
0000
0000
0000
0000
0000
0000
0000
0000
0000
0100
,  // measure 275
0000
0000
0000
0101
0000
1000
0000
0100
0000
0000
0000
0101
0000
0000
0000
0100
0000
0010
0000
0000
0000
1001
0000
0000
,  // measure 276
0000
1000
0000
0100
0001
0000
0000
0000
0000
0000
0000
0000
0000
0000
0000
0000
0000
0000
0000
0000
0000
0000
0000
0000
,  // measure 277
0000
0100
0001
0000
0000
0100
1000
0000
0000
0100
0001
0000
0000
0100
0000
0010
0000
0100
0000
0000
1001
0000
0000
0000
,  // measure 278
1000
0000
0000
0101
0000
0000
0000
0000
0000
0000
0000
0000
0000
0000
0000
0000
0000
0000
0000
0000
0000
0000
0000
0100
,  // measure 279
0000
0001
0000
0100
0000
0000
0000
1100
0000
0001
0000
0100
0000
0000
0000
0100
0000
0010
0000
0001
0000
1000
0000
0000
,  // measure 280
0000
1000
0001
0100
0000
0000
0000
0000
0000
0000
0000
0000
0000
0000
0000
0000
0000
0000
0000
0000
0000
0000
0000
0000
,  // measure 281
0000
0100
0001
0000
0000
0100
1000
0000
0000
0100
0001
0000
0000
0100
0000
0010
0000
0100
0000
0000
1001
0000
0000
0000
,  // measure 282
1000
0000
0000
0101
0000
0000
0000
0000
0000
0000
0000
0000
0000
0000
0000
0000
0000
0000
0000
0000
0000
0000
0000
0100
,  // measure 283
0000
0000
0000
0101
0000
1000
0000
0100
0000
0000
0000
0101
0000
0000
0000
0100
0000
0010
0000
1000
0000
0001
0000
1000
,  // measure 284
0000
0000
0000
0100
0001
0000
0000
0000
0000
0000
0000
0000
0000
0000
0000
0000
0000
0000
0000
0000
0000
0000
0000
0000
,  // measure 285
0100
0001
0100
1000
0100
0001
0100
0000
0110
0000
1001
0000
,  // measure 286
1000
0101
0000
0000
0001
1100
0000
0000
,  // measure 287
0011
0000
0000
0000
,  // measure 288
0110
0000
0000
0000
1001
0000
0000
0000
1000
0000
0000
0101
0000
0000
0000
0000
0000
0000
0000
0000
0001
0000
0000
1100
,  // measure 289
0000
0000
0000
0000
0000
0000
0000
0000
0011
0000
0000
0000
0000
0000
0000
0000
0000
0000
0000
0000
0000
0000
0000
0110
,  // measure 290
0000
0000
0000
1001
0000
0000
0000
1000
0000
0000
0101
0000
0000
0000
0000
0000
0000
0000
0000
0001
0000
0000
1100
0000
,  // measure 291
0000
0000
0000
0000
0000
0000
0000
0011
0000
0000
0000
0000
0000
0000
0000
0000
0000
0000
0000
0000
0000
0110
0000
0000
,  // measure 292
0000
1001
0000
0000
0000
1000
0000
0000
0101
0000
0000
0000
0000
0000
0000
0000
0000
0001
0000
0000
1100
0000
0000
0000
,  // measure 293
0000
0000
0000
0000
0000
0011
0000
0000
0000
0000
0000
0000
0000
0000
0000
0000
0000
0000
0000
0000
0110
0000
0000
0000
,  // measure 294
1001
0000
0000
0000
1000
0000
0000
0101
0000
0000
0000
0000
0000
0000
0000
0000
0001
0000
0000
1100
0000
0000
0000
0000
,  // measure 295
0000
0000
0000
0000
0011
0000
0000
0000
0000
0000
0000
0000
0000
0000
0000
0000
0000
0000
0000
0110
0000
0000
0000
1001
,  // measure 296
0000
1000
0101
0000
0000
0001
1100
0000
,  // measure 297
0000
0000
0000
0011
0000
0000
0000
0000
0000
0000
0000
0000
0000
0000
0000
0000
0000
0000
0110
0000
0000
0000
1001
0000
,  // measure 298
0000
0000
1000
0000
0000
0101
0000
0000
0000
0000
0000
0000
0000
0000
0001
0000
0000
1100
0000
0000
0000
0000
0000
0000
,  // measure 299
0000
0000
0011
0000
0000
0000
0000
0000
0000
0000
0000
0000
0000
0000
0000
0000
0000
0110
0000
0000
0000
1001
0000
0000
,  // measure 300
0000
1000
0000
0000
0101
0000
0000
0000
0000
0000
0000
0000
0000
0001
0000
0000
1100
0000
0000
0000
0000
0000
0000
0000
,  // measure 301
0000
0011
0000
0000
0000
0000
0000
0000
0000
0000
0000
0000
0000
0000
0000
0000
0110
0000
0000
0000
1001
0000
0000
0000
,  // measure 302
1000
0101
0000
0000
0001
1100
0000
0000
,  // measure 303
0011
0000
0000
0000
,  // measure 304
0000
0000
0000
1001
0000
0000
0000
1000
0000
0000
0101
0000
0000
0000
0000
0000
0000
0000
0000
0001
0000
0000
1100
0000
,  // measure 305
0000
0000
0000
0000
0000
0000
0000
0011
0000
0000
0000
0000
0000
0000
0000
0000
0000
0000
0000
0000
0000
0000
0000
0000
,  // measure 306
0000
0000
1001
0000
0000
0000
1000
0000
0000
0101
0000
0000
0000
0000
0000
0000
0000
0000
0001
0000
0000
1100
0000
0000
,  // measure 307
0000
0011
0000
0000
,  // measure 308
0000
1001
0000
0000
0000
1000
0000
0000
0101
0000
0000
0000
0000
0000
0000
0000
0000
0001
0000
0000
1100
0000
0000
0000
,  // measure 309
0000
0000
0000
0000
0000
0011
0000
0000
0000
0000
0000
0000
0000
0000
0000
0000
0000
0000
0000
0000
0000
0000
0000
0000
,  // measure 310
1001
0000
0000
0000
1000
0000
0000
0101
0000
0000
0000
0000
0000
0000
0000
0000
0001
0000
0000
1100
0000
0000
0000
0000
,  // measure 311
0000
0000
0000
0000
0011
0000
0000
0000
0000
0000
0000
0000
0000
0000
0000
0000
0000
0000
0000
0000
0000
0000
0000
1001
,  // measure 312
0000
1000
0101
0000
0000
0001
1100
0000
,  // measure 313
0000
0000
0000
0011
0000
0000
0000
0000
0000
0000
0000
0000
0000
0000
0000
0000
0000
0000
0000
0000
0000
0000
1001
0000
,  // measure 314
0000
0000
1000
0000
0000
0101
0000
0000
0000
0000
0000
0000
0000
0000
0001
0000
0000
1100
0000
0000
0000
0000
0000
0000
,  // measure 315
0000
0000
0011
0000
0000
0000
0000
0000
0000
0000
0000
0000
0000
0000
0000
0000
0000
0000
0000
0000
0000
1001
0000
0000
,  // measure 316
0000
1000
0000
0000
0101
0000
0000
0000
0000
0000
0000
0000
0000
0001
0000
0000
1100
0000
0000
0000
0000
0000
0000
0000
,  // measure 317
0000
0011
0000
0000
0000
0000
0000
0000
0000
0000
0000
0000
0000
0000
0000
0000
0000
0000
0000
0000
1001
0000
0000
0000
,  // measure 318
1000
0101
0000
0000
0001
1100
0000
0000
,  // measure 319
0011
0000
0000
0000
,  // measure 320
0000
0000
0000
0000
0000
0000
0000
1000
0000
0000
0101
0000
0000
0000
0000
0000
0000
0000
0000
0001
0000
0000
1100
0000
,  // measure 321
0000
0000
0000
0000
0000
0000
0000
0011
0000
0000
0000
0000
0000
0000
0000
0000
0000
0000
0000
0000
0000
0000
0000
0000
,  // measure 322
0000
0000
1000
0101
0000
0000
0001
1100
,  // measure 323
0000
0011
0000
0000
,  // measure 324
0000
0000
0000
0000
0000
1000
0000
0000
0101
0000
0000
0000
0000
0000
0000
0000
0000
0001
0000
0000
1100
0000
0000
0000
,  // measure 325
0000
0000
0000
0000
0000
0011
0000
0000
0000
0000
0000
0000
0000
0000
0000
0000
0000
0000
0000
0000
0000
0000
0000
0000
,  // measure 326
0000
0000
0000
0000
1000
0000
0000
0101
0000
0000
0000
0000
0000
0000
0000
0000
0001
0000
0000
1100
0000
0000
0000
0000
,  // measure 327
0000
0000
0011
0000
0000
0000
0000
0000
0000
0000
0000
0000
,  // measure 328
0000
1000
0101
0000
0000
0001
1100
0000
,  // measure 329
0000
0011
0000
0000
0000
0000
0000
0000
,  // measure 330
0000
0000
1000
0000
0000
0101
0000
0000
0000
0000
0000
0000
0000
0000
0001
0000
0000
1100
0000
0000
0000
0000
0000
0000
,  // measure 331
0000
0011
0000
0000
0000
0000
0000
0000
0000
0000
0000
0000
,  // measure 332
0000
1000
0000
0000
0101
0000
0000
0000
0000
0000
0000
0000
0000
0001
0000
0000
1100
0000
0000
0000
0000
0000
0000
0000
,  // measure 333
0000
0011
0000
0000
0000
0000
0000
0000
0000
0000
0000
0000
0000
0000
0000
0000
0000
0000
0000
0000
0000
0000
0000
0000
,  // measure 334
1000
0101
0000
0000
0001
1F00
0000
0000
,  // measure 335
0011
1001
1020
0130
,  // measure 336
0000
0000
0000
0000
0000
0000
0000
0000
0000
0000
0000
0000
0000
0000
0000
0000
0001
0000
0000
M000
0000
0M00
0000
0000
0000
0000
0000
0000
0000
0000
0000
0000
,  // measure 337
0011
1001
1020
0130
,  // measure 338
0000
0000
0000
0000
0000
0000
0000
0000
0000
0000
0000
0000
0000
0000
0000
0000
0001
0000
0000
0M00
0000
M000
0000
0000
0000
0000
0000
0000
0000
0000
0000
0000
,  // measure 339
0011
1001
1020
0130
,  // measure 340
0000
0000
0000
0000
0000
0000
0000
0000
0000
0000
0000
0000
0000
0000
0000
0000
0001
0000
0000
M000
0000
0M00
0000
0000
0000
0000
0000
0000
0000
0000
0000
0000
,  // measure 341
0011
1001
1020
0130
,  // measure 342
0000
0000
0000
0000
0000
0000
0000
0000
0000
0000
0000
0000
0000
0000
0000
0000
0001
0000
0000
0M00
0000
M000
0000
0000
0000
0000
0000
0000
0000
0000
0000
0000
,  // measure 343
0011
1001
1020
0130
,  // measure 344
0000
0000
0000
0000
0000
0000
0000
0000
0000
0000
0000
0000
0000
0000
0000
0000
0001
0000
0000
M000
0000
0M00
0000
0000
0000
0000
0000
0000
0000
0000
0000
0000
,  // measure 345
0011
1001
1020
0130
,  // measure 346
0000
0000
0000
0000
0000
0000
0000
0000
0000
0000
0000
0000
0000
0000
0000
0000
0001
0000
0000
0M00
0000
M000
0000
0000
0000
0000
0000
0000
0000
0000
0000
0000
,  // measure 347
0011
1001
1020
0130
,  // measure 348
0000
0000
0000
0000
0000
0000
0000
0000
0000
0000
0000
0000
0000
0000
0000
0000
0001
0000
0000
M000
0000
0M00
0000
0000
0000
0000
0000
0000
0000
0000
0000
0000
,  // measure 349
0011
1001
1020
0130
,  // measure 350
0000
0000
0000
0000
0000
0000
0000
0000
0000
0000
0000
0000
0000
0000
0000
0000
0001
0000
0000
0M00
0000
M000
0000
0000
0000
0000
0000
0000
0000
0000
0000
0000
,  // measure 351
0011
1001
1020
0130
,  // measure 352
0000
0000
0000
0000
0000
0000
0000
0000
0000
0000
0000
0000
0000
0000
0000
0000
0001
0000
0000
M000
0000
0M00
0000
0000
0000
0000
0000
0000
0000
0000
0000
0000
,  // measure 353
0011
1001
1020
0130
,  // measure 354
0000
0000
0000
0000
0000
0000
0000
0000
0000
0000
0000
0000
0000
0000
0000
0000
0001
0000
0000
0M00
0000
M000
0000
0000
0000
0000
0000
0000
0000
0000
0000
0000
,  // measure 355
0011
1001
1020
0130
,  // measure 356
0000
0000
0000
0000
0000
0000
0000
0000
0000
0000
0000
0000
0000
0000
0000
0000
0001
0000
0000
M000
0000
0M00
0000
0000
0000
0000
0000
0000
0000
0000
0000
0000
,  // measure 357
0011
1001
1020
0130
,  // measure 358
0000
0000
0000
0000
0001
1100
0000
0000
,  // measure 359
0011
1001
1020
0130
,  // measure 360
0010
0000
0000
0000
0000
0000
0000
0000
MMMM
0000
0000
0000
0000
0000
0000
0000
0000
0000
0000
0000
0000
0000
0000
0000
0000
0000
0000
0000
0000
0000
0000
000M
,  // measure 361
0000
00M0
0000
0000
0000
0000
0000
0000
1001
0000
0000
0000
0000
0000
0000
0000
1020
0000
0000
0000
0000
0000
0000
0000
0130
0000
0000
0000
0000
0000
0000
0000
,  // measure 362
0010
0000
0000
0000
0000
0000
0000
0000
MMMM
0000
0000
0000
0000
0000
0000
0000
0000
0000
0000
0000
0000
0000
0000
0000
0000
0000
0000
0000
0000
0000
0000
00M0
,  // measure 363
0000
000M
0000
0000
0000
0000
0000
0000
1001
0000
0000
0000
0000
0000
0000
0000
1020
0000
0000
0000
0000
0000
0000
0000
0130
0000
0000
0000
0000
0000
0000
0000
,  // measure 364
0010
0000
0000
0000
0000
0000
0000
0000
MMMM
0000
0000
0000
0000
0000
0000
0000
0000
0000
0000
0000
0000
0000
0000
0000
0000
0000
0000
0000
0000
0000
0000
000M
,  // measure 365
0000
00M0
0000
0000
0000
0000
0000
0000
1001
0000
0000
0000
0000
0000
0000
0000
1020
0000
0000
0000
0000
0000
0000
0000
0130
0000
0000
0000
0000
0000
0000
0000
,  // measure 366
0010
0000
0000
0000
0000
0000
0000
0000
MMMM
0000
0000
0000
0000
0000
0000
0000
0000
0000
0000
0000
0000
0000
0000
0000
0000
0000
0000
0000
0000
0000
0000
00M0
,  // measure 367
0000
000M
0000
0000
0000
0000
0000
0000
1001
0000
0000
0000
0000
0000
0000
0000
1020
0000
0000
0000
0000
0000
0000
0000
0130
0000
0000
0000
0000
0000
0000
0000
,  // measure 368
0010
0000
0000
0000
0000
0000
0000
0000
MMMM
0000
0000
0000
0000
0000
0000
0000
0000
0000
0000
0000
0000
0000
0000
0000
0000
0000
0000
0000
0000
0000
0000
000M
,  // measure 369
0000
00M0
0000
0000
0000
0000
0000
0000
1001
0000
0000
0000
0000
0000
0000
0000
1020
0000
0000
0000
0000
0000
0000
0000
0130
0000
0000
0000
0000
0000
0000
0000
,  // measure 370
0010
0000
0000
0000
0000
0000
0000
0000
MMMM
0000
0000
0000
0000
0000
0000
0000
0000
0000
0000
0000
0000
0000
0000
0000
0000
0000
0000
0000
0000
0000
0000
00M0
,  // measure 371
0000
000M
0000
0000
0000
0000
0000
0000
1001
0000
0000
0000
0000
0000
0000
0000
1020
0000
0000
0000
0000
0000
0000
0000
0130
0000
0000
0000
0000
0000
0000
0000
,  // measure 372
0010
0000
0000
0000
0000
0000
0000
0000
MMMM
0000
0000
0000
0000
0000
0000
0000
0000
0000
0000
0000
0000
0000
0000
0000
0000
0000
0000
0000
0000
0000
0000
000M
,  // measure 373
0000
00M0
0000
0000
0000
0000
0000
0000
1001
0000
0000
0000
0000
0000
0000
0000
1020
0000
0000
0000
0000
0000
0000
0000
0130
0000
0000
0000
0000
0000
0000
0000
,  // measure 374
0010
0000
0000
0000
0000
0000
0000
0000
MMMM
0000
0000
0000
0000
0000
0000
0000
0000
0000
0000
0000
0000
0000
0000
0000
0000
0000
0000
0000
0000
0000
0000
00M0
,  // measure 375
0000
000M
0000
0000
0000
0000
0000
0000
1001
0000
0000
0000
0000
0000
0000
0000
1020
0000
0000
0000
0000
0000
0000
0000
0130
0000
0000
0000
0000
0000
0000
0000
,  // measure 376
0010
0000
0000
0000
0000
0000
0000
0000
MMMM
0000
0000
0000
0000
0000
0000
0000
0000
0000
0000
0000
0000
0000
0000
0000
0000
0000
0000
0000
0000
0000
0000
000M
,  // measure 377
0000
00M0
0000
0000
0000
0000
0000
0000
1001
0000
0000
0000
0000
0000
0000
0000
1020
0000
0000
0000
0000
0000
0000
0000
0130
0000
0000
0000
0000
0000
0000
0000
,  // measure 378
0010
0000
0000
0000
0000
0000
0000
0000
MMMM
0000
0000
0000
0000
0000
0000
0000
0000
0000
0000
0000
0000
0000
0000
0000
0000
0000
0000
0000
0000
0000
0000
00M0
,  // measure 379
0000
000M
0000
0000
0000
0000
0000
0000
1001
0000
0000
0000
0000
0000
0000
0000
1020
0000
0000
0000
0000
0000
0000
0000
0130
0000
0000
0000
0000
0000
0000
0000
,  // measure 380
0010
0000
0000
0000
0000
0000
0000
0000
MMMM
0000
0000
0000
0000
0000
0000
0000
0000
0000
0000
0000
0000
0000
0000
0000
0000
0000
0000
0000
0000
0000
0000
000M
,  // measure 381
0000
00M0
0000
0000
0000
0000
0000
0000
1001
0000
0000
0000
0000
0000
0000
0000
1020
0000
0000
0000
0000
0000
0000
0000
0130
0000
0000
0000
0000
0000
0000
0000
,  // measure 382
0010
MMMM
0000
0000
,  // measure 383
0011
1001
1020
0130
,  // measure 384
0010
0000
MMMM
0000
0000
0000
0100
0100
,  // measure 385
0010
1000
0100
0010
0000
0000
0000
0000
,  // measure 386
0000
0000
0000
0000
0000
0000
0000
M0M0
0000
0M0M
0000
0000
0000
0000
0000
0000
0000
0000
0000
0000
0000
0000
0000
0000
0100
0000
0000
0000
0100
0000
0000
0000
,  // measure 387
0010
1000
0100
0010
0000
0000
0000
0000
,  // measure 388
0000
0000
0000
0000
0000
0000
0000
0M0M
0000
M0M0
0000
0000
0000
0000
0000
0000
0000
0000
0000
0000
0000
0000
0000
0000
0100
0000
0000
0000
0100
0000
0000
0000
,  // measure 389
0010
1000
0100
0010
0000
0000
0000
0000
,  // measure 390
0000
0000
0000
0000
0000
0000
0000
M0M0
0000
0M0M
0000
0000
0000
0000
0000
0000
0000
0000
0000
0000
0000
0000
0000
0000
0100
0000
0000
0000
0100
0000
0000
0000
,  // measure 391
0010
1000
0100
0010
0000
0000
0000
0000
,  // measure 392
0000
0000
0000
0000
0000
0000
0000
0M0M
0000
M0M0
0000
0000
0000
0000
0000
0000
0000
0000
0000
0000
0000
0000
0000
0000
0100
0000
0000
0000
0100
0000
0000
0000
,  // measure 393
0010
1000
0100
0010
0000
0000
0000
0000
,  // measure 394
0000
0000
0000
0000
0000
0000
0000
M0M0
0000
0M0M
0000
0000
0000
0000
0000
0000
0000
0000
0000
0000
0000
0000
0000
0000
0100
0000
0000
0000
0100
0000
0000
0000
,  // measure 395
0010
1000
0100
0010
0000
0000
0000
0000
,  // measure 396
0000
0000
0000
0000
0000
0000
0000
0M0M
0000
M0M0
0000
0000
0000
0000
0000
0000
0000
0000
0000
0000
0000
0000
0000
0000
0100
0000
0000
0000
0100
0000
0000
0000
,  // measure 397
0010
1000
0100
0010
0000
0000
0000
0000
,  // measure 398
0000
0000
0000
0000
0000
0000
0000
M0M0
0000
0M0M
0000
0000
0000
0000
0000
0000
0000
0000
0000
0000
0000
0000
0000
0000
0100
0000
0000
0000
0100
0000
0000
0000
,  // measure 399
0010
1000
0100
0010
0000
0000
0000
0000
,  // measure 400
0000
0000
0000
0000
0000
0000
0000
0M0M
0000
M0M0
0000
0000
0000
0000
0000
0000
0000
0000
0000
0000
0000
0000
0000
0000
0100
0000
0000
0000
0100
0000
0000
0000
,  // measure 401
0010
1000
0100
0010
0000
0000
0000
0000
,  // measure 402
0000
0000
0000
0000
0000
0000
0000
M0M0
0000
0M0M
0000
0000
0000
0000
0000
0000
0000
0000
0000
0000
0000
0000
0000
0000
0100
0000
0000
0000
0100
0000
0000
0000
,  // measure 403
0010
1000
0100
0010
0000
0000
0000
0000
,  // measure 404
0000
0000
0000
0000
0000
0000
0000
0M0M
0000
M0M0
0000
0000
0000
0000
0000
0000
0000
0000
0000
0000
0000
0000
0000
0000
0100
0000
0000
0000
0100
0000
0000
0000
,  // measure 405
0010
1000
0100
0010
0000
0000
0000
0000
,  // measure 406
0000
0000
0000
0000
0000
0000
0000
M0M0
0000
0M0M
0000
0000
0000
0000
0000
0000
0000
0000
0000
0000
0000
0000
0000
0000
0100
0000
0000
0000
0100
0000
0000
0000
,  // measure 407
0010
1000
0100
0010
0000
0000
0000
0000
,  // measure 408
0000
0000
0000
0000
0000
0000
0000
0M0M
0000
M0M0
0000
0000
0000
0000
0000
0000
0000
0000
0000
0000
0000
0000
0000
0000
0100
0000
0000
0000
0100
0000
0000
0000
,  // measure 409
0010
1000
0100
0010
0000
0000
0000
0000
,  // measure 410
0000
0000
0000
0000
0000
0000
0000
M0M0
0000
0M0M
0000
0000
0000
0000
0000
0000
0000
0000
0000
0000
0000
0000
0000
0000
0100
0000
0000
0000
0100
0000
0000
0000
,  // measure 411
0010
1000
0100
0010
0000
0000
0000
0000
,  // measure 412
0000
0000
0000
0000
0000
0000
0000
0M0M
0000
M0M0
0000
0000
0000
0000
0000
0000
0000
0000
0000
0000
0000
0000
0000
0000
0100
0000
0000
0000
0100
0000
0000
0000
,  // measure 413
0010
1000
0100
0010
0000
0000
0000
0000
,  // measure 414
0000
0000
0000
0000
0000
0000
0000
M0M0
0000
0M0M
0000
0000
0000
0000
0000
0000
0000
0000
0000
0000
0000
0000
0000
0000
0100
0000
0000
0000
0100
0000
0000
0000
,  // measure 415
0010
1000
0100
0010
0000
0000
0000
0000
,  // measure 416
0000
0000
0000
0000
0000
0000
0100
0100
,  // measure 417
0010
0000
0000
1000
0000
0000
0100
0000
0000
0010
0000
0000
0001
0000
0000
0000
0011
0000
0000
0000
1100
0000
0000
0000
,  // measure 418
2000
0000
0000
0000
3100
0000
0010
0000
0001
1000
0001
1000
0001
0000
0100
0000
,  // measure 419
0000
0000
0000
0000
0000
0000
0000
0000
0000
0000
0000
0000
0000
0000
0000
0000
0000
0000
0000
0000
0000
0000
0000
0000
0000
0000
0000
0000
0000
0000
0000
0000
0000
0000
0000
0000
0000
0000
0000
0000
0000
0011
0000
0000
0000
0000
0000
0000
,  // measure 420
0000
1100
0000
0000
0000
0000
0000
0000
0000
2000
0000
0000
0000
0000
0000
0000
0000
0000
0000
0000
0000
3100
0000
0000
0000
0000
0000
0010
0000
0000
0000
0000
0000
0001
0000
0000
1000
0000
0000
0001
0000
0000
1000
0000
0000
0001
0000
0000
,  // measure 421
0000
0000
0000
0000
0000
0000
0000
0000
0000
0000
0000
0000
0100
0000
0000
0000
0000
0000
0000
0000
0000
0000
0000
0000
0000
0000
0000
0000
0000
0000
0000
0000
0000
0000
0000
0000
0000
0000
0000
0000
0000
0000
0000
0000
0000
0000
0000
0000
0000
0000
0000
0000
0000
0000
0000
0000
0000
0000
0000
0000
0000
0000
0000
0000
0000
0000
0000
0000
0000
0000
0000
0000
0000
0000
0000
0000
0000
0000
0000
0000
0000
0000
0000
0000
0000
0000
0000
0000
0000
0000
0000
0000
0000
0000
0000
0000
0000
0000
0000
0000
0000
0000
0000
0000
0000
0000
0000
0000
0000
0000
0000
0000
0000
0000
0000
0000
0000
0000
0000
0000
0000
0000
0000
0000
0000
0000
0000
0000
0000
0000
0000
0000
0000
0000
0000
0000
0000
0000
0000
0000
0000
0000
0000
0000
0000
0000
0000
0000
0000
0000
0000
0000
0000
0000
0000
0000
0000
0000
0011
0000
0000
0000
0000
0000
0000
0000
0000
0000
0000
0000
0000
0000
0000
0000
0000
0000
0000
0000
0000
0000
0000
0000
0000
0000
0000
0000
0000
0000
0000
0000
1100
0000
,  // measure 422
0000
0000
0000
0000
0000
2000
0000
0000
0000
0000
0000
0000
0000
3100
0000
0000
0000
0010
0000
0000
0000
0001
0000
1000
0000
0001
0000
1000
0000
0001
0000
0000
,  // measure 423
0000
0000
0000
0000
0000
0000
0100
0000
0000
0000
0000
0000
0000
0000
0000
0000
0000
0000
0000
0000
0000
0000
0000
0000
0000
0000
0000
0000
0000
0000
0000
0000
0000
0000
0000
0000
0000
0000
0000
0000
0000
0000
0000
0000
0000
0000
0000
0000
0000
0000
0000
0000
0000
0000
0000
0000
0000
0000
0000
0000
0000
0000
0000
0000
0000
0000
0000
0000
0000
0000
0000
0000
0000
0000
0000
0000
0000
0000
0000
0000
0000
0000
0000
0000
0000
0000
0000
0000
0000
0000
0000
0000
0000
0000
0000
0000
0000
0000
0000
0000
0000
0000
0000
0000
0000
0000
0000
0000
0000
0000
0000
0000
0000
0000
0000
0000
0000
0000
0000
0000
0000
0000
0000
0000
0000
0000
0000
0000
0000
0000
0000
0000
0000
0000
0000
0000
0000
0000
0000
0000
0000
0000
0000
0000
0000
0000
0000
0000
0000
0000
0000
0000
0011
0000
0000
0000
0000
0000
0000
0000
0000
0000
0000
0000
0000
0000
0000
0000
0000
0000
0000
0000
0000
0000
0000
0000
0000
0000
0000
0000
0000
0000
0000
0000
1100
0000
0000
0000
0000
0000
0000
0000
,  // measure 424
0000
0000
2000
0000
0000
0000
3100
0000
0010
0000
0001
1000
0001
1000
0001
0000
,  // measure 425
0100
0000
0000
0000
0000
0000
0000
0000
0000
0000
0000
0000
0000
0000
0000
0000
0000
0000
0000
0000
0000
0000
0000
0000
0000
0000
0000
0000
0000
0000
0000
0000
0000
0000
0000
0000
0000
0000
0000
0000
0000
0000
0000
0000
0000
0000
0000
0000
0000
0000
0000
0000
0000
0000
0000
0000
0000
0000
0000
0000
0000
0000
0000
0000
0000
0000
0000
0000
0000
0000
0000
0000
0000
0000
0000
0000
0000
0000
0000
0000
0000
0000
0000
0000
0000
0000
0000
0000
0000
0000
0000
0000
0000
0000
0000
0000
0000
0000
0000
0000
0000
0000
0000
0000
0000
0000
0000
0000
0000
0000
0000
0000
0000
0000
0000
0000
0000
0000
0000
0000
0000
0000
0000
0000
0000
0000
0000
0000
0000
0000
0000
0000
0000
0000
0000
0000
0000
0000
0000
0000
0000
0000
0000
0000
0000
0000
0011
0000
0000
0000
0000
0000
0000
0000
0000
0000
0000
0000
0000
0000
0000
0000
0000
0000
0000
0000
0000
0000
0000
0000
0000
0000
0000
0000
0000
0000
0000
0000
1100
0000
0000
0000
0000
0000
0000
0000
0000
0000
0000
0000
0000
0000
,  // measure 426
0000
0000
0000
2000
0000
0000
0000
0000
0000
0000
0000
3100
0000
0000
0000
0010
0000
0000
0000
0001
0000
1000
0000
0001
0000
1000
0000
0001
0000
0000
0000
0100
,  // measure 427
0000
0000
0000
0000
0000
0000
0000
0000
0000
0000
0000
0000
0000
0000
0000
0000
0000
0000
0000
0000
0000
0000
0000
0000
0000
0000
0000
0000
0000
0000
0000
0000
0000
0000
0000
0011
0000
0000
0000
0000
0000
0000
0000
1100
0000
0000
0000
0000
,  // measure 428
0000
2000
0000
0000
0000
3100
0000
0010
0000
0001
1000
0001
1000
0001
0000
0100
,  // measure 429
0000
0000
0000
0000
0000
0000
0000
0000
0000
0000
0000
0000
0000
0000
0000
0000
0000
0000
0000
0000
0000
0000
0000
0000
0000
0000
0000
0000
0000
0000
0000
0000
0000
0000
0000
0000
0000
0000
0000
0000
0000
0000
0000
0000
0000
0000
0000
0000
0000
0000
0000
0000
0000
0000
0000
0000
0000
0000
0000
0000
0000
0000
0000
0000
0000
0000
0000
0000
0000
0000
0000
0000
0000
0000
0000
0000
0000
0000
0000
0000
0000
0000
0000
0000
0000
0000
0000
0000
0000
0000
0000
0000
0000
0000
0000
0000
0000
0000
0000
0000
0000
0000
0000
0000
0000
0000
0000
0000
0000
0000
0000
0000
0000
0000
0000
0000
0000
0000
0000
0000
0000
0000
0000
0000
0000
0000
0000
0000
0000
0000
0000
0000
0000
0000
0011
0000
0000
0000
0000
0000
0000
0000
0000
0000
0000
0000
0000
0000
0000
0000
0000
0000
0000
0000
0000
0000
0000
0000
0000
0000
0000
0000
0000
0000
0000
0000
1100
0000
0000
0000
0000
0000
0000
0000
0000
0000
0000
0000
0000
0000
0000
0000
0000
0000
0000
0000
0000
0000
0000
0000
0000
0000
,  // measure 430
0000
2000
0000
0000
0000
0000
0000
0000
0000
3100
0000
0000
0000
0010
0000
0000
0000
0001
0000
1000
0000
0001
0000
1000
0000
0001
0000
0000
0000
0100
0000
0000
,  // measure 431
0000
0000
0000
0000
0000
0000
0000
0000
0011
0000
1100
0000
,  // measure 432
2000
0000
0000
0000
3100
0000
0010
0000
0001
1000
0001
1000
0001
0000
0100
0000
,  // measure 433
0000
0000
0000
0000
0000
0000
0000
0000
0011
0000
0000
0000
,  // measure 434
0000
0000
0000
0000
0000
0000
0000
0000
0000
0000
1100
0000
0000
0000
0000
0000
0000
0000
0000
0000
0000
0000
0000
0000
0000
0000
0000
0000
0000
0000
0000
0000
0000
0000
0000
0000
0000
0000
0000
0000
0000
0000
2000
0000
0000
0000
0000
0000
0000
0000
0000
0000
0000
0000
0000
0000
0000
0000
0000
0000
0000
0000
0000
0000
0000
0000
0000
0000
0000
0000
0000
0000
0000
0000
0000
0000
0000
0000
0000
0000
0000
0000
0000
0000
0000
0000
0000
0000
0000
0000
3100
0000
0000
0000
0000
0000
0000
0000
0000
0000
0000
0000
0000
0000
0000
0000
0000
0000
0000
0000
0000
0000
0000
0000
0010
0000
0000
0000
0000
0000
0000
0000
0000
0000
0000
0000
0000
0000
0000
0000
0000
0000
0000
0000
0000
0000
0000
0000
0001
0000
0000
0000
0000
0000
0000
0000
0000
0000
0000
0000
1000
0000
0000
0000
0000
0000
0000
0000
0000
0000
0000
0000
0001
0000
0000
0000
0000
0000
0000
0000
0000
0000
0000
0000
1000
0000
0000
0000
0000
0000
0000
0000
0000
0000
0000
0000
0001
0000
0000
0000
0000
0000
,  // measure 435
0000
0000
0000
0100
0000
0000
0000
0000
0000
0000
0000
0000
0000
0000
0000
0000
0000
0000
0000
0000
0000
0000
0000
0000
0000
0000
0000
0000
0000
0000
0000
0000
,  // measure 436
0000
0000
0000
0000
0000
0000
0000
0000
0000
0000
1100
0000
0000
0000
0000
0000
0000
0000
0000
0000
0000
0000
0000
0000
0000
0000
0000
0000
0000
0000
0000
0000
0000
0000
0000
0000
0000
0000
0000
0000
0000
0000
2000
0000
0000
0000
0000
0000
0000
0000
0000
0000
0000
0000
0000
0000
0000
0000
0000
0000
0000
0000
0000
0000
0000
0000
0000
0000
0000
0000
0000
0000
0000
0000
0000
0000
0000
0000
0000
0000
0000
0000
0000
0000
0000
0000
0000
0000
0000
0000
3100
0000
0000
0000
0000
0000
0000
0000
0000
0000
0000
0000
0000
0000
0000
0000
0000
0000
0000
0000
0000
0000
0000
0000
0010
0000
0000
0000
0000
0000
0000
0000
0000
0000
0000
0000
0000
0000
0000
0000
0000
0000
0000
0000
0000
0000
0000
0000
0001
0000
0000
0000
0000
0000
0000
0000
0000
0000
0000
0000
1000
0000
0000
0000
0000
0000
0000
0000
0000
0000
0000
0000
0001
0000
0000
0000
0000
0000
0000
0000
0000
0000
0000
0000
1000
0000
0000
0000
0000
0000
0000
0000
0000
0000
0000
0000
0001
0000
0000
0000
0000
0000
,  // measure 437
0000
0000
0000
0100
0000
0000
0000
0000
0000
0000
0000
0000
0000
0000
0000
0000
0000
0000
0000
0000
0000
0000
0000
0000
0000
0000
0000
0000
0000
0000
0000
0000
,  // measure 438
0000
1100
0000
0000
0000
0000
0000
0000
0000
2000
0000
0000
0000
0000
0000
0000
0000
0000
0000
0000
0000
3100
0000
0000
0000
0000
0000
0010
0000
0000
0000
0000
0000
0001
0000
0000
1000
0000
0000
0001
0000
0000
1000
0000
0000
0001
0000
0000
,  // measure 439
0000
0000
0000
0000
0000
0000
0000
0000
0000
0000
0000
0000
0100
0000
0000
0000
0000
0000
0000
0000
0000
0000
0000
0000
0000
0000
0000
0000
0000
0000
0000
0000
0000
0000
0000
0000
0000
0000
0000
0000
0000
0000
0000
0000
0000
0000
0000
0000
0000
0000
0000
0000
0000
0000
0000
0000
0000
0000
0000
0000
0000
0000
0000
0000
0000
0000
0000
0000
0000
0000
0000
0000
0000
0000
0000
0000
0000
0000
0000
0000
0000
0000
0000
0000
0000
0000
0000
0000
0000
0000
0000
0000
0000
0000
0000
0000
0000
0000
0000
0000
0000
0000
0000
0000
0000
0000
0000
0000
0000
0000
0000
0000
0000
0000
0000
0000
0000
0000
0000
0000
0000
0000
0000
0000
0000
0000
0000
0000
0000
0000
0000
0000
0000
0000
0000
0000
0000
0000
0000
0000
0000
0000
0000
0000
0000
0000
0000
0000
0000
0000
0000
0000
0000
0000
0000
0000
0000
0000
0000
0000
0000
0000
0000
0000
0000
0000
0000
0000
0000
0000
0000
0000
0000
0000
0000
0000
0000
0000
0000
0000
0000
0000
0000
0000
0000
0000
0000
0000
0000
0000
1100
0000
,  // measure 440
0000
0000
0000
0000
0000
2000
0000
0000
0000
0000
0000
0000
0000
3100
0000
0000
0000
0010
0000
0000
0000
0001
0000
1000
0000
0001
0000
1000
0000
0001
0000
0000
,  // measure 441
0000
0000
0000
0000
0000
0000
0100
0000
0000
0000
0000
0000
0000
0000
0000
0000
0000
0000
0000
0000
0000
0000
0000
0000
0000
0000
0000
0000
0000
0000
0000
0000
0000
0000
0000
0000
0000
0000
0000
0000
0000
0000
0000
0000
0000
0000
0000
0000
0000
0000
0000
0000
0000
0000
0000
0000
0000
0000
0000
0000
0000
0000
0000
0000
0000
0000
0000
0000
0000
0000
0000
0000
0000
0000
0000
0000
0000
0000
0000
0000
0000
0000
0000
0000
0000
0000
0000
0000
0000
0000
0000
0000
0000
0000
0000
0000
0000
0000
0000
0000
0000
0000
0000
0000
0000
0000
0000
0000
0000
0000
0000
0000
0000
0000
0000
0000
0000
0000
0000
0000
0000
0000
0000
0000
0000
0000
0000
0000
0000
0000
0000
0000
0000
0000
0000
0000
0000
0000
0000
0000
0000
0000
0000
0000
0000
0000
0000
0000
0000
0000
0000
0000
0000
0000
0000
0000
0000
0000
0000
0000
0000
0000
0000
0000
0000
0000
0000
0000
0000
0000
0000
0000
0000
0000
0000
0000
0000
0000
0000
0000
0000
0000
0000
0000
1100
0000
0000
0000
0000
0000
0000
0000
,  // measure 442
0000
0000
2000
0000
0000
0000
3100
0000
0010
0000
0001
1000
0001
1000
0001
0000
,  // measure 443
0100
0000
0000
0000
0000
0000
0000
0000
0000
0000
0000
0000
0000
0000
0000
0000
0000
0000
0000
0000
0000
0000
0000
0000
0000
0000
0000
0000
0000
0000
0000
0000
0000
0000
0000
0000
0000
0000
0000
0000
0000
0000
0000
0000
0000
0000
0000
0000
0000
0000
0000
0000
0000
0000
0000
0000
0000
0000
0000
0000
0000
0000
0000
0000
0000
0000
0000
0000
0000
0000
0000
0000
0000
0000
0000
0000
0000
0000
0000
0000
0000
0000
0000
0000
0000
0000
0000
0000
0000
0000
0000
0000
0000
0000
0000
0000
0000
0000
0000
0000
0000
0000
0000
0000
0000
0000
0000
0000
0000
0000
0000
0000
0000
0000
0000
0000
0000
0000
0000
0000
0000
0000
0000
0000
0000
0000
0000
0000
0000
0000
0000
0000
0000
0000
0000
0000
0000
0000
0000
0000
0000
0000
0000
0000
0000
0000
0000
0000
0000
0000
0000
0000
0000
0000
0000
0000
0000
0000
0000
0000
0000
0000
0000
0000
0000
0000
0000
0000
0000
0000
0000
0000
0000
0000
0000
0000
0000
0000
1100
0000
0000
0000
0000
0000
0000
0000
0000
0000
0000
0000
0000
0000
,  // measure 444
0000
0000
0000
2000
0000
0000
0000
0000
0000
0000
0000
3100
0000
0000
0000
0010
0000
0000
0000
0001
0000
1000
0000
0001
0000
1000
0000
0001
0000
0000
0000
0100
,  // measure 445
0000
0000
0000
0000
0000
0000
0000
0000
0000
0000
0000
0000
0000
0000
0000
0000
0000
0000
0000
0000
0000
0000
0000
0000
0000
0000
0000
0000
0000
0000
0000
0000
0000
0000
0000
0000
0000
0000
0000
0000
0000
0000
0000
1100
0000
0000
0000
0000
,  // measure 446
0000
2000
0000
0000
0000
3100
0000
0010
0000
0001
1000
0001
1000
0001
0000
0100
,  // measure 447
0000
0000
0000
0000
0000
0000
0000
0000
0000
0000
0000
0000
0000
0000
0000
0000
0000
0000
0000
0000
0000
0000
0000
0000
0000
0000
0000
0000
0000
0000
0000
0000
0000
0000
0000
0000
0000
0000
0000
0000
0000
0000
0000
0000
0000
0000
0000
0000
0000
0000
0000
0000
0000
0000
0000
0000
0000
0000
0000
0000
0000
0000
0000
0000
0000
0000
0000
0000
0000
0000
0000
0000
0000
0000
0000
0000
0000
0000
0000
0000
0000
0000
0000
0000
0000
0000
0000
0000
0000
0000
0000
0000
0000
0000
0000
0000
0000
0000
0000
0000
0000
0000
0000
0000
0000
0000
0000
0000
0000
0000
0000
0000
0000
0000
0000
0000
0000
0000
0000
0000
0000
0000
0000
0000
0000
0000
0000
0000
0000
0000
0000
0000
0000
0000
0000
0000
0000
0000
0000
0000
0000
0000
0000
0000
0000
0000
0000
0000
0000
0000
0000
0000
0000
0000
0000
0000
0000
0000
0000
0000
0000
0000
0000
0000
0000
0000
1100
0000
0000
0000
0000
0000
0000
0000
0000
0000
0000
0000
0000
0000
0000
0000
0000
0000
0000
0000
0000
0000
0000
0000
0000
0000
,  // measure 448
0000
2000
0000
0000
0000
0000
0000
0000
0000
3100
0000
0000
0000
0010
0000
0000
0000
0001
0000
1000
0000
0001
0000
1000
0000
0001
0000
0000
0000
0100
0000
0000
,  // measure 449
0000
0000
0000
0000
0000
0000
0000
0000
0000
0000
1100
0000
,  // measure 450
2000
0000
0000
0000
3100
0000
0010
0000
0001
1000
0001
1000
0001
0000
0100
0000
,  // measure 451
0000
0000
0000
0000
,  // measure 452
0000
0000
0000
0000
0000
0000
0000
2000
0000
0000
0000
0000
0000
0000
0000
3100
0000
0000
0000
0010
0000
0000
0000
0001
0000
1000
0000
0001
0000
1000
0000
0001
,  // measure 453
0000
0000
0000
0100
0000
0000
0000
0000
0000
0000
0000
0000
0000
0000
0000
0000
0000
0000
0000
0000
0000
0000
0000
0000
0000
0000
0000
0000
0000
0000
0000
0000
,  // measure 454
0000
0000
0000
2000
0000
0000
0000
3100
0000
0010
0000
0001
1000
0001
1000
0001
,  // measure 455
0000
0100
0000
0000
0000
0000
0000
0000
0000
0000
0000
0000
0000
0000
0000
0000
,  // measure 456
0000
0000
0000
0000
0000
2000
0000
0000
0000
0000
0000
0000
0000
3100
0000
0000
0000
0010
0000
0000
0000
0001
0000
1000
0000
0001
0000
1000
0000
0001
0000
0000
,  // measure 457
0000
0100
0000
0000
0000
0000
0000
0000
0000
0000
0000
0000
0000
0000
0000
0000
0000
0000
0000
0000
0000
0000
0000
0000
0000
0000
0000
0000
0000
0000
0000
0000
,  // measure 458
0000
0000
2000
0000
0000
0000
3100
0000
0010
0000
0001
1000
0001
1000
0001
0000
,  // measure 459
0100
0000
0000
0000
,  // measure 460
0000
0000
0000
2000
0000
0000
0000
0000
0000
0000
0000
3100
0000
0000
0000
0010
0000
0000
0000
0001
0000
1000
0000
0001
0000
1000
0000
0001
0000
0000
0000
0100
,  // measure 461
0000
0000
0000
0000
,  // measure 462
0000
2000
0000
0000
0000
3100
0000
0010
0000
0001
1000
0001
1000
0001
0000
0100
,  // measure 463
0000
0000
0000
0000
,  // measure 464
0000
2000
0000
0000
0000
0000
0000
0000
0000
3100
0000
0000
0000
0010
0000
0000
0000
0001
0000
1000
0000
0001
0000
1000
0000
0001
0000
0000
0000
0100
0000
0000
,  // measure 465
0000
0000
0000
0000
,  // measure 466
2000
0000
0000
0000
3100
0000
0010
0000
0001
1000
0001
1000
0001
0000
0100
0000
,  // measure 467
0010
1000
0010
1000
0010
0000
0100
0000
0001
0010
0100
1000
0001
0000
1000
0000
,  // measure 468
0100
0000
0010
0000
,  // measure 469
0001
0000
1000
0000
,  // measure 470
0000
0000
0000
0000
0000
0000
0000
0000
0000
0000
0000
0000
0000
0000
0000
0000
0000
0000
0000
0010
0000
0000
0000
0000
0000
0000
0000
0000
0000
0000
0000
0000
,  // measure 471
0001
0000
1000
0000
,  // measure 472
0000
0000
0000
0000
0000
0000
0000
0000
0000
0010
0000
0000
0000
0000
0000
0000
,  // measure 473
0001
0000
1000
0000
,  // measure 474
0000
0000
0000
0000
0000
0000
0000
0010
0000
0000
0000
0000
0000
0000
0000
0000
,  // measure 475
0001
0000
1000
0000
,  // measure 476
0000
0000
0000
0000
0000
0000
0000
0000
0000
0010
0000
0000
0000
0000
0000
0000
,  // measure 477
0001
0000
1000
0000
,  // measure 478
0000
0000
0000
0000
0000
0000
0000
0010
0000
0000
0000
0000
0000
0000
0000
0000
,  // measure 479
0001
0000
1000
0000
,  // measure 480
0000
0000
0000
0000
0000
0000
0000
0000
0000
0010
0000
0000
0000
0000
0000
0000
,  // measure 481
0001
0000
1000
0000
,  // measure 482
0000
0000
0000
0000
0000
0000
0000
0010
0000
0000
0000
0000
0000
0000
0000
0000
,  // measure 483
0001
0000
1000
0000
,  // measure 484
0000
0000
0000
0000
0000
0000
0000
0000
0000
0010
0000
0000
0000
0000
0000
0000
,  // measure 485
0001
0000
1000
0000
,  // measure 486
0000
0000
0000
0000
0000
0000
0000
0010
0000
0000
0000
0000
0000
0000
0000
0000
,  // measure 487
0001
0000
1000
0000
,  // measure 488
0000
0000
0000
0000
0000
0000
0000
0000
0000
0010
0000
0000
0000
0000
0000
0000
,  // measure 489
0001
0000
1000
0000
,  // measure 490
0000
0000
0000
0000
0000
0000
0000
0010
0000
0000
0000
0000
0000
0000
0000
0000
,  // measure 491
0001
0000
1000
0000
,  // measure 492
0000
0000
0000
0000
0000
0000
0000
0000
0000
0010
0000
0000
0000
0000
0000
0000
,  // measure 493
0001
0000
1000
0000
,  // measure 494
0000
0000
0000
0000
0000
0000
0000
0010
0000
0000
0000
0000
0000
0000
0000
0000
,  // measure 495
0001
0000
1000
0000
,  // measure 496
0000
0000
0000
0000
0000
0000
0000
0000
0000
0010
0000
0000
0000
0000
0000
0000
,  // measure 497
0001
0000
1000
0000
,  // measure 498
0000
0000
0000
0000
0000
0000
0000
0000
0000
0000
0000
0000
0000
0000
0000
0000
0000
0010
0000
0000
0000
0000
0000
0000
0000
0000
0000
0000
0000
0000
0000
0000
,  // measure 499
0001
0000
1000
0000
,  // measure 500
0000
0000
0010
0000
,  // measure 501
0001
0000
1000
0000
,  // measure 502
0001
0010
1000
0001
0100
1000
0001
0010
1000
0001
0100
1000
0001
0000
0000
0000
,  // measure 503
0000
0000
0000
0000
0000
0000
0000
0000
0000
0000
0000
0000
0000
0000
0000
0000
0000
1000
0000
0000
0000
0000
0000
0000
0000
0000
0000
0000
0000
0000
0000
0000
,  // measure 504
0001
0010
1000
0001
0100
1000
0001
0010
1000
0001
0100
1000
0001
0000
0000
0000
,  // measure 505
0000
0000
0000
0000
0000
0000
0000
0000
0000
1000
0000
0000
0000
0000
0000
0000
,  // measure 506
0001
0010
1000
0001
0100
1000
0001
0010
1000
0001
0100
1000
0001
0000
0000
0000
,  // measure 507
0000
0000
0000
0000
0000
0000
0000
1000
0000
0000
0000
0000
0000
0000
0000
0000
,  // measure 508
0001
0010
1000
0001
0100
1000
0001
0010
1000
0001
0100
1000
0001
0000
0000
0000
,  // measure 509
0000
0000
0000
0000
0000
0000
0000
0000
0000
1000
0000
0000
0000
0000
0000
0000
,  // measure 510
0001
0010
1000
0001
0100
1000
0001
0010
1000
0001
0100
1000
0001
0000
0000
0000
,  // measure 511
0000
0000
0000
0000
0000
0000
0000
1000
0000
0000
0000
0000
0000
0000
0000
0000
,  // measure 512
0001
0010
1000
0001
0100
1000
0001
0010
1000
0001
0100
1000
0001
0000
0000
0000
,  // measure 513
0000
0000
0000
0000
0000
0000
0000
0000
0000
1000
0000
0000
0000
0000
0000
0000
,  // measure 514
0001
0010
1000
0001
0100
1000
0001
0010
1000
0001
0100
1000
0001
0000
0000
0000
,  // measure 515
0000
0000
0000
0000
0000
0000
0000
1000
0000
0000
0000
0000
0000
0000
0000
0000
,  // measure 516
0001
0010
1000
0001
0100
1000
0001
0010
1000
0001
0100
1000
0001
0000
0000
0000
,  // measure 517
0000
0000
0000
0000
0000
0000
0000
0000
0000
1000
0000
0000
0000
0000
0000
0000
,  // measure 518
0001
0010
1000
0001
0100
1000
0001
0010
1000
0001
0100
1000
0001
0000
0000
0000
,  // measure 519
0000
0000
0000
0000
0000
0000
0000
0000
0000
1000
0000
0000
0000
0000
0000
0000
,  // measure 520
0001
0010
1000
0001
0100
1000
0001
0010
1000
0001
0100
1000
0001
0000
0000
0000
,  // measure 521
0000
0000
0000
0000
0000
0000
0000
1000
0000
0000
0000
0000
0000
0000
0000
0000
,  // measure 522
0001
0010
1000
0001
0100
1000
0001
0010
1000
0001
0100
1000
0001
0000
0000
0000
,  // measure 523
0000
0000
0000
0000
0000
0000
0000
0000
0000
1000
0000
0000
0000
0000
0000
0000
,  // measure 524
0001
0010
1000
0001
0100
1000
0001
0010
1000
0001
0100
1000
0001
0000
0000
0000
,  // measure 525
0000
0000
0000
0000
0000
0000
0000
1000
0000
0000
0000
0000
0000
0000
0000
0000
,  // measure 526
0001
0010
1000
0001
0100
1000
0001
0010
1000
0001
0100
1000
0001
0000
0000
0000
,  // measure 527
0000
0000
0000
0000
0000
0000
0000
0000
0000
1000
0000
0000
0000
0000
0000
0000
,  // measure 528
0001
0010
1000
0001
0100
1000
0001
0010
1000
0001
0100
1000
0001
0000
0000
0000
,  // measure 529
0000
0000
0000
0000
0000
0000
0000
F000
0000
0000
0000
0000
0000
0000
0000
0000
,  // measure 530
0001
0010
1000
0001
0100
1000
0001
0010
1000
0001
0100
1000
0001
0000
0000
0000
,  // measure 531
0000
0000
0000
0000
0000
0000
0000
0000
0000
0000
0000
0000
0000
0000
0000
F000
0000
0000
0000
0000
0000
0000
0000
0000
0000
0000
0000
0000
0000
0000
0000
0000
,  // measure 532
0001
0010
1000
0001
0100
1000
0001
0010
1000
0001
0100
1000
0001
0000
0000
0000
,  // measure 533
0000
0000
1000
0000
,  // measure 534
0001
0010
1000
0001
0100
1000
0001
0010
1000
0001
0100
1000
0001
0010
1000
0001
,  // measure 535
0100
0100
0100
0100
0100
0000
0000
0000
,  // measure 536
1000
0100
1000
0100
0010
0001
0010
0001
0000
0000
0000
0000
0000
0000
0000
0000
,  // measure 537
0000
0000
0000
0100
0000
0100
0000
0100
0000
0100
0000
0000
0000
0000
0000
0000
,  // measure 538
0000
1000
0100
1000
0100
0010
0001
0010
0001
0000
0000
0000
0000
0000
0000
0000
,  // measure 539
0000
0000
0100
0100
0100
0100
0000
0000
,  // measure 540
0000
0000
1000
0100
1000
0100
0010
0001
0010
0001
0000
0000
0000
0000
0000
0000
,  // measure 541
0000
0000
0000
0100
0000
0100
0000
0100
0000
0100
0000
0000
0000
0000
0000
0000
,  // measure 542
0000
1000
0100
1000
0100
0010
0001
0010
0001
0000
0000
0000
0000
0000
0000
0000
,  // measure 543
0000
0100
0100
0100
0100
0000
0000
0000
,  // measure 544
1000
0100
1000
0100
0010
0001
0010
0001
0000
0000
0000
0000
0000
0000
0000
0000
,  // measure 545
0000
0000
0000
0000
0000
0100
0000
0100
0000
0100
0000
0000
0000
0000
0000
0000
,  // measure 546
0000
1000
0100
1000
0100
0010
0001
0010
0001
0000
0000
0000
0000
0000
0000
0000
,  // measure 547
0000
0000
0000
0100
0100
0100
0000
0000
,  // measure 548
0000
0000
1000
0100
1000
0100
0010
0001
0010
0001
0000
0000
0000
0000
0000
0000
,  // measure 549
0000
0000
0000
0000
0000
0100
0000
0100
0000
0100
0000
0000
0000
0000
0000
0000
,  // measure 550
0000
1000
0100
1000
0100
0010
0001
0010
0001
0000
0000
0000
0000
0000
0000
0000
,  // measure 551
0000
0000
0100
0100
0100
0000
0000
0000
,  // measure 552
1000
0100
1000
0100
0010
0001
0010
0001
0000
0000
0000
0000
0000
0000
0000
0000
,  // measure 553
0000
0000
0000
0000
0000
0000
0000
0100
0000
0100
0000
0000
0000
0000
0000
0000
,  // measure 554
0000
1000
0100
1000
0100
0010
0001
0010
0001
0000
0000
0000
0000
0000
0000
0000
,  // measure 555
0000
0000
0000
0000
0100
0100
0000
0000
,  // measure 556
0000
0000
1000
0100
1000
0100
0010
0001
0010
0001
0000
0000
0000
0000
0000
0000
,  // measure 557
0000
0000
0000
0000
0000
0000
0000
0100
0000
0100
0000
0000
0000
0000
0000
0000
,  // measure 558
0000
1000
0100
1000
0100
0010
0001
0010
0001
0000
0000
0000
0000
0000
0000
0000
,  // measure 559
0000
0000
0000
0100
0100
0000
0000
0000
,  // measure 560
1000
0100
1000
0100
0010
0001
0010
0001
0000
0000
0000
0000
0000
0000
0000
0000
,  // measure 561
0000
0000
0000
0000
0000
0000
0000
0000
0000
0100
0000
0000
0000
0000
0000
0000
,  // measure 562
0000
1000
0100
1000
0100
0010
0001
0010
0001
0000
0000
0000
0000
0000
0000
0000
,  // measure 563
0000
0000
0000
0000
0000
0100
0000
0000
,  // measure 564
0000
0000
1000
0100
1000
0100
0010
0001
0010
0001
0000
0000
0000
0000
0000
0000
,  // measure 565
0000
0000
0000
0000
0000
0000
0000
0000
0000
0100
0000
0000
0000
0000
0000
0000
,  // measure 566
0000
1000
0100
1000
0100
0010
0001
0010
0001
0000
0000
0000
0000
0000
0000
0000
,  // measure 567
0000
0000
0100
0000
,  // measure 568
1000
0100
1000
0100
0010
0001
0010
0001
0100
0000
0000
0000
0000
0000
0000
0000
,  // measure 569
0010
0100
0010
0100
0000
0000
0000
0000
0000
0000
0000
0000
0000
0000
0000
0000
,  // measure 570
0100
1000
0100
1000
0001
0010
0001
0010
0100
0000
0000
0000
0000
0000
0000
0000
,  // measure 571
0010
0100
0010
0100
0000
0000
0000
0000
0000
0000
0000
0000
0000
0000
0000
0000
,  // measure 572
1000
0100
1000
0100
0010
0001
0010
0001
0100
0000
0000
0000
0000
0000
0000
0000
,  // measure 573
0010
0100
0010
0100
0000
0000
0000
0000
0000
0000
0000
0000
0000
0000
0000
0000
,  // measure 574
0100
1000
0100
1000
0001
0010
0001
0010
0100
0000
0000
0000
0000
0000
0000
0000
,  // measure 575
0010
0100
0010
0100
0000
0000
0000
0000
0000
0000
0000
0000
0000
0000
0000
0000
,  // measure 576
1000
0100
1000
0100
0010
0001
0010
0001
0100
0000
0000
0000
0000
0000
0000
0000
,  // measure 577
0010
0100
0010
0100
0000
0000
0000
0000
0000
0000
0000
0000
0000
0000
0000
0000
,  // measure 578
0100
1000
0100
1000
0001
0010
0001
0010
0100
0000
0000
0000
0000
0000
0000
0000
,  // measure 579
0010
0100
0010
0100
0000
0000
0000
0000
0000
0000
0000
0000
0000
0000
0000
0000
,  // measure 580
1000
0100
1000
0100
0010
0001
0010
0001
0100
0000
0000
0000
0000
0000
0000
0000
,  // measure 581
0010
0100
0010
0100
0000
0000
0000
0000
0000
0000
0000
0000
0000
0000
0000
0000
,  // measure 582
0100
1000
0100
1000
0001
0010
0001
0010
0100
0000
0000
0000
0000
0000
0000
0000
,  // measure 583
0010
0100
0010
0100
0000
0000
0000
0000
0000
0000
0000
0000
0000
0000
0000
0000
,  // measure 584
1000
0100
1000
0100
0010
0001
0010
0001
0100
0000
0000
0000
0000
0000
0000
0000
,  // measure 585
0010
0100
0010
0100
0000
0000
0000
0000
0000
0000
0000
0000
0000
0000
0000
0000
,  // measure 586
0100
1000
0100
1000
0001
0010
0001
0010
0100
0000
0000
0000
0000
0000
0000
0000
,  // measure 587
0010
0100
0010
0100
0000
0000
0000
0000
0000
0000
0000
0000
0000
0000
0000
0000
,  // measure 588
1000
0100
1000
0100
0010
0001
0010
0001
0100
0000
0000
0000
0000
0000
0000
0000
,  // measure 589
0010
0100
0010
0100
0000
0000
0000
0000
0000
0000
0000
0000
0000
0000
0000
0000
,  // measure 590
0100
1000
0100
1000
0001
0010
0001
0010
0100
0000
0000
0000
0000
0000
0000
0000
,  // measure 591
0010
0100
0010
0100
0000
0000
0000
0000
0000
0000
0000
0000
0000
0000
0000
0000
,  // measure 592
1000
0100
1000
0100
0010
0001
0010
0001
0100
0000
0000
0000
0000
0000
0000
0000
,  // measure 593
0010
0100
0010
0100
0001
1000
0001
1000
0100
0000
0000
0000
0000
0000
0000
0000
,  // measure 594
0000
0000
0000
0000
,  // measure 595
0001
1000
0001
1000
0010
0100
0010
0100
0100
0000
0000
0000
0000
0000
0000
0000
,  // measure 596
0000
0000
0000
0000
,  // measure 597
0010
0100
0010
0100
0001
1000
0001
1000
0100
0000
0000
0000
0000
0000
0000
0000
,  // measure 598
0000
0000
0000
0000
,  // measure 599
0001
1000
0001
1000
0010
0100
0010
0100
0100
0000
0000
0000
0000
0000
0000
0000
,  // measure 600
0000
0000
0000
0000
,  // measure 601
0010
0100
0010
0100
0001
1000
0001
1000
0100
0000
0000
0000
0000
0000
0000
0000
,  // measure 602
0000
0000
0000
0000
,  // measure 603
0001
1000
0001
1000
0010
0100
0010
0100
0100
0000
0000
0000
0000
0000
0000
0000
,  // measure 604
0000
0000
0000
0000
,  // measure 605
0010
0100
0010
0100
0001
1000
0001
1000
0100
0000
0000
0000
0000
0000
0000
0000
,  // measure 606
0000
0000
0000
0000
,  // measure 607
0001
1000
0001
1000
0010
0100
0010
0100
0100
0000
0000
0000
0000
0000
0000
0000
,  // measure 608
0000
0000
0000
0000
,  // measure 609
0010
0100
0010
0100
0001
1000
0001
1000
0100
0000
0000
0000
0000
0000
0000
0000
,  // measure 610
0000
0000
0000
0000
,  // measure 611
0001
1000
0001
1000
0010
0100
0010
0100
0100
0000
0000
0000
0000
0000
0000
0000
,  // measure 612
0000
0000
0000
0000
,  // measure 613
0010
0100
0010
0100
0001
1000
0001
1000
0100
0000
0000
0000
0000
0000
0000
0000
,  // measure 614
0000
0000
0000
0000
,  // measure 615
0001
1000
0001
1000
0010
0100
0010
0100
0100
0000
0000
0000
0000
0000
0000
0000
,  // measure 616
0000
0000
0000
0000
,  // measure 617
0010
0100
0010
0100
0001
1000
0001
1000
0100
0000
0000
0000
0000
0000
0000
0000
,  // measure 618
2002
0000
0000
0000
,  // measure 619
3003
0000
0000
0000
,  // measure 620
0220
0000
0000
0000
,  // measure 621
0330
0000
0000
0000
,  // measure 622
2002
0000
0000
0000
,  // measure 623
3003
0000
0000
0000
,  // measure 624
0220
0000
0000
0000
,  // measure 625
0330
0000
0000
0000
,  // measure 626
2002
0000
0000
0000
,  // measure 627
3003
0000
0000
0000
,  // measure 628
0220
0000
0000
0000
,  // measure 629
0330
0000
0000
0000
,  // measure 630
2002
0000
0000
0000
,  // measure 631
3003
0000
0000
0000
,  // measure 632
0220
0000
0000
0000
,  // measure 633
0330
0000
0000
0000
,  // measure 634
2002
0000
0000
0000
,  // measure 635
3003
0000
0000
0000
,  // measure 636
0220
0000
0000
0000
,  // measure 637
0330
0000
0000
0000
,  // measure 638
2002
0000
0000
0000
,  // measure 639
3003
0000
0000
0000
,  // measure 640
0220
0000
0000
0000
,  // measure 641
0330
0000
0000
0000
,  // measure 642
2002
0000
0000
0000
,  // measure 643
3003
0000
0000
0000
,  // measure 644
0000
0000
0000
0000
,  // measure 645
0000
0110
0000
0000
,  // measure 646
0000
0000
0000
0000
,  // measure 647
0000
0000
0000
0000
0000
0000
0000
0000
0000
0110
0000
0000
0000
0000
0000
0000
0000
0000
0000
0000
0000
0000
0000
0000
0000
0000
0000
0000
0000
0000
0000
0000
,  // measure 648
0000
0000
0000
0000
,  // measure 649
0000
0000
0000
0000
0000
0110
0000
0000
0000
0000
0000
0000
0000
0000
0000
0000
,  // measure 650
0000
0000
0000
0000
,  // measure 651
0000
0000
0000
0000
0000
0000
0000
0000
0000
0000
0000
0110
0000
0000
0000
0000
0000
0000
0000
0000
0000
0000
0000
0000
0000
0000
0000
0000
0000
0000
0000
0000
,  // measure 652
0000
0000
0000
0000
,  // measure 653
0000
0000
0000
0110
0000
0000
0000
0000
,  // measure 654
0000
0000
0000
0000
,  // measure 655
0000
0000
0000
0000
0000
0000
0000
0000
0000
0000
0000
0000
0000
0110
0000
0000
0000
0000
0000
0000
0000
0000
0000
0000
0000
0000
0000
0000
0000
0000
0000
0000
,  // measure 656
0000
0000
0000
0000
,  // measure 657
0000
0000
0000
0000
0000
0000
0000
0110
0000
0000
0000
0000
0000
0000
0000
0000
,  // measure 658
0000
0000
0000
0000
,  // measure 659
0000
0000
0000
0000
0000
0000
0000
0000
0000
0000
0000
0000
0000
0000
0000
0110
0000
0000
0000
0000
0000
0000
0000
0000
0000
0000
0000
0000
0000
0000
0000
0000
,  // measure 660
0000
0000
0000
0000
,  // measure 661
0000
0000
0110
0000
,  // measure 662
0000
0000
0000
0000
,  // measure 663
0000
0000
0000
0000
0000
0000
0000
0000
0000
0000
0000
0000
0000
0000
0000
0000
0000
0110
0000
0000
0000
0000
0000
0000
0000
0000
0000
0000
0000
0000
0000
0000
,  // measure 664
0000
0000
0000
0000
,  // measure 665
0000
0000
0000
0000
0000
0000
0000
0000
0000
0110
0000
0000
0000
0000
0000
0000
,  // measure 666
0000
0000
0000
0000
,  // measure 667
0000
0000
0000
0000
0000
0000
0000
0000
0000
0000
0000
0000
0000
0000
0000
0000
0000
0000
0000
0110
0000
0000
0000
0000
0000
0000
0000
0000
0000
0000
0000
0000
,  // measure 668
0000
0000
0000
0000
,  // measure 669
0000
0000
0000
0000
0000
0110
0000
0000
,  // measure 670
0000
0000
0000
0000
,  // measure 671
0000
0000
0000
0000
0000
0000
0000
0000
0000
0000
0000
0000
0000
0000
0000
0000
0000
0000
0000
0000
0000
0110
0000
0000
0000
0000
0000
0000
0000
0000
0000
0000
,  // measure 672
0000
0000
0000
0000
,  // measure 673
0000
0000
0000
0000
0000
0000
0000
0000
0000
0000
0000
0110
0000
0000
0000
0000
,  // measure 674
0000
0000
0000
0000
,  // measure 675
0000
0000
0000
0000
0000
0000
0000
0000
0000
0000
0000
0000
0000
0000
0000
0000
0000
0000
0000
0000
0000
0000
0000
0110
0000
0000
0000
0000
0000
0000
0000
0000
,  // measure 676
0000
0000
0000
0000
,  // measure 677
0000
0000
0000
0110
,  // measure 678
0000
0000
0000
0000
,  // measure 679
0000
0000
0000
0000
0000
0000
0000
0000
0000
0000
0000
0000
0000
0000
0000
0000
0000
0000
0000
0000
0000
0000
0000
0000
0000
0110
0000
0000
0000
0000
0000
0000
,  // measure 680
0000
0000
0000
0000
,  // measure 681
0000
0000
0000
0000
0000
0000
0000
0000
0000
0000
0000
0000
0000
0110
0000
0000
,  // measure 682
0000
0000
0000
0000
,  // measure 683
0000
0000
0000
0000
0000
0000
0000
0000
0000
0000
0000
0000
0000
0000
0000
0000
0000
0000
0000
0000
0000
0000
0000
0000
0000
0000
0000
0110
0000
0000
0000
0000
,  // measure 684
0000
0000
0000
0000
,  // measure 685
0000
0000
0000
0000
0000
0000
0000
0110
,  // measure 686
0000
0000
0000
0000
,  // measure 687
0000
0000
0000
0000
0000
0000
0000
0000
0000
0000
0000
0000
0000
0000
0000
0000
0000
0000
0000
0000
0000
0000
0000
0000
0000
0000
0000
0000
0000
0110
0000
0000
,  // measure 688
0000
0000
0000
0000
,  // measure 689
0000
0000
0000
0000
0000
0000
0000
0000
0000
0000
0000
0000
0000
0000
0000
0110
,  // measure 690
0000
0000
0000
0000
,  // measure 691
0000
0000
0000
0000
0000
0000
0000
0000
0000
0000
0000
0000
0000
0000
0000
0000
0000
0000
0000
0000
0000
0000
0000
0000
0000
0000
0000
0000
0000
0000
0000
0110
,  // measure 692
0000
0000
0000
0000
,  // measure 693
0000
0000
0000
0000
,  // measure 694
0110
0000
0000
0000
,  // measure 695
0100
0000
0001
0000
,  // measure 696
0010
0000
0100
0000
,  // measure 697
1000
0000
0001
0000
,  // measure 698
1000
0100
0010
0001
0010
0100
1000
0010
0100
0001
0100
0010
,  // measure 699
1000
0100
0001
0100
1000
0010
0001
0010
1000
0001
0010
0100
,  // measure 700
1000
0010
0100
0001
0100
0010
0001
0010
0100
0010
1000
0010
,  // measure 701
0100
0001
0010
1000
0010
0001
0010
0100
0010
0001
0100
0010
,  // measure 702
1000
0000
1010
0000
0100
0001
0011
0000
,  // measure 703
0100
0000
1000
0000
0010
0000
0100
0001
1000
0000
0100
0000
0110
0000
0000
0010
,  // measure 704
0001
0000
0010
0000
0100
0000
1000
0001
0100
0000
0010
0000
0100
0001
1000
0000
,  // measure 705
0100
0000
0010
0000
0001
0000
0010
1000
0010
0000
0001
0000
0100
0010
1000
0000
,  // measure 706
0001
0100
0010
1000
0100
0001
1000
0010
,  // measure 707
0001
0100
0010
1000
0001
0010
0100
1000
,  // measure 708
0001
0010
0100
1000
0001
0100
0010
1000
0010
0100
0001
1000
0100
0010
0001
0100
,  // measure 709
0010
0000
0000
0000
0000
0000
1000
0100
0010
0001
0010
0100
,  // measure 710
1000
0100
0010
0100
1000
0001
0100
0010
0100
0001
0010
0100
1000
0010
0100
0000
,  // measure 711
0000
0000
0000
0000
0000
0000
0000
0000
0000
0000
0000
0000
0000
0000
0000
0000
0000
0100
0000
0010
0000
0001
0000
0010
,  // measure 712
0000
0000
0100
0000
0000
0000
1000
0000
0000
0100
0000
0000
0010
0000
0000
0100
0000
0000
1000
0000
0000
0001
0000
0000
0100
0000
0000
0010
0000
0000
0100
0000
0000
0001
0000
0000
0010
0000
0000
0100
0000
0000
1000
0000
0000
0010
0000
0000
,  // measure 713
0100
0000
0000
0000
0000
0000
0000
0000
0100
0010
0001
0010
,  // measure 714
0100
0000
0000
0000
1000
0000
0000
0100
0000
0000
0010
0000
0000
0100
0000
0000
1000
0000
0000
0001
0000
0000
0100
0000
0000
0010
0000
0000
0100
0000
0000
0001
0000
0000
0010
0000
0000
0100
0000
0000
1000
0000
0000
0010
0000
0000
0100
0000
,  // measure 715
0000
0000
0000
0000
0000
0000
0000
0000
0000
0000
0000
0000
0000
0000
0000
0100
0000
0010
0000
0001
0000
0010
0000
0100
,  // measure 716
0000
0000
1000
0000
0000
0100
0000
0000
0010
0000
0000
0100
0000
0000
1000
0000
0000
0001
0000
0000
0100
0000
0000
0010
0000
0000
0100
0000
0000
0001
0000
0000
0010
0000
0000
0100
0000
0000
1000
0000
0000
0010
0000
0000
0100
0000
0000
0000
,  // measure 717
0000
0000
0000
0000
0000
0000
0000
0100
0010
0001
0010
0100
,  // measure 718
1000
0100
0010
0100
1000
0001
0100
0010
0100
0001
0010
0100
1000
0010
0100
0000
,  // measure 719
0000
0000
0000
0000
0000
0000
0000
0000
0000
0000
0000
0000
0000
0000
0000
0000
0000
0000
0000
0010
0000
0001
0000
0010
,  // measure 720
0000
0000
0100
0000
0000
0000
1000
0000
0000
0100
0000
0000
0010
0000
0000
0100
0000
0000
1000
0000
0000
0001
0000
0000
0100
0000
0000
0010
0000
0000
0100
0000
0000
0001
0000
0000
0010
0000
0000
0100
0000
0000
1000
0000
0000
0010
0000
0000
,  // measure 721
0100
0000
0000
0000
0000
0000
0000
0000
0000
0010
0001
0010
,  // measure 722
0100
0000
0000
0000
1000
0000
0000
0100
0000
0000
0010
0000
0000
0100
0000
0000
1000
0000
0000
0001
0000
0000
0100
0000
0000
0010
0000
0000
0100
0000
0000
0001
0000
0000
0010
0000
0000
0100
0000
0000
1000
0000
0000
0010
0000
0000
0100
0000
,  // measure 723
0000
0000
0000
0000
0000
0000
0000
0000
0000
0000
0000
0000
0000
0000
0000
0000
0000
0010
0000
0001
0000
0010
0000
0100
,  // measure 724
0000
0000
1000
0000
0000
0100
0000
0000
0010
0000
0000
0100
0000
0000
1000
0000
0000
0001
0000
0000
0100
0000
0000
0010
0000
0000
0100
0000
0000
0001
0000
0000
0010
0000
0000
0100
0000
0000
1000
0000
0000
0010
0000
0000
0100
0000
0000
0000
,  // measure 725
0000
0000
0000
0000
0000
0000
0000
0000
0010
0001
0010
0100
,  // measure 726
1000
0100
0010
0100
1000
0001
0100
0010
0100
0001
0010
0100
1000
0010
0100
0000
,  // measure 727
0000
0000
0000
0000
0000
0000
0000
0000
0000
0000
0000
0000
0000
0000
0000
0000
0000
0000
0000
0000
0000
0001
0000
0010
,  // measure 728
0000
0000
0100
0000
0000
0000
1000
0000
0000
0100
0000
0000
0010
0000
0000
0100
0000
0000
1000
0000
0000
0001
0000
0000
0100
0000
0000
0010
0000
0000
0100
0000
0000
0001
0000
0000
0010
0000
0000
0100
0000
0000
1000
0000
0000
0010
0000
0000
,  // measure 729
0100
0000
0000
0000
0000
0000
0000
0000
0000
0000
0001
0010
,  // measure 730
0100
0000
0000
0000
1000
0000
0000
0100
0000
0000
0010
0000
0000
0100
0000
0000
1000
0000
0000
0001
0000
0000
0100
0000
0000
0010
0000
0000
0100
0000
0000
0001
0000
0000
0010
0000
0000
0100
0000
0000
1000
0000
0000
0010
0000
0000
0100
0000
,  // measure 731
0000
0000
0000
0000
0000
0000
0000
0000
0000
0000
0000
0000
0000
0000
0000
0000
0000
0000
0000
0001
0000
0010
0000
0100
,  // measure 732
0000
0000
1000
0000
0000
0100
0000
0000
0010
0000
0000
0100
0000
0000
1000
0000
0000
0001
0000
0000
0100
0000
0000
0010
0000
0000
0100
0000
0000
0001
0000
0000
0010
0000
0000
0100
0000
0000
1000
0000
0000
0010
0000
0000
0100
0000
0000
0000
,  // measure 733
0000
0000
0000
0000
0000
0000
0000
0000
0000
0001
0010
0100
,  // measure 734
1000
0100
0010
0100
1000
0001
0100
0010
0100
0001
0010
0100
1000
0010
0100
0000
,  // measure 735
0000
0000
0000
0000
0000
0000
0000
0000
0000
0000
0000
0000
0000
0000
0000
0000
0000
0000
0000
0000
0000
0000
0000
0010
,  // measure 736
0000
0000
0100
0000
0000
0000
1000
0000
0000
0100
0000
0000
0010
0000
0000
0100
0000
0000
1000
0000
0000
0001
0000
0000
0100
0000
0000
0010
0000
0000
0100
0000
0000
0001
0000
0000
0010
0000
0000
0100
0000
0000
1000
0000
0000
0010
0000
0000
,  // measure 737
0100
0000
0000
0000
0000
0000
0000
0000
0000
0000
0000
0010
,  // measure 738
0100
0000
0000
0000
1000
0000
0000
0100
0000
0000
0010
0000
0000
0100
0000
0000
1000
0000
0000
0001
0000
0000
0100
0000
0000
0010
0000
0000
0100
0000
0000
0001
0000
0000
0010
0000
0000
0100
0000
0000
1000
0000
0000
0010
0000
0000
0100
0000
,  // measure 739
0000
0000
0000
0000
0000
0000
0000
0000
0000
0000
0000
0000
0000
0000
0000
0000
0000
0000
0000
0000
0000
0010
0000
0100
,  // measure 740
0000
0000
1000
0000
0000
0100
0000
0000
0010
0000
0000
0100
0000
0000
1000
0000
0000
0001
0000
0000
0100
0000
0000
0010
0000
0000
0100
0000
0000
0001
0000
0000
0010
0000
0000
0100
0000
0000
1000
0000
0000
0010
0000
0000
0100
0000
0000
0000
,  // measure 741
0000
0000
0000
0000
0000
0000
0000
0000
0000
0000
0010
0100
,  // measure 742
1000
0100
0010
0100
1000
0001
0100
0010
0100
0001
0010
0100
1000
0010
0100
0000
,  // measure 743
0000
0000
0000
0000
,  // measure 744
0000
0000
0100
0000
0000
0000
1000
0000
0000
0100
0000
0000
0010
0000
0000
0100
0000
0000
1000
0000
0000
0001
0000
0000
0100
0000
0000
0010
0000
0000
0100
0000
0000
0001
0000
0000
0010
0000
0000
0100
0000
0000
1000
0000
0000
0010
0000
0000
,  // measure 745
0100
0000
0000
0000
,  // measure 746
0100
0000
0000
0000
1000
0000
0000
0100
0000
0000
0010
0000
0000
0100
0000
0000
1000
0000
0000
0001
0000
0000
0100
0000
0000
0010
0000
0000
0100
0000
0000
0001
0000
0000
0010
0000
0000
0100
0000
0000
1000
0000
0000
0010
0000
0000
0100
0000
,  // measure 747
0000
0000
0000
0000
0000
0000
0000
0000
0000
0000
0000
0000
0000
0000
0000
0000
0000
0000
0000
0000
0000
0000
0000
0100
,  // measure 748
0000
0000
1000
0000
0000
0100
0000
0000
0010
0000
0000
0100
0000
0000
1000
0000
0000
0001
0000
0000
0100
0000
0000
0010
0000
0000
0100
0000
0000
0001
0000
0000
0010
0000
0000
0100
0000
0000
1000
0000
0000
0010
0000
0000
0100
0000
0000
0000
,  // measure 749
0000
0000
0000
0000
0000
0000
0000
0000
0000
0000
0000
0100
,  // measure 750
1000
0100
0010
0100
1000
0001
0100
0010
0100
0001
0010
0100
1000
0010
0100
0000
,  // measure 751
0000
0000
0000
0000
,  // measure 752
0000
0000
1000
0100
0010
0100
1000
0001
0100
0010
0100
0001
0010
0100
1000
0010
,  // measure 753
0100
0000
0000
0000
,  // measure 754
0000
0000
0000
0000
1000
0000
0000
0100
0000
0000
0010
0000
0000
0100
0000
0000
1000
0000
0000
0001
0000
0000
0100
0000
0000
0010
0000
0000
0100
0000
0000
0001
0000
0000
0010
0000
0000
0100
0000
0000
1000
0000
0000
0010
0000
0000
0100
0000
,  // measure 755
0000
0000
0000
0000
,  // measure 756
0000
0000
1000
0000
0000
0100
0000
0000
0010
0000
0000
0100
0000
0000
1000
0000
0000
0001
0000
0000
0100
0000
0000
0010
0000
0000
0100
0000
0000
0001
0000
0000
0010
0000
0000
0100
0000
0000
1000
0000
0000
0010
0000
0000
0100
0000
0000
0000
,  // measure 757
0000
0000
0000
0000
,  // measure 758
1000
0100
0010
0100
1000
0001
0100
0010
0100
0001
0010
0100
1000
0010
0100
0000
,  // measure 759
0001
0010
0100
1000
0010
0100
0001
0100
0010
1000
0100
0010
0100
1000
0001
0000
,  // measure 760
0100
1000
0100
0010
1000
0010
0100
0001
0010
0100
1000
0100
0010
0001
0100
0000
,  // measure 761
0010
1000
0010
0100
0001
0010
0100
1000
0001
0000
0000
0110
0000
0000
1001
0000
,  // measure 762
1000
0000
0000
0100
0000
0000
0010
0000
0000
0001
0000
0000
0100
0000
0000
0010
0000
0000
0100
0000
0000
0001
0000
0000
0010
0000
0000
0000
0100
0000
0000
0000
0010
0000
0000
0000
0100
0000
0000
0000
0010
0000
0000
0000
0100
0000
0000
0000
,  // measure 763
0000
0000
0001
0000
,  // measure 764
0000
0000
0000
0000
,  // measure 765
0000
0000
0000
0000
,  // measure 766
0000
0000
0000
0000
,  // measure 767
0000
0000
0000
0000
0000
0000
0000
0000
0000
0000
0000
0110
0000
0000
1001
0000
,  // measure 768
1000
0000
0000
0100
0000
0000
0010
0000
0000
0001
0000
0000
0100
0000
0000
0010
0000
0000
0100
0000
0000
0001
0000
0000
0010
0000
0000
0000
0100
0000
0000
0000
0010
0000
0000
0000
0100
0000
0000
0000
0010
0000
0000
0000
0100
0000
0000
0000
,  // measure 769
0000
0000
0000
0000
0000
0000
0000
0000
0000
0000
0000
0110
0000
0000
0000
0000
,  // measure 770
0000
0000
0000
0000
,  // measure 771
0000
0000
0000
0000
,  // measure 772
0000
0000
0000
0000
,  // measure 773
0000
0000
0000
0000
0000
0000
0000
1001
,  // measure 774
1000
0000
0000
0100
0000
0000
0010
0000
0000
0001
0000
0000
0100
0000
0000
0010
0000
0000
0100
0000
0000
0001
0000
0000
0010
0000
0000
0000
0100
0000
0000
0000
0010
0000
0000
0000
0100
0000
0000
0000
0010
0000
0000
0000
0100
0000
0000
0000
,  // measure 775
0000
0000
0000
0000
0000
0000
0000
1001
,  // measure 776
0000
0000
0000
0000
,  // measure 777
0000
0000
0000
0000
,  // measure 778
1000
0000
0000
0100
0000
0000
0010
0000
0000
0001
0000
0000
0100
0000
0000
0010
0000
0000
0100
0000
0000
0001
0000
0000
0010
0000
0000
0000
0100
0000
0000
0000
0010
0000
0000
0000
0100
0000
0000
0000
0010
0000
0000
0000
0100
0000
0000
0000
,  // measure 779
0000
0000
0000
0000
,  // measure 780
1000
0000
0000
0100
0000
0000
0010
0000
0000
0001
0000
0000
0100
0000
0000
0010
0000
0000
0100
0000
0000
0001
0000
0000
0010
0000
0000
0000
0100
0000
0000
0000
0010
0000
0000
0000
0100
0000
0000
0000
0010
0000
0000
0000
0100
0000
0000
0000
,  // measure 781
1000
0010
0100
0010
1000
0001
0010
0100
0010
0001
0010
0100
1000
0001
0100
0000
,  // measure 782
0000
0000
0000
0000
0000
0000
0000
0000
0000
0100
0010
0100
,  // measure 783
0010
0000
0000
0000
0100
0000
0000
0000
1000
0000
0000
0010
0000
0000
0100
0000
0000
0010
0000
0000
1000
0000
0000
0001
0000
0000
0010
0000
0000
0100
0000
0000
0010
0000
0000
0001
0000
0000
0010
0000
0000
0100
0000
0000
1000
0000
0000
0001
,  // measure 784
0000
0100
0000
0000
0000
0000
0000
0000
0000
0000
0000
0000
0000
0000
0000
0000
0000
0100
0000
0010
0000
0100
0000
0010
,  // measure 785
0000
0000
0100
0000
0000
0000
1000
0000
0000
0010
0000
0000
0100
0000
0000
0010
0000
0000
1000
0000
0000
0001
0000
0000
0010
0000
0000
0100
0000
0000
0010
0000
0000
0001
0000
0000
0010
0000
0000
0100
0000
0000
1000
0000
0000
0001
0000
0000
,  // measure 786
0100
0000
0000
0000
0000
0000
0000
0000
0000
0000
0000
0000
0000
0000
0000
0100
0000
0010
0000
0100
0000
0010
0000
0100
,  // measure 787
0000
0000
1000
0000
0000
0010
0000
0000
0100
0000
0000
0010
0000
0000
1000
0000
0000
0001
0000
0000
0010
0000
0000
0100
0000
0000
0010
0000
0000
0001
0000
0000
0010
0000
0000
0100
0000
0000
1000
0000
0000
0001
0000
0000
0100
0000
0000
0000
,  // measure 788
0000
0000
0000
0000
0000
0000
0000
0100
0010
0100
0010
0100
,  // measure 789
1000
0010
0100
0010
1000
0001
0010
0100
0010
0001
0010
0100
1000
0001
0100
0000
,  // measure 790
0000
0000
0000
0000
0000
0000
0000
0000
0000
0000
0000
0000
0000
0000
0000
0000
0000
0000
0000
0010
0000
0100
0000
0010
,  // measure 791
0000
0000
0100
0000
0000
0000
1000
0000
0000
0010
0000
0000
0100
0000
0000
0010
0000
0000
1000
0000
0000
0001
0000
0000
0010
0000
0000
0100
0000
0000
0010
0000
0000
0001
0000
0000
0010
0000
0000
0100
0000
0000
1000
0000
0000
0001
0000
0000
,  // measure 792
0100
0000
0000
0000
0000
0000
0000
0000
0000
0010
0100
0010
,  // measure 793
0100
0000
0000
0000
1000
0000
0000
0010
0000
0000
0100
0000
0000
0010
0000
0000
1000
0000
0000
0001
0000
0000
0010
0000
0000
0100
0000
0000
0010
0000
0000
0001
0000
0000
0010
0000
0000
0100
0000
0000
1000
0000
0000
0001
0000
0000
0100
0000
,  // measure 794
0000
0000
0000
0000
0000
0000
0000
0000
0000
0000
0000
0000
0000
0000
0000
0000
0000
0010
0000
0100
0000
0010
0000
0100
,  // measure 795
0000
0000
1000
0000
0000
0010
0000
0000
0100
0000
0000
0010
0000
0000
1000
0000
0000
0001
0000
0000
0010
0000
0000
0100
0000
0000
0010
0000
0000
0001
0000
0000
0010
0000
0000
0100
0000
0000
1000
0000
0000
0001
0000
0000
0100
0000
0000
0000
,  // measure 796
0000
0000
0000
0000
0000
0000
0000
0000
0010
0100
0010
0100
,  // measure 797
1000
0010
0100
0010
1000
0001
0010
0100
0010
0001
0010
0100
1000
0001
0100
0000
,  // measure 798
0000
0000
0000
0000
0000
0000
0000
0000
0000
0000
0000
0000
0000
0000
0000
0000
0000
0000
0000
0000
0000
0100
0000
0010
,  // measure 799
0000
0000
0100
0000
0000
0000
1000
0000
0000
0010
0000
0000
0100
0000
0000
0010
0000
0000
1000
0000
0000
0001
0000
0000
0010
0000
0000
0100
0000
0000
0010
0000
0000
0001
0000
0000
0010
0000
0000
0100
0000
0000
1000
0000
0000
0001
0000
0000
,  // measure 800
0100
0000
0000
0000
0000
0000
0000
0000
0000
0000
0100
0010
,  // measure 801
0100
0000
0000
0000
1000
0000
0000
0010
0000
0000
0100
0000
0000
0010
0000
0000
1000
0000
0000
0001
0000
0000
0010
0000
0000
0100
0000
0000
0010
0000
0000
0001
0000
0000
0010
0000
0000
0100
0000
0000
1000
0000
0000
0001
0000
0000
0100
0000
,  // measure 802
0000
0000
0000
0000
0000
0000
0000
0000
0000
0000
0000
0000
0000
0000
0000
0000
0000
0000
0000
0100
0000
0010
0000
0100
,  // measure 803
0000
0000
1000
0000
0000
0010
0000
0000
0100
0000
0000
0010
0000
0000
1000
0000
0000
0001
0000
0000
0010
0000
0000
0100
0000
0000
0010
0000
0000
0001
0000
0000
0010
0000
0000
0100
0000
0000
1000
0000
0000
0001
0000
0000
0100
0000
0000
0000
,  // measure 804
0000
0000
0000
0000
0000
0000
0000
0000
0000
0100
0010
0100
,  // measure 805
1000
0010
0100
0010
1000
0001
0010
0100
0010
0001
0010
0100
1000
0001
0100
0000
,  // measure 806
0000
0000
0000
0000
0000
0000
0000
0000
0000
0000
0000
0000
0000
0000
0000
0000
0000
0000
0000
0000
0000
0000
0000
0010
,  // measure 807
0000
0000
0100
0000
0000
0000
1000
0000
0000
0010
0000
0000
0100
0000
0000
0010
0000
0000
1000
0000
0000
0001
0000
0000
0010
0000
0000
0100
0000
0000
0010
0000
0000
0001
0000
0000
0010
0000
0000
0100
0000
0000
1000
0000
0000
0001
0000
0000
,  // measure 808
0100
0000
0000
0000
0000
0000
0000
0000
0000
0000
0000
0010
,  // measure 809
0100
0000
0000
0000
1000
0000
0000
0010
0000
0000
0100
0000
0000
0010
0000
0000
1000
0000
0000
0001
0000
0000
0010
0000
0000
0100
0000
0000
0010
0000
0000
0001
0000
0000
0010
0000
0000
0100
0000
0000
1000
0000
0000
0001
0000
0000
0100
0000
,  // measure 810
0000
0000
0000
0000
0000
0000
0000
0000
0000
0000
0000
0000
0000
0000
0000
0000
0000
0000
0000
0000
0000
0010
0000
0100
,  // measure 811
0000
0000
1000
0000
0000
0010
0000
0000
0100
0000
0000
0010
0000
0000
1000
0000
0000
0001
0000
0000
0010
0000
0000
0100
0000
0000
0010
0000
0000
0001
0000
0000
0010
0000
0000
0100
0000
0000
1000
0000
0000
0001
0000
0000
0100
0000
0000
0000
,  // measure 812
0000
0000
0000
0000
0000
0000
0000
0000
0000
0000
0010
0100
,  // measure 813
1000
0010
0100
0010
1000
0001
0010
0100
0010
0001
0010
0100
1000
0001
0100
0000
,  // measure 814
0000
0000
0000
0000
,  // measure 815
0000
0000
0100
0000
0000
0000
1000
0000
0000
0010
0000
0000
0100
0000
0000
0010
0000
0000
1000
0000
0000
0001
0000
0000
0010
0000
0000
0100
0000
0000
0010
0000
0000
0001
0000
0000
0010
0000
0000
0100
0000
0000
1000
0000
0000
0001
0000
0000
,  // measure 816
0100
0000
0000
0000
,  // measure 817
0100
0000
0000
0000
1000
0000
0000
0010
0000
0000
0100
0000
0000
0010
0000
0000
1000
0000
0000
0001
0000
0000
0010
0000
0000
0100
0000
0000
0010
0000
0000
0001
0000
0000
0010
0000
0000
0100
0000
0000
1000
0000
0000
0001
0000
0000
0100
0000
,  // measure 818
0000
0000
0000
0000
0000
0000
0000
0000
0000
0000
0000
0000
0000
0000
0000
0000
0000
0000
0000
0000
0000
0000
0000
0100
,  // measure 819
0000
0000
1000
0000
0000
0010
0000
0000
0100
0000
0000
0010
0000
0000
1000
0000
0000
0001
0000
0000
0010
0000
0000
0100
0000
0000
0010
0000
0000
0001
0000
0000
0010
0000
0000
0100
0000
0000
1000
0000
0000
0001
0000
0000
0100
0000
0000
0000
,  // measure 820
0000
0000
0000
0000
0000
0000
0000
0000
0000
0000
0000
0100
,  // measure 821
1000
0010
0100
0010
1000
0001
0010
0100
0010
0001
0010
0100
1000
0001
0100
0000
,  // measure 822
0000
0000
0000
0000
,  // measure 823
0000
0000
1000
0010
0100
0010
1000
0001
0010
0100
0010
0001
0010
0100
1000
0001
,  // measure 824
0100
0000
0000
0000
,  // measure 825
0000
0000
0000
0000
1000
0000
0000
0010
0000
0000
0100
0000
0000
0010
0000
0000
1000
0000
0000
0001
0000
0000
0010
0000
0000
0100
0000
0000
0010
0000
0000
0001
0000
0000
0010
0000
0000
0100
0000
0000
1000
0000
0000
0001
0000
0000
0100
0000
,  // measure 826
0000
0000
0000
0000
,  // measure 827
0000
0000
1000
0000
0000
0010
0000
0000
0100
0000
0000
0010
0000
0000
1000
0000
0000
0001
0000
0000
0010
0000
0000
0100
0000
0000
0010
0000
0000
0001
0000
0000
0010
0000
0000
0100
0000
0000
1000
0000
0000
0001
0000
0000
0100
0000
0000
0000
,  // measure 828
0000
0000
0000
0000
,  // measure 829
1000
0010
0100
0010
1000
0001
0010
0100
0010
0001
0010
0100
1000
0001
0100
0000
,  // measure 830
0010
1000
0010
0100
0001
0010
0100
1000
0100
0010
0100
1000
0001
0100
0010
0000
,  // measure 831
0100
0001
0010
0100
1000
0100
0010
0001
0200
0000
0000
0000
0300
0000
0000
0000
,  // measure 832
0010
1000
0010
1000
0100
1000
0100
1000
0000
0000
0000
0000
1001
0000
0000
0000
,  // measure 833
0000
0000
0000
0000
0000
0000
0000
000F
,  // measure 834
0000
1000
0010
1000
0100
1000
0100
1000
0000
0000
0000
0000
1001
0000
0000
0000
,  // measure 835
0000
0000
0000
0000
0000
0000
0000
0000
0000
0000
0000
000F
,  // measure 836
0000
1000
0010
1000
0100
1000
0100
1000
0000
0000
0000
0000
1001
0000
0000
0000
,  // measure 837
0000
0000
0000
0000
0000
0000
0000
0000
0000
0000
0000
0000
0000
0000
0000
0000
0000
0000
0000
0000
0000
0000
0000
000F
,  // measure 838
0000
0000
0010
1000
0100
1000
0100
1000
0000
0000
0000
0000
1001
0000
0000
0000
,  // measure 839
0000
0000
0000
0000
,  // measure 840
000F
0000
0010
1000
0100
1000
0100
1000
0000
0000
0000
0000
1001
0000
0000
0000
,  // measure 841
0000
0000
0000
0000
,  // measure 842
0000
0000
000F
0000
0000
0000
0000
0000
0000
1000
0000
0000
0100
0000
0000
1000
0000
0000
0100
0000
0000
1000
0000
0000
0000
0000
0000
0000
0000
0000
0000
0000
0000
0000
0000
0000
1001
0000
0000
0000
0000
0000
0000
0000
0000
0000
0000
0000
,  // measure 843
0000
0000
0000
0000
,  // measure 844
0000
0000
0000
0000
000F
0000
0000
0000
0000
1000
0000
0000
0100
0000
0000
1000
0000
0000
0100
0000
0000
1000
0000
0000
0000
0000
0000
0000
0000
0000
0000
0000
0000
0000
0000
0000
1001
0000
0000
0000
0000
0000
0000
0000
0000
0000
0000
0000
,  // measure 845
0000
0000
0000
0000
,  // measure 846
0000
0000
000F
0000
0100
1000
0100
1000
0000
0000
0000
0000
1001
0000
0000
0000
,  // measure 847
0000
0000
0000
0000
,  // measure 848
0000
0000
0000
0000
0000
0000
0000
0000
000F
0000
0000
0000
0100
0000
0000
1000
0000
0000
0100
0000
0000
1000
0000
0000
0000
0000
0000
0000
0000
0000
0000
0000
0000
0000
0000
0000
1001
0000
0000
0000
0000
0000
0000
0000
0000
0000
0000
0000
,  // measure 849
0000
0000
0000
0000
,  // measure 850
0000
0000
0000
0000
0000
0000
0000
0000
0000
0000
000F
0000
0000
0000
0000
1000
0000
0000
0100
0000
0000
1000
0000
0000
0000
0000
0000
0000
0000
0000
0000
0000
0000
0000
0000
0000
1001
0000
0000
0000
0000
0000
0000
0000
0000
0000
0000
0000
,  // measure 851
0000
0000
0000
0000
,  // measure 852
0000
0000
0000
0000
000F
1000
0100
1000
0000
0000
0000
0000
1001
0000
0000
0000
,  // measure 853
0000
0000
0000
0000
,  // measure 854
0000
0000
0000
0000
0000
0000
0000
0000
0000
0000
0000
0000
0000
0000
000F
0000
0000
0000
0100
0000
0000
1000
0000
0000
0000
0000
0000
0000
0000
0000
0000
0000
0000
0000
0000
0000
1001
0000
0000
0000
0000
0000
0000
0000
0000
0000
0000
0000
,  // measure 855
0000
0000
0000
0000
,  // measure 856
0000
0000
0000
0000
0000
0000
0000
0000
0000
0000
0000
0000
0000
0000
0000
0000
000F
0000
0100
0000
0000
1000
0000
0000
0000
0000
0000
0000
0000
0000
0000
0000
0000
0000
0000
0000
1001
0000
0000
0000
0000
0000
0000
0000
0000
0000
0000
0000
,  // measure 857
0000
0000
0000
0000
,  // measure 858
0000
0000
0000
0000
0000
0000
000F
1000
0000
0000
0000
0000
1001
0000
0000
0000
,  // measure 859
0000
0000
0000
0000
,  // measure 860
0000
0000
0000
0000
0000
0000
0000
0000
0000
0000
0000
0000
0000
0000
0000
0000
0000
0000
0000
0000
000F
1000
0000
0000
0000
0000
0000
0000
0000
0000
0000
0000
0000
0000
0000
0000
1001
0000
0000
0000
0000
0000
0000
0000
0000
0000
0000
0000
,  // measure 861
0000
0000
0000
0000
,  // measure 862
0000
0000
0000
0000
0000
0000
0000
0000
0000
0000
0000
000F
0000
0000
0000
0000
0000
0000
1001
0000
0000
0000
0000
0000
,  // measure 863
0000
0000
0000
0000
,  // measure 864
0000
0000
0001
1001
,  // measure 865
0100
0001
0100
0001
0010
0001
0010
0001
0000
0000
0000
0000
1001
0000
0000
0000
,  // measure 866
0000
0000
0000
0000
0000
0000
0000
F000
,  // measure 867
0000
0001
0100
0001
0010
0001
0010
0001
0000
0000
0000
0000
1001
0000
0000
0000
,  // measure 868
0000
0000
0000
0000
0000
0000
0000
0000
0000
0000
0000
F000
,  // measure 869
0000
0001
0100
0001
0010
0001
0010
0001
0000
0000
0000
0000
1001
0000
0000
0000
,  // measure 870
0000
0000
0000
0000
0000
0000
0000
0000
0000
0000
0000
0000
0000
0000
0000
0000
0000
0000
0000
0000
0000
0000
0000
F000
,  // measure 871
0000
0000
0100
0001
0010
0001
0010
0001
0000
0000
0000
0000
1001
0000
0000
0000
,  // measure 872
0000
0000
0000
0000
,  // measure 873
F000
0000
0100
0001
0010
0001
0010
0001
0000
0000
0000
0000
1001
0000
0000
0000
,  // measure 874
0000
0000
0000
0000
,  // measure 875
0000
0000
F000
0000
0000
0000
0000
0000
0000
0001
0000
0000
0010
0000
0000
0001
0000
0000
0010
0000
0000
0001
0000
0000
0000
0000
0000
0000
0000
0000
0000
0000
0000
0000
0000
0000
1001
0000
0000
0000
0000
0000
0000
0000
0000
0000
0000
0000
,  // measure 876
0000
0000
0000
0000
,  // measure 877
0000
0000
0000
0000
F000
0000
0000
0000
0000
0001
0000
0000
0010
0000
0000
0001
0000
0000
0010
0000
0000
0001
0000
0000
0000
0000
0000
0000
0000
0000
0000
0000
0000
0000
0000
0000
1001
0000
0000
0000
0000
0000
0000
0000
0000
0000
0000
0000
,  // measure 878
0000
0000
0000
0000
,  // measure 879
0000
0000
F000
0000
0010
0001
0010
0001
0000
0000
0000
0000
1001
0000
0000
0000
,  // measure 880
0000
0000
0000
0000
,  // measure 881
0000
0000
0000
0000
0000
0000
0000
0000
F000
0000
0000
0000
0010
0000
0000
0001
0000
0000
0010
0000
0000
0001
0000
0000
0000
0000
0000
0000
0000
0000
0000
0000
0000
0000
0000
0000
1001
0000
0000
0000
0000
0000
0000
0000
0000
0000
0000
0000
,  // measure 882
0000
0000
0000
0000
,  // measure 883
0000
0000
0000
0000
0000
0000
0000
0000
0000
0000
F000
0000
0000
0000
0000
0001
0000
0000
0010
0000
0000
0001
0000
0000
0000
0000
0000
0000
0000
0000
0000
0000
0000
0000
0000
0000
1001
0000
0000
0000
0000
0000
0000
0000
0000
0000
0000
0000
,  // measure 884
0000
0000
0000
0000
,  // measure 885
0000
0000
0000
0000
F000
0001
0010
0001
0000
0000
0000
0000
1001
0000
0000
0000
,  // measure 886
0000
0000
0000
0000
,  // measure 887
0000
0000
0000
0000
0000
0000
0000
0000
0000
0000
0000
0000
0000
0000
F000
0000
0000
0000
0010
0000
0000
0001
0000
0000
0000
0000
0000
0000
0000
0000
0000
0000
0000
0000
0000
0000
1001
0000
0000
0000
0000
0000
0000
0000
0000
0000
0000
0000
,  // measure 888
0000
0000
0000
0000
,  // measure 889
0000
0000
0000
0000
0000
0000
0000
0000
0000
0000
0000
0000
0000
0000
0000
0000
F000
0000
0010
0000
0000
0001
0000
0000
0000
0000
0000
0000
0000
0000
0000
0000
0000
0000
0000
0000
1001
0000
0000
0000
0000
0000
0000
0000
0000
0000
0000
0000
,  // measure 890
0000
0000
0000
0000
,  // measure 891
0000
0000
0000
0000
0000
0000
F000
0001
0000
0000
0000
0000
1001
0000
0000
0000
,  // measure 892
0000
0000
0000
0000
,  // measure 893
0000
0000
0000
0000
0000
0000
0000
0000
0000
0000
0000
0000
0000
0000
0000
0000
0000
0000
0000
0000
F000
0001
0000
0000
0000
0000
0000
0000
0000
0000
0000
0000
0000
0000
0000
0000
1001
0000
0000
0000
0000
0000
0000
0000
0000
0000
0000
0000
,  // measure 894
0000
0000
0000
0000
,  // measure 895
0000
0000
0000
0000
0000
0000
0000
0000
0000
0000
0000
F000
0000
0000
0000
0000
0000
0000
1001
0000
0000
0000
0000
0000
,  // measure 896
0000
0000
0000
0000
,  // measure 897
0000
0000
1000
1001
,  // measure 898
1000
0100
0010
0100
1000
0100
0010
0000
0001
0100
0010
0100
0001
0100
0010
0000
,  // measure 899
0100
0001
0010
0100
1000
0001
0100
0010
0100
0000
0000
0000
1001
0000
0110
0000
,  // measure 900
0010
0000
1000
0000
0100
0010
0100
1000
0001
0000
0100
0000
0010
0100
0001
0010
,  // measure 901
0100
0000
1000
0000
0001
1000
0100
0010
0001
0000
0010
0000
0100
1000
0010
0100
,  // measure 902
0001
0010
0100
1000
0010
0100
0001
0010
0001
0100
1000
0100
0001
0010
1000
0010
,  // measure 903
0001
0000
0000
1001
0000
0000
0000
0000
,  // measure 904
0000
0000
0000
0000
,  // measure 905
0000
0000
0000
0000
1001
0000
0000
0000
0000
0000
0000
0000
,  // measure 906
0000
0000
0000
0000
,  // measure 907
0000
0000
0000
0000
0000
0000
0000
1001
0000
0000
0000
0000
0000
0000
0000
0000
0000
0000
0000
0000
0000
0000
0000
0000
,  // measure 908
0000
0000
0000
0000
,  // measure 909
0000
1001
0000
0000
,  // measure 910
0000
0000
0000
0000
,  // measure 911
0000
0000
0000
0000
0000
1001
0000
0000
0000
0000
0000
0000
0000
0000
0000
0000
0000
0000
0000
0000
0000
0000
0000
0000
,  // measure 912
0000
0000
0000
0000
,  // measure 913
0000
0000
1001
0000
0000
0000
0000
0000
0000
0000
0000
0000
,  // measure 914
0000
0000
0000
0000
,  // measure 915
0000
1001
0000
0000
0000
0000
0000
0000
,  // measure 916
0000
0000
0000
0000
,  // measure 917
0000
1001
0000
0000
0000
0000
0000
0000
0000
0000
0000
0000
,  // measure 918
0000
0000
0000
0000
,  // measure 919
0000
1001
0000
0000
0000
0000
0000
0000
0000
0000
0000
0000
0000
0000
0000
0000
0000
0000
0000
0000
0000
0000
0000
0000
,  // measure 920
0000
0000
0000
0000
,  // measure 921
1001
0000
0000
0000
,  // measure 922
0000
0000
0000
0000
0000
0000
0000
0000
0000
0000
0000
0000
0000
0000
0000
0000
0000
0000
0000
0000
0000
0000
0000
1001
,  // measure 923
0000
0000
0000
0000
,  // measure 924
0000
0000
0000
0000
0000
0000
0000
0000
0000
0000
0000
1001
,  // measure 925
0000
0000
0000
0000
,  // measure 926
0000
0000
0000
0000
0000
0000
0000
1001
,  // measure 927
0000
0000
0000
0000
,  // measure 928
0000
0000
0000
0000
0000
0000
0000
0000
0000
0000
1001
0000
,  // measure 929
0000
0000
0000
0000
,  // measure 930
0000
0000
0000
0000
0000
0000
0000
0000
0000
0000
0000
0000
0000
0000
0000
0000
0000
0000
0000
1001
0000
0000
0000
0000
,  // measure 931
0000
0000
0000
0000
,  // measure 932
0000
0000
0000
1001
,  // measure 933
0000
0000
0000
0000
,  // measure 934
0000
0000
0000
0000
0000
0000
0000
0000
0000
0000
0000
0000
0000
0000
0000
0000
0000
1001
0000
0000
0000
0000
0000
0000
,  // measure 935
0000
0000
0000
0000
,  // measure 936
0000
0000
0000
0000
0000
0000
0000
0000
1001
0000
0000
0000
,  // measure 937
0000
0000
1001
0000
,  // measure 938
0000
0000
0000
0000
0000
1001
0000
0000
,  // measure 939
0000
0000
0000
0000
0000
0000
0000
0000
0000
0000
0000
0000
0000
0000
0000
1001
0000
0000
0000
0000
0000
0000
0000
0000
0000
0000
0000
0000
0000
0000
0000
0000
,  // measure 940
0000
0000
0000
0000
0000
0000
0000
1001
0000
0000
0000
0000
,  // measure 941
0000
0000
0000
0000
0000
0000
0000
1001
0000
0000
0000
0000
0000
0000
0000
0000
,  // measure 942
0000
0000
0000
0000
0000
0000
0000
0000
0000
0000
0000
0000
0000
1001
0000
0000
0000
0000
0000
0000
0000
0000
0000
0000
,  // measure 943
0000
0000
0000
0000
0000
0000
0000
0000
0000
0000
0000
0000
0000
1001
0000
0000
0000
0000
0000
0000
0000
0000
0000
0000
0000
0000
0000
0000
0000
0000
0000
0000
,  // measure 944
0000
0000
1001
0000
,  // measure 945
0000
0000
0000
1001
0000
0000
0000
0000
,  // measure 946
0000
0000
0000
0000
0000
0000
0000
0000
0000
0000
0000
1001
0000
0000
0000
0000
0000
0000
0000
0000
0000
0000
0000
0000
,  // measure 947
0000
0000
0000
0000
0000
0000
0000
0000
0000
0000
0000
1001
0000
0000
0000
0000
0000
0000
0000
0000
0000
0000
0000
0000
0000
0000
0000
0000
0000
0000
0000
0000
,  // measure 948
0000
0000
0000
0000
0000
1001
0000
0000
0000
0000
0000
0000
,  // measure 949
0000
0000
0000
0000
0000
1001
0000
0000
0000
0000
0000
0000
0000
0000
0000
0000
,  // measure 950
0000
0000
0000
1001
0000
0000
0000
0000
,  // measure 951
0000
0000
0000
0000
0000
0000
0000
0000
0000
1001
0000
0000
0000
0000
0000
0000
0000
0000
0000
0000
0000
0000
0000
0000
0000
0000
0000
0000
0000
0000
0000
0000
,  // measure 952
0000
0000
0000
0000
1001
0000
0000
0000
0000
0000
0000
0000
,  // measure 953
0000
1001
0000
0000
,  // measure 954
0000
0000
0000
0000
0000
0000
0000
M00M
0000
0000
0000
0000
0000
0000
0000
0000
0000
0000
0000
0000
0000
0000
0000
0000
,  // measure 955
0000
0000
0000
0000
0000
0000
0000
1001
0000
0000
0000
0000
0000
0000
0000
0000
0000
0000
0000
0000
0000
0000
0000
0000
0000
0000
0000
0000
0000
0000
0000
0000
,  // measure 956
0000
M00M
0000
0000
,  // measure 957
0000
0000
0000
1001
0000
0000
0000
0000
0000
0000
0000
0000
0000
0000
0000
0000
,  // measure 958
0000
0000
0000
0000
0000
M00M
0000
0000
0000
0000
0000
0000
0000
0000
0000
0000
0000
0000
0000
0000
0000
0000
0000
0000
,  // measure 959
0000
0000
0000
0000
0000
1001
0000
0000
0000
0000
0000
0000
0000
0000
0000
0000
0000
0000
0000
0000
0000
0000
0000
0000
0000
0000
0000
0000
0000
0000
0000
0000
,  // measure 960
0000
0000
M00M
0000
0000
0000
0000
0000
0000
0000
0000
0000
,  // measure 961
0000
1001
0000
0000
0000
0000
0000
0000
,  // measure 962
0000
M00M
0000
0000
0000
0000
0000
0000
,  // measure 963
0000
0000
0000
1001
0000
0000
0000
0000
0000
0000
0000
0000
0000
0000
0000
0000
0000
0000
0000
0000
0000
0000
0000
0000
0000
0000
0000
0000
0000
0000
0000
0000
,  // measure 964
0000
M00M
0000
0000
0000
0000
0000
0000
0000
0000
0000
0000
,  // measure 965
0000
1001
0000
0000
0000
0000
0000
0000
0000
0000
0000
0000
0000
0000
0000
0000
,  // measure 966
0000
M00M
0000
0000
0000
0000
0000
0000
0000
0000
0000
0000
0000
0000
0000
0000
0000
0000
0000
0000
0000
0000
0000
0000
,  // measure 967
0000
1001
0000
0000
0000
0000
0000
0000
0000
0000
0000
0000
0000
0000
0000
0000
0000
0000
0000
0000
0000
0000
0000
0000
0000
0000
0000
0000
0000
0000
0000
0000
,  // measure 968
M00M
M00M
0000
0000
0000
0000
0000
0000
0000
0000
0000
0000
0000
0000
0000
0000
0000
0000
0000
0000
0000
0000
0000
0000
0000
0000
0000
0000
0000
0000
0000
0000
0000
0000
0000
0000
0000
0000
0000
0000
0000
0000
0000
0000
0000
0000
0000
0000
,  // measure 969
1001
0000
0000
0000
,  // measure 970
0000
0000
0000
0000
0000
0000
0000
0000
M00M
0000
0000
0000
0000
0000
0000
0000
0000
0000
0000
0000
0000
0000
0000
0000
0000
0000
0000
0000
0000
0000
0000
0000
0000
0000
0000
0000
0000
0000
0000
0000
0000
0000
0000
0000
0000
0000
0000
0000
0000
0000
0000
0000
0000
0000
0000
0000
0000
0000
0000
0000
0000
0000
0000
0000
0000
0000
0000
0000
0000
0000
0000
0000
0000
0000
0000
0000
0000
0000
0000
0000
0000
0000
0000
0000
0000
0000
0000
0000
0000
0000
0000
0000
0000
0000
0000
0000
0000
0000
0000
0000
0000
0000
0000
0000
0000
0000
0000
0000
0000
0000
0000
0000
0000
0000
0000
0000
0000
0000
0000
0000
0000
0000
0000
0000
0000
0000
0000
0000
0000
0000
0000
0000
0000
0000
0000
0000
0000
0000
0000
0000
0000
0000
0000
0000
0000
0000
0000
0000
0000
0000
0000
0000
0000
0000
0000
0000
0000
0000
0000
0000
0000
0000
0000
0000
0000
0000
0000
0000
0000
0000
0000
0000
0000
0000
0000
0000
0000
0000
0000
0000
0000
0000
0000
0000
0000
0000
1001
0000
0000
0000
0000
0000
,  // measure 971
0000
0000
0000
0000
,  // measure 972
0000
0000
0000
0000
M00M
0000
0000
0000
0000
0000
0000
0000
0000
0000
0000
0000
0000
0000
0000
0000
0000
0000
0000
0000
0000
0000
0000
0000
0000
0000
0000
0000
0000
0000
0000
0000
0000
0000
0000
0000
0000
0000
0000
0000
0000
1001
0000
0000
,  // measure 973
0000
0000
0000
0000
,  // measure 974
0000
0000
0000
0000
M00M
0000
0000
0000
0000
0000
0000
0000
0000
0000
0000
0000
0000
0000
0000
0000
0000
0000
0000
0000
0000
0000
0000
0000
0000
1001
0000
0000
,  // measure 975
0000
0000
0000
0000
,  // measure 976
0000
0000
0000
0000
M00M
0000
0000
0000
0000
0000
0000
0000
0000
0000
0000
0000
0000
0000
0000
0000
0000
1001
0000
0000
,  // measure 977
0000
0000
0000
0000
,  // measure 978
0000
0000
0000
0000
0000
0000
0000
0000
0000
0000
0000
0000
0000
0000
0000
0000
0000
0000
0000
0000
0000
0000
0000
0000
0000
0000
0000
0000
0000
0000
0000
0000
0000
0000
0000
0000
0000
0000
0000
0000
M00M
0000
0000
0000
0000
0000
0000
0000
0000
0000
0000
0000
0000
0000
0000
0000
0000
0000
0000
0000
0000
0000
0000
0000
0000
0000
0000
0000
0000
0000
0000
0000
0000
0000
0000
0000
0000
0000
0000
0000
0000
0000
0000
0000
0000
0000
0000
0000
0000
0000
0000
0000
0000
0000
0000
0000
0000
0000
0000
0000
0000
0000
0000
0000
0000
0000
0000
0000
0000
0000
0000
0000
0000
0000
0000
0000
0000
0000
0000
0000
0000
0000
0000
0000
0000
0000
0000
0000
0000
0000
0000
0000
0000
0000
0000
0000
0000
0000
0000
0000
0000
0000
0000
0000
0000
0000
0000
0000
0000
0000
0000
0000
0000
0000
0000
0000
0000
0000
0000
0000
0000
0000
1001
0000
0000
0000
0000
0000
0000
0000
0000
0000
0000
0000
0000
0000
0000
0000
0000
0000
0000
0000
0000
0000
0000
0000
0000
0000
0000
0000
0000
0000
,  // measure 979
0000
0000
0000
0000
,  // measure 980
0000
0000
0000
0000
M00M
0000
0000
0000
0000
0000
0000
0000
0000
1001
0000
0000
,  // measure 981
0000
0000
0000
0000
,  // measure 982
0000
0000
0000
0000
0000
0000
0000
0000
0000
0000
0000
0000
0000
0000
0000
0000
0000
0000
0000
0000
0000
0000
0000
0000
0000
0000
0000
0000
0000
0000
0000
0000
0000
0000
0000
0000
0000
0000
0000
0000
0000
0000
0000
0000
0000
0000
0000
0000
0000
0000
0000
0000
0000
0000
0000
0000
M00M
0000
0000
0000
0000
0000
0000
0000
0000
0000
0000
0000
0000
0000
0000
0000
0000
0000
0000
0000
0000
0000
0000
0000
0000
0000
0000
0000
0000
0000
0000
0000
0000
0000
0000
0000
0000
0000
0000
0000
0000
0000
0000
0000
0000
0000
0000
0000
0000
0000
0000
0000
0000
0000
0000
0000
0000
0000
0000
0000
0000
0000
0000
0000
0000
0000
0000
0000
0000
0000
0000
0000
0000
0000
0000
0000
0000
0000
0000
0000
0000
0000
0000
0000
0000
0000
0000
0000
0000
0000
0000
0000
0000
0000
1001
0000
0000
0000
0000
0000
0000
0000
0000
0000
0000
0000
0000
0000
0000
0000
0000
0000
0000
0000
0000
0000
0000
0000
0000
0000
0000
0000
0000
0000
0000
0000
0000
0000
0000
0000
0000
0000
0000
0000
0000
0000
,  // measure 983
0000
0000
0000
0000
,  // measure 984
0000
0000
0000
0000
M00M
0000
0000
0000
0000
1001
0000
0000
,  // measure 985
0000
0000
0000
0000
,  // measure 986
0000
0000
0000
0000
0000
0000
0000
0000
0000
0000
0000
0000
M00M
0000
0000
0000
0000
0000
0000
0000
0000
0000
0000
1001
0000
0000
0000
0000
0000
0000
0000
0000
,  // measure 987
0000
0000
0000
0000
,  // measure 988
0000
0000
0000
0000
0000
0000
0000
0000
0000
0000
0000
0000
0000
0000
0000
0000
0000
0000
0000
0000
M00M
0000
0000
0000
0000
0000
0000
0000
0000
0000
0000
0000
0000
1001
0000
0000
0000
0000
0000
0000
0000
0000
0000
0000
0000
0000
0000
0000
,  // measure 989
0000
0000
0000
0000
,  // measure 990
0000
0000
0000
0000
0000
0000
0000
0000
0000
0000
0000
0000
0000
0000
0000
0000
0000
0000
0000
0000
0000
0000
0000
0000
0000
0000
0000
0000
0000
0000
0000
0000
0000
0000
0000
0000
0000
0000
0000
0000
0000
0000
0000
0000
0000
0000
0000
0000
0000
0000
0000
0000
0000
0000
0000
0000
0000
0000
0000
0000
0000
0000
0000
0000
0000
0000
0000
0000
0000
0000
0000
0000
0000
0000
0000
0000
0000
0000
0000
0000
0000
0000
0000
0000
0000
0000
0000
0000
M00M
0000
0000
0000
0000
0000
0000
0000
0000
0000
0000
0000
0000
0000
0000
0000
0000
0000
0000
0000
0000
0000
0000
0000
0000
0000
0000
0000
0000
0000
0000
0000
0000
0000
0000
0000
0000
0000
1001
0000
0000
0000
0000
0000
0000
0000
0000
0000
0000
0000
0000
0000
0000
0000
0000
0000
0000
0000
0000
0000
0000
0000
0000
0000
0000
0000
0000
0000
0000
0000
0000
0000
0000
0000
0000
0000
0000
0000
0000
0000
0000
0000
0000
0000
0000
0000
0000
0000
0000
0000
0000
0000
0000
0000
0000
0000
0000
0000
0000
0000
0000
0000
0000
0000
,  // measure 991
0000
0000
0000
0000
,  // measure 992
0000
0000
0000
0000
M00M
1001
0000
0000
,  // measure 993
0000
0000
0000
0000
,  // measure 994
0000
0000
0000
0000
0000
0000
0000
0000
0000
0000
0000
0000
0000
0000
0000
0000
0000
0000
0000
0000
0000
0000
0000
0000
0000
0000
0000
0000
0000
0000
0000
0000
0000
0000
0000
0000
0000
0000
0000
0000
0000
0000
0000
0000
0000
0000
0000
0000
0000
0000
0000
0000
0000
0000
0000
0000
0000
0000
0000
0000
0000
0000
0000
0000
0000
0000
0000
0000
0000
0000
0000
0000
0000
0000
0000
0000
0000
0000
0000
0000
0000
0000
0000
0000
0000
0000
0000
0000
0000
0000
0000
0000
0000
0000
0000
0000
0000
0000
0000
0000
0000
0000
0000
0000
M00M
0000
0000
0000
0000
0000
0000
0000
0000
0000
1001
0000
0000
0000
0000
0000
0000
0000
0000
0000
0000
0000
0000
0000
0000
0000
0000
0000
0000
0000
0000
0000
0000
0000
0000
0000
0000
0000
0000
0000
0000
0000
0000
0000
0000
0000
0000
0000
0000
0000
0000
0000
0000
0000
0000
0000
0000
0000
0000
0000
0000
0000
0000
0000
0000
0000
0000
0000
0000
0000
0000
0000
0000
0000
0000
0000
0000
0000
0000
0000
0000
0000
0000
0000
0000
0000
0000
0000
,  // measure 995
0000
0000
0000
0000
,  // measure 996
0000
0000
0000
0000
0000
0000
0000
0000
0000
0000
0000
0000
0000
0000
0000
0000
0000
0000
0000
0000
0000
0000
0000
0000
0000
0000
0000
1001
M00M
0000
0000
0000
0000
0000
0000
0000
0000
0000
0000
0000
0000
0000
0000
0000
0000
0000
0000
0000
,  // measure 997
0000
0000
0000
0000
,  // measure 998
0000
0000
0000
0000
0000
0000
0000
0000
0000
0000
0000
0000
0000
0000
0000
0000
0000
1001
0000
0000
0000
0000
0000
0000
0000
0000
0000
0000
0000
0000
0000
0000
,  // measure 999
0000
0000
0000
0000
,  // measure 1000
0000
0000
2002
0000
,  // measure 1001
0000
0000
0000
0000
,  // measure 1002
0000
0000
3003
0000
;

//---------------dance-single - Rygon----------------
#NOTEDATA:;
#CHARTNAME:;
#STEPSTYPE:dance-single;
#DESCRIPTION:Rygon;
#CHARTSTYLE:;
#DIFFICULTY:Medium;
#METER:8;
#RADARVALUES:0.482,0.577,0.090,0.254,0.254,370.000,11.000,31.000,0.000,0.000,0.000,0.000,0.000,0.482,0.577,0.090,0.254,0.254,370.000,11.000,31.000,0.000,0.000,0.000,0.000,0.000;
#CREDIT:Rygon;
#OFFSET:-0.405;
#BPMS:0.000=150.000
;
#STOPS:;
#DELAYS:;
#WARPS:;
#TIMESIGNATURES:0.000=4=4
;
#TICKCOUNTS:0.000=4
;
#COMBOS:0.000=1
;
#SPEEDS:0.000=1.000=0.000=0
;
#SCROLLS:0.000=1.000
;
#FAKES:;
#LABELS:0.000=Song Start
;
#NOTES:
0000
0000
0000
0000
,
0000
0000
0000
0000
,
0000
0000
0000
0000
,
0000
0000
0000
0000
,
2000
0000
0000
0000
,
3200
0000
0000
0000
,
0320
0000
0000
0000
,
0032
0000
0000
0000
,
0103
0000
0010
0000
0100
0000
0000
0100
0001
0000
0000
0001
1000
0000
0000
1000
,
0100
0000
0010
0000
0100
0000
0000
0100
1000
0000
0000
1000
0001
0000
0000
0001
,
1000
0000
0100
0000
0010
0000
0000
0001
1000
0000
0000
1000
0001
0000
0000
1000
,
0001
0000
0100
0000
0010
0000
0000
1000
0001
0000
0000
0001
1000
0000
0000
0001
,
1000
0100
0001
0000
0001
0100
1000
0000
,
0010
0100
0001
0000
0010
0100
1000
0000
,
0001
0100
0010
1000
0100
0001
0100
1000
,
0020
0000
0000
0000
,
0130
0000
0001
1000
,
0100
0000
0000
0010
0100
0000
0000
1000
,
0001
0000
0010
0100
,
1000
0000
0000
0010
0100
0000
0001
0000
,
1000
0000
0000
1000
0020
0000
0000
0000
,
0130
0010
0100
0010
0100
0010
0100
0000
0100
0000
0100
0000
,
0001
2001
0000
3001
1000
1002
0000
1003
,
0001
0011
1200
0310
,
0001
0010
0000
0010
0100
0000
0000
0000
2000
0000
0000
0000
3010
0000
0000
0000
,
0100
0000
0000
0001
0000
0000
0100
0000
0000
1000
0000
0000
0100
0000
0000
0000
0010
0000
0000
0000
0010
0000
0000
0000
,
0102
0000
1003
0100
0010
0010
0200
0000
,
0310
0001
0100
1000
0001
0010
1000
0001
,
1000
0000
0000
0010
0000
0010
0000
0000
0200
0000
0000
0000
0301
0000
0000
0000
,
0001
0000
0000
0010
0000
0010
0000
0000
0200
0000
0000
0000
1300
0000
0000
0000
,
1000
0010
0001
0010
1000
0010
0001
0010
,
0100
0100
0100
0100
0120
0000
2030
0000
,
3001
0000
0000
0000
0010
0100
0000
0100
2000
0000
0000
0000
3001
0000
0000
0000
,
1000
0000
0000
0000
0010
0100
0000
0100
0002
0000
0000
0000
1003
0000
0000
0000
,
0220
0000
0000
0000
,
0330
0000
0000
0000
,
1001
0000
1000
0000
,
0001
0000
0100
0000
,
0010
0000
0100
0000
,
0001
0000
0010
0000
,
0100
0000
0100
0010
0000
0010
0001
0000
0001
1000
0000
1000
,
0010
0000
0010
0100
0000
0100
0001
0000
0001
1000
0000
1000
,
0100
0000
0100
0010
0000
0010
0001
0000
0001
1000
0000
1000
,
0010
0000
0010
0001
0000
0001
0010
0000
0010
1000
0000
1000
,
0200
0000
0000
0000
0310
0000
0100
1000
,
0001
0100
0010
0000
0010
0100
0001
0000
,
1000
0100
0010
0001
0100
0010
0001
0000
,
0001
0010
1000
0100
0010
1000
0010
0000
,
0001
0010
0001
0010
0100
1000
0100
1000
,
0001
0100
0001
0100
0010
1000
0010
1000
,
0001
1000
0001
0000
0100
0010
0100
0000
0001
1000
0001
0000
0010
0100
0010
0000
,
0002
0000
0000
0000
0000
0000
0103
0010
0100
0010
0100
0010
,
0100
0010
0100
0001
0100
0010
1000
0100
,
0010
1000
0010
0001
0100
0010
1000
0100
,
0001
0100
1000
0010
0001
0010
1000
0100
,
0010
0000
0001
0000
0100
0000
0010
0000
1000
0000
0000
1001
0000
0000
0001
0000
,
0010
0100
1000
0010
0100
1000
0100
0001
,
0010
0100
0001
0100
0010
0001
0100
1000
,
0100
0001
1000
0100
0001
1000
0010
0001
,
1000
0010
0001
0010
0200
0000
0300
0000
,
0010
0000
1000
0010
0000
0010
1000
0000
0002
0000
0000
0000
1003
0000
0000
0000
,
0100
0000
0010
0001
0000
0001
0010
0000
0002
0000
0000
0000
0103
0000
0000
0000
,
0010
0000
1000
0002
1000
0000
0000
0000
0013
0000
0001
2000
0001
0000
0000
0000
,
3010
0000
1000
0100
0000
0000
0010
0000
0012
0000
0000
0000
0103
0000
0000
0000
,
0010
0100
0001
0100
0010
0100
1000
0100
,
0010
1000
0100
0010
0001
0010
0100
0010
,
0001
0010
0100
1000
0001
0010
0100
1000
,
0020
0000
0000
0000
,
0030
0000
2002
0000
,
0000
0000
0000
0000
,
0000
0000
3003
0000
;

//---------------dance-single - Rygon----------------
#NOTEDATA:;
#CHARTNAME:;
#STEPSTYPE:dance-single;
#DESCRIPTION:Rygon;
#CHARTSTYLE:;
#DIFFICULTY:Easy;
#METER:5;
#RADARVALUES:0.271,0.346,0.147,0.205,0.008,189.000,18.000,25.000,0.000,0.000,0.000,0.000,0.000,0.271,0.346,0.147,0.205,0.008,189.000,18.000,25.000,0.000,0.000,0.000,0.000,0.000;
#CREDIT:Rygon;
#OFFSET:-0.405;
#BPMS:0.000=150.000
;
#STOPS:;
#DELAYS:;
#WARPS:;
#TIMESIGNATURES:0.000=4=4
;
#TICKCOUNTS:0.000=4
;
#COMBOS:0.000=1
;
#SPEEDS:0.000=1.000=0.000=0
;
#SCROLLS:0.000=1.000
;
#FAKES:;
#LABELS:0.000=Song Start
;
#NOTES:
0000
0000
0000
0000
,
0000
0000
0000
0000
,
0000
0000
0000
0000
,
0000
0000
0000
0000
,
0010
0000
0000
0000
,
1000
0000
0000
0000
,
0100
0000
0000
0000
,
0001
0000
0000
0000
,
0010
0100
0100
0010
,
1000
0100
0011
0100
,
1000
0001
0001
0100
,
0010
1000
1010
0010
,
0100
0001
1000
0100
,
0011
1100
0010
0001
,
0100
0010
1000
0001
,
0220
0000
0000
0330
,
1001
0000
1000
0000
,
0001
0000
0100
0000
,
0010
0000
0100
0000
,
0001
0000
1000
0001
,
0100
0000
0120
0000
,
1030
0000
0000
1000
0000
0000
0001
0000
0000
0000
0001
0000
,
0200
0300
0000
0000
0020
0030
0000
0000
,
0110
0110
2002
3003
,
2000
0001
0002
3003
,
0001
0000
0000
0010
0000
0000
0100
0000
0000
0000
0100
0000
,
0020
0000
0031
1000
,
0010
1010
0110
0101
,
2001
0000
3001
1000
,
1002
0000
1003
0000
,
1000
0100
0001
0100
,
0010
0010
0020
0032
,
0103
0001
2000
0000
,
3100
1000
0002
0000
,
0023
0000
0000
0000
,
0030
0000
0000
0000
,
0001
0000
0000
0000
,
0010
0000
0000
0000
,
0100
0000
0000
0000
,
1000
0000
0000
0000
,
0010
0000
0100
0000
,
0001
0000
1000
0000
,
0100
0000
0010
0000
,
0001
0000
1000
0000
,
0001
0100
1000
0000
,
1000
0100
0001
0000
,
0001
0010
1000
0000
,
1000
0010
0001
0000
,
1000
0010
0100
0001
,
0010
0100
1000
0001
,
0100
0010
1000
0001
,
0010
0000
0100
0100
,
1000
0100
0010
0001
,
1000
0000
0010
0000
0100
0010
0100
0000
,
0001
0010
0100
1000
,
0001
1000
1001
0000
,
1000
0100
0010
0100
,
1000
0000
0001
0000
0100
0001
0100
0000
,
0010
0100
0001
0010
,
0100
1000
2002
3003
,
0001
1000
0020
0000
,
1030
0001
0020
0000
,
0031
1000
0001
1000
0002
0000
0000
0000
,
0103
0100
0010
0010
,
1000
0100
0010
0100
,
1000
0001
0100
0010
,
1000
0010
1000
0000
0001
0100
0001
0000
,
0020
0000
0000
0000
,
0030
0000
2002
0000
,
0000
0000
0000
0000
,
0000
0000
3003
0000
;

//---------------dance-single - Rygon----------------
#NOTEDATA:;
#CHARTNAME:;
#STEPSTYPE:dance-single;
#DESCRIPTION:Rygon;
#CHARTSTYLE:;
#DIFFICULTY:Beginner;
#METER:2;
#RADARVALUES:0.161,0.224,0.041,0.065,0.000,125.000,5.000,8.000,0.000,0.000,0.000,0.000,0.000,0.161,0.224,0.041,0.065,0.000,125.000,5.000,8.000,0.000,0.000,0.000,0.000,0.000;
#CREDIT:Rygon;
#OFFSET:-0.405;
#BPMS:0.000=150.000
;
#STOPS:;
#DELAYS:;
#WARPS:;
#TIMESIGNATURES:0.000=4=4
;
#TICKCOUNTS:0.000=4
;
#COMBOS:0.000=1
;
#SPEEDS:0.000=1.000=0.000=0
;
#SCROLLS:0.000=1.000
;
#FAKES:;
#LABELS:0.000=Song Start
;
#NOTES:
0000
0000
0000
0000
,
0000
0000
0000
0000
,
0000
0000
0000
0000
,
0000
0000
0000
0000
,
1000
0000
0000
0000
,
0000
0000
0000
0000
,
0001
0000
0000
0000
,
0000
0000
0000
0000
,
0100
0000
0100
0000
,
0010
0000
0010
0000
,
1000
0000
1000
0000
,
0001
0000
0001
0000
,
0010
0010
0010
0000
,
0100
0100
0100
0000
,
1000
0001
0000
2000
,
0002
0000
0000
3003
,
1000
0000
0100
0000
,
0010
0000
0001
0000
,
1000
0000
0010
0000
,
0100
0000
0001
0000
,
0010
0000
0200
0300
,
0100
0100
0100
0000
,
1000
0000
0001
0000
,
1001
1001
1001
0000
,
0020
0000
0030
0000
,
0100
0100
0100
0000
,
0001
0000
1000
0000
,
0100
0000
0010
0000
,
0001
0000
1000
0000
,
0001
0000
1000
0000
,
0010
0010
0010
0010
,
0100
0000
1001
0000
,
1000
0000
0001
0000
,
0001
0000
1000
0000
,
0020
0000
0000
0000
,
0030
0000
0000
0000
,
1000
0000
0000
0000
,
0000
0000
0000
0000
,
0100
0000
0000
0000
,
0000
0000
0000
0000
,
0010
0000
0000
0000
,
0001
0000
0000
0000
,
0100
0000
0000
0000
,
0010
0000
0000
0000
,
1000
0000
1000
0000
,
0100
0000
0100
0000
,
0010
0000
0010
0000
,
0001
0000
0001
0000
,
0100
0000
0100
0000
,
0001
0000
0001
0000
,
1000
0000
1000
0000
,
0020
0000
0030
0000
,
0100
0100
0100
0000
,
0001
0001
0001
0000
,
0010
0010
0010
0000
,
0100
0100
1000
0000
,
1000
1000
1000
0000
,
0010
0010
0010
0000
,
0100
0100
0100
0000
,
0001
0001
0020
0030
,
0010
0000
0100
0000
,
1000
0000
0001
0000
,
1000
0000
0010
0000
,
0100
0000
0001
0000
,
0010
0010
0100
0000
,
0100
0100
1000
0000
,
1000
1000
0001
0000
,
0002
0000
0000
0000
,
0003
0000
1001
0000
;
