#TITLE:ロミオとシンデレラ -秋葉工房MIX-;
#SUBTITLE:;
#ARTIST:うさ&花たん;
#TITLETRANSLIT:ROMEO & CINDERELLA -Akiba Koubou MIX-;
#SUBTITLETRANSLIT:;
#ARTISTTRANSLIT:Usa & Hima-tan;
#CREDIT:;
#BANNER:ROMEO & CINDERELLA -Akiba Koubou MIX-.png;
#BACKGROUND:ROMEO & CINDERELLA -Akiba Koubou MIX--bg.png;
#LYRICSPATH:;
#CDTITLE:;
#MUSIC:Romeo & Cinderella (DJ COMMAND Remix).mp3;
#OFFSET:-0.046;
#SAMPLESTART:82.730;
#SAMPLELENGTH:16.420;
#SELECTABLE:YES;
#BPMS:0.000=85.000,20.000=170.000,184.000=85.000,198.000=170.000;
#STOPS:;
#BGCHANGES:;

//---------------dance-single - ----------------
#NOTES:
     dance-single:
     :
     Hard:
     9:
     0.690,0.604,0.230,0.548,0.093: // measure 1
0000
0000
0000
0000
0000
0000
1000
0100
,  // measure 2
0020
0000
0032
0000
2003
3000
0100
1000
,  // measure 3
0010
0000
0100
0001
0000
0100
0000
0010
1000
0000
0001
0000
0100
0000
0010
0000
,  // measure 4
0100
0000
0000
0001
0000
0000
0010
0000
0100
0000
1000
0000
0001
0000
0010
0000
,  // measure 5
0001
0200
0000
0000
0000
0000
0300
0000
0010
0000
0100
0001
0100
0000
1010
0000
,  // measure 6
0010
1000
0100
1000
0001
0010
0001
0200
,  // measure 7
0000
0310
1000
1000
0001
0001
0100
0100
,  // measure 8
0010
0000
0000
0000
1000
0100
1000
0001
1000
0000
0010
0000
0000
0000
0110
0000
,  // measure 9
0000
0010
0100
0001
0000
0102
0000
1003
,  // measure 10
0000
0001
0010
0100
0010
0001
0100
0020
,  // measure 11
0000
1030
0001
0001
0100
0100
0010
0010
,  // measure 12
1000
0000
0000
0000
0100
0010
0100
0010
0001
0000
0100
0000
0000
0000
0101
0000
,  // measure 13
0000
0100
0010
1000
0000
2020
0000
3030
,  // measure 14
1000
0001
0100
0001
0010
0100
0010
0001
,  // measure 15
0200
0000
0310
2000
0000
0001
0001
3001
,  // measure 16
0000
1000
0010
0100
0010
1000
0100
0010
,  // measure 17
0200
0000
1300
0020
0000
0100
0100
0130
,  // measure 18
0000
0010
1000
0100
2000
0000
0010
0000
,  // measure 19
3001
1000
0010
0100
0002
0000
1003
0000
,  // measure 20
0201
0000
0010
0010
0320
0000
1000
1030
,  // measure 21
0000
0010
1000
0100
0001
0100
1000
0010
,  // measure 22
0000
0001
0010
1000
0100
0010
0001
0100
,  // measure 23
0020
0000
1030
0002
0000
0100
0100
0103
,  // measure 24
0000
0001
0100
0010
1000
0100
1000
0001
,  // measure 25
0020
0000
0031
2000
0000
0010
0010
3010
,  // measure 26
0000
1000
0010
0100
0002
0000
0010
0000
,  // measure 27
1003
0001
0100
0010
2000
0000
3001
0000
,  // measure 28
0012
0000
1000
1000
2003
0000
0100
3100
,  // measure 29
0000
1000
0010
0001
1000
0100
0001
1000
,  // measure 30
0020
0000
0100
0130
0000
0010
0100
0001
,  // measure 31
2000
0000
0001
3001
0000
1000
0010
0001
,  // measure 32
0020
0000
0100
0130
0000
0010
1000
0100
,  // measure 33
0001
0100
1000
0001
0000
1001
0000
1000
,  // measure 34
0010
0100
0010
1000
0000
0100
0010
0100
,  // measure 35
1000
0002
0000
1003
0000
1000
0001
1000
,  // measure 36
0020
0000
0100
0100
0230
0000
0001
0301
,  // measure 37
0000
0100
0001
0010
0100
1000
0010
0100
,  // measure 38
0002
0000
1000
1003
0000
0001
0100
0010
,  // measure 39
2000
0000
0001
3001
0000
1000
0010
0100
,  // measure 40
0020
0000
0100
0130
0000
0010
0100
0001
,  // measure 41
0010
1000
0010
0001
0000
1001
0000
1000
,  // measure 42
0100
0000
0001
0000
0000
0000
0201
0000
0000
0000
0310
0000
0000
0000
0001
1000
,  // measure 43
0001
0000
0100
0020
0000
1030
0000
1010
,  // measure 44
0000
0010
1000
0100
0010
0001
0100
0020
,  // measure 45
0000
0100
0130
0000
0010
1000
0001
0000
,  // measure 46
2002
0000
0000
0000
3003
0000
0000
0000
0110
0000
0000
0010
0100
0000
0001
0000
,  // measure 47
2000
3002
0203
0320
,  // measure 48
2030
3200
0302
0203
,  // measure 49
2300
0001
0001
3001
0200
0010
0010
0310
,  // measure 50
2000
0100
0100
3100
1100
0000
0100
0010
,  // measure 51
0000
0011
0000
0001
1001
0000
1000
0010
,  // measure 52
0001
0010
1000
0100
0001
0100
1000
0001
,  // measure 53
0000
0100
0010
1000
0002
0000
1000
1003
,  // measure 54
0000
0000
0001
0000
0100
0000
0010
0000
1000
0100
1000
0000
0001
0000
0100
0001
,  // measure 55
0100
0010
0000
1000
0002
0000
0100
0103
,  // measure 56
0000
0000
0001
1000
0001
0000
1000
0000
0010
0000
1000
0000
0100
0000
1000
0000
,  // measure 57
0000
0001
1000
0001
0100
0020
0000
0130
,  // measure 58
0000
0010
0100
0001
1001
0000
1000
1010
,  // measure 59
0000
0110
0000
0100
0101
0000
0100
1000
,  // measure 60
0100
0001
0010
2000
0000
0010
0010
3010
,  // measure 61
0000
1000
0010
0001
0200
0000
0010
0310
,  // measure 62
0000
0000
0100
0000
0010
0000
1000
0000
0001
0100
0001
0000
1000
0000
0010
1000
,  // measure 63
0010
0100
0000
0001
0020
0000
0001
0031
,  // measure 64
0000
0000
0010
0100
0010
0000
0100
0000
1000
0000
0001
0000
0100
0000
0020
0000
,  // measure 65
0000
1030
0000
0010
0100
0001
0000
0101
,  // measure 66
0000
0000
0001
1000
0001
0000
1000
0000
1100
0000
0000
0000
0100
0000
0110
0000
,  // measure 67
0000
0011
0000
0001
0102
0000
1000
1003
,  // measure 68
0000
0001
0100
0010
2000
0000
3200
0000
,  // measure 69
0302
0023
2030
0010
,  // measure 70
3001
0000
0000
0000
1000
0010
0100
0001
1000
0000
0001
0000
0010
0000
0100
0000
,  // measure 71
0000
1002
0000
0103
0000
0001
0010
0001
,  // measure 72
1000
0100
1000
0020
0000
0130
0001
0001
,  // measure 73
1000
0000
1000
0000
0010
0000
0010
0000
0100
0000
0000
0000
0001
0010
0001
1000
,  // measure 74
0001
0100
0000
0110
0000
0100
0010
1000
,  // measure 75
0000
2010
0000
3001
0000
1000
0100
0010
,  // measure 76
0100
1000
0010
0100
0000
0001
1000
1000
,  // measure 77
0010
0000
0010
0000
0100
0000
0100
0000
0001
0000
0000
0000
0010
0100
0010
0100
,  // measure 78
1000
0010
0000
1010
0000
0010
0100
0001
,  // measure 79
0000
0202
0000
0303
0001
0100
1000
0100
,  // measure 80
0001
0010
1000
0020
0000
0031
0100
0010
,  // measure 81
1000
1000
0001
0001
1000
0100
0001
0100
,  // measure 82
1000
0010
0001
0010
2000
0000
3100
0020
,  // measure 83
0000
0032
0000
1003
0000
0001
0100
0010
,  // measure 84
0100
0001
0010
0200
0000
1300
0100
0010
,  // measure 85
0001
0001
0100
0100
0000
0001
0010
0100
,  // measure 86
1000
0100
0010
0002
0000
0103
0010
1001
;

//---------------dance-single - ----------------
#NOTES:
     dance-single:
     :
     Beginner:
     2:
     0.120,0.159,0.007,0.000,0.000:
0000
0000
0000
0000
,
1000
0000
1000
0000
,
0001
0000
0001
0000
,
0100
0000
0100
0000
,
0010
0000
0010
0000
,
1000
0000
0000
0000
,
0000
0000
0000
0000
,
0001
0000
0000
0000
,
0000
0000
0000
0000
,
0100
0000
0000
0000
,
0000
0000
0000
0000
,
0010
0000
0000
0000
,
1000
0000
1000
1000
,
1000
0000
0000
0000
,
0001
0000
0000
0000
,
0100
0000
0000
0000
,
0010
0000
0010
0000
,
0010
0000
0000
0000
,
1000
0000
0000
0000
,
0001
0000
0000
0000
,
0100
0000
0100
0000
,
0100
0000
0000
0000
,
0010
0000
0000
0000
,
0001
0000
0000
0000
,
1000
0000
1000
0000
,
1000
0000
0000
0000
,
0010
0000
0000
0000
,
0100
0000
0000
0000
,
0001
0000
0001
0000
,
0001
0000
0000
0000
,
1000
0000
0000
0000
,
0010
0000
0000
0000
,
0100
0000
0100
0000
,
0100
0000
0000
0000
,
0010
0000
0000
0000
,
0001
0000
0000
0000
,
1000
0000
1000
0000
,
1000
0000
0000
0000
,
0010
0000
0000
0000
,
0100
0000
0000
0000
,
0001
0000
0001
0000
,
0001
0000
0000
0000
,
0010
0000
0000
0000
,
0100
0000
0100
0000
,
1000
0000
1000
0000
,
1001
0000
0000
0000
,
0010
0000
0010
0000
,
0100
0000
0100
0000
,
0001
0000
0001
0000
,
1000
0000
1000
0000
,
1000
0000
0001
0000
,
0000
0000
0100
0000
,
0000
0000
0010
0000
,
0000
0000
1000
0000
,
1000
0000
1000
0000
,
0000
0000
0001
0000
,
0000
0000
0010
0000
,
0000
0000
0100
0000
,
0100
0000
0100
0000
,
0000
0000
1000
0000
,
0000
0000
0001
0000
,
0000
0000
0100
0000
,
0100
0000
0100
0000
,
0000
0000
0010
0000
,
0000
0000
1000
0000
,
0000
0000
0001
0000
,
0001
0000
0001
0000
,
0000
0000
0100
0000
,
0100
0000
0100
0000
,
0000
0000
0010
0000
,
0010
0000
0010
0000
,
0000
0000
1000
0000
,
0000
0000
0001
0000
,
0000
0000
0100
0000
,
0100
0000
0100
0000
,
0000
0000
0010
0000
,
0000
0000
1000
0000
,
0000
0000
0001
0000
,
0001
0000
0001
0000
,
0000
0000
1000
0000
,
0000
0000
0100
0000
,
0000
0000
0010
0000
,
0010
0000
0010
0000
,
0000
0000
0100
0000
,
0000
0000
1000
0000
,
0000
0000
0001
0001
;

//---------------dance-single - ----------------
#NOTES:
     dance-single:
     :
     Easy:
     5:
     0.355,0.382,0.111,0.015,0.000:
0000
0000
0000
0000
,
1000
0100
0010
0001
,
1000
0010
0100
0001
,
1000
0100
0001
0100
,
1000
0010
0001
0010
,
1000
0001
0100
0001
,
1000
0010
1000
0100
,
1000
0010
0100
0001
,
1000
1000
0001
0001
,
0100
0010
0100
0001
,
0010
0100
0010
0001
,
0100
0010
1000
0100
,
0010
0010
0100
0100
,
1000
0001
0010
0001
,
0100
0100
0010
0010
,
0100
0001
0010
0100
,
1000
1000
0001
0001
,
1000
0010
0100
0000
,
0001
0100
0010
1000
,
0001
0100
0010
0000
,
1000
0100
0001
0001
,
0100
1000
0010
0001
,
0010
1000
0100
1000
,
0010
0100
0001
0010
,
0001
0100
0010
1000
,
0001
0100
0010
0000
,
1000
0100
0010
0001
,
1000
0010
0100
0000
,
0001
0100
0010
1000
,
0001
0100
0101
0000
,
1000
0010
1010
0000
,
1000
0100
1100
0000
,
0001
0010
0100
0000
,
1000
0001
0100
0000
,
0001
0100
0010
0000
,
1000
0100
0001
0000
,
1000
0010
0001
0010
,
1000
0001
0101
0000
,
0001
1000
1100
0000
,
1000
0001
0010
0001
,
1000
0010
1010
0000
,
0010
0100
0001
0010
,
0100
1000
0001
0010
,
0001
0100
0010
1000
,
0010
0010
0100
0100
,
2002
3003
1000
0001
,
0101
0100
0010
1000
,
0010
0100
0001
0010
,
0100
0100
1000
1000
,
0001
0001
0010
0010
,
0100
0100
1001
1000
,
0010
1000
0001
0010
,
0001
0010
1000
0100
,
1000
0100
0001
0100
,
0001
0100
0010
1000
,
0100
0010
0001
0100
,
0001
0010
0100
1000
,
0100
0010
0001
0001
,
1000
1000
1001
1000
,
0010
0100
0010
1000
,
0100
0010
0100
1000
,
0001
0010
0001
0001
,
1000
1000
0010
0100
,
1000
0100
0010
0001
,
0100
0010
0100
0001
,
0010
0100
1000
1000
,
0001
0001
1001
1000
,
0010
0100
0001
0001
,
1000
1000
0001
0010
,
0100
0000
0010
0000
0001
0000
0100
0010
,
0000
1000
0000
0001
1000
0000
0001
0000
,
0100
0001
0010
0100
,
1000
0100
0010
0001
,
0100
0010
1000
1000
,
0001
0001
1000
0100
,
0010
0100
1000
0010
,
0100
0010
1000
0100
,
0010
0001
1000
1000
,
0001
0001
1000
0000
,
1001
0000
1000
0100
,
0010
0001
1000
0000
,
1001
0000
0001
0100
,
0010
1000
0001
0000
,
0101
0000
0001
0100
,
0010
1000
0100
0000
,
1100
0000
0000
0000
1000
0000
0001
0100
;

//---------------dance-single - ----------------
#NOTES:
     dance-single:
     :
     Medium:
     6:
     0.474,0.540,0.081,0.222,0.000:
0000
0000
0000
0000
,
2000
3100
0020
0031
,
1000
0010
1000
0010
0100
0001
0100
0001
,
2000
3001
0020
0130
,
1000
0001
0100
0001
2000
0000
3000
0000
,
0001
0000
0100
0000
0010
0000
0100
0001
,
0000
0010
0100
0000
1000
0000
0001
0000
,
1001
0000
0010
0100
0010
0100
0000
0010
,
0000
0100
0001
0010
0000
0200
0000
0300
,
1000
0000
0001
0000
0100
0000
0010
0100
,
0000
0001
1000
0000
0001
0000
0100
0000
,
0110
0000
0100
0001
0010
0001
0000
0100
,
0000
0010
1000
0001
0000
2000
0000
3000
,
0001
0010
0100
0010
,
0001
0000
0100
0010
0000
0100
0010
0000
,
1000
0100
0010
0100
,
1000
0000
0001
1000
0000
0001
1000
0000
,
0010
0100
1001
0000
,
0100
0010
0001
0100
,
0010
0000
1000
0100
0020
0000
0030
0000
,
0100
1000
0100
0000
0010
0001
0010
0000
,
0001
0100
0010
1000
,
0001
0000
0100
0010
0000
0100
0010
0000
,
1000
0100
0010
0001
,
1000
0000
0001
0100
0000
0001
0100
0000
,
0010
1000
0101
0000
,
0001
0010
0100
1000
,
0001
0000
0100
0010
0100
0000
0001
0000
,
0010
0100
0010
0000
0100
1000
0100
0000
,
0010
0000
0001
0010
0000
0001
0010
0000
,
0100
0000
1000
0100
0000
1000
0100
0000
,
1000
0000
0010
1000
0000
0010
1000
0000
,
0001
0100
0001
0100
0000
0010
0000
0000
,
1000
0001
0000
1000
0000
0001
0000
0000
,
0100
0010
0000
0100
0000
0010
0000
0000
,
1000
0000
0001
0100
0001
0000
1000
0000
,
0010
0000
0100
0000
0001
0010
0001
0000
,
1000
0000
0010
1000
0000
0010
1000
0000
,
0010
0000
0001
0010
0000
0001
0010
0000
,
0001
0000
0100
0001
0000
0100
0001
0000
,
0100
0000
1000
0100
0000
1000
0000
0100
,
1000
0010
0000
1000
0000
0100
0000
0010
,
0001
0000
0100
0001
0000
0010
0000
0100
,
0000
1000
0001
0000
0100
0010
0100
0010
,
0000
1000
0001
0000
0100
0010
0100
0000
,
2002
3003
1100
0101
,
2000
3000
0020
0030
0200
0300
0002
0003
,
0020
0030
0200
0300
2000
3000
0002
0003
,
0100
0100
0100
0100
0010
0010
0010
0010
,
1000
1000
1000
1000
0001
0000
0100
0010
,
0000
0100
0000
0001
0010
0000
0100
0000
,
1000
0100
1000
0000
0100
0000
0010
0000
,
0001
0100
0001
0000
0010
0000
0100
0000
,
1000
0001
1000
0000
0010
0000
0100
0000
,
0001
0010
0001
0000
0100
0000
0010
0000
,
1000
0100
0010
0000
0100
0000
1000
0000
,
0010
0100
0001
0000
0100
0000
0010
0000
,
1000
0001
0010
0000
0001
0000
0100
0010
,
0000
1001
0000
1000
0100
0000
0010
0000
,
0100
1000
0010
0000
0100
0000
0001
0000
,
0010
0100
0001
0000
0100
0000
0010
0000
,
0001
0100
0010
0000
1000
0000
0001
0000
,
0010
0001
1000
0000
0100
0000
1000
0000
,
0010
1000
0100
0000
1000
0000
0010
0000
,
0100
0001
0010
0000
0001
0000
0100
0000
,
0010
1000
0001
0000
1000
0000
0001
0100
,
0000
0110
0000
0010
1000
0000
0010
0100
,
0000
0001
0100
0000
0020
0000
2030
0000
,
3200
0320
0032
0010
,
0100
0000
1003
0000
0001
0000
0100
0010
,
0000
0200
0000
0301
0001
0000
0100
0000
,
0010
0000
0100
0001
0000
0010
0100
0000
,
1000
0000
0001
0000
1001
0000
0010
0100
,
0010
0100
0000
0010
0000
0100
0001
0010
,
0000
0200
0000
0300
1000
0000
0001
0000
,
0100
0000
0010
0100
0000
0001
1000
0000
,
0001
0000
0100
0000
0110
0000
0100
0001
,
0010
0001
0000
0100
0000
0010
1000
0001
,
0000
2000
0000
3000
0001
0000
1000
0000
,
0100
0010
0001
0100
,
0010
1000
0010
0000
0100
0000
0001
0000
,
1000
0100
0020
0032
,
0203
0302
0013
0100
,
1000
0100
0010
0001
,
1000
0010
1000
0000
0010
0000
0100
0000
,
0001
0000
1000
0000
0100
0010
0001
0100
;
