#TITLE:Queen's Paradise;
#SUBTITLE:;
#ARTIST:Nanako;
#TITLETRANSLIT:;
#SUBTITLETRANSLIT:;
#ARTISTTRANSLIT:;
#GENRE:;
#CREDIT:DDR Addict;
#MENUCOLOR:GREEN;
#METERTYPE:DDR X;
#BANNER:[SC 2011] - Queen's Paradise.png;
#BACKGROUND:[SC 2011] - Queen's Paradise-bg.png;
#JACKET:[SC 2011] - Queen's Paradise-jacket.png;
#LYRICSPATH:;
#CDTITLE:;
#MUSIC:[SC 2011] - Queen's Paradise.mp3;
#OFFSET:1.060;
#SAMPLESTART:87.800;
#SAMPLELENGTH:15.000;
#SELECTABLE:YES;
#LISTSORT:;
#DISPLAYBPM:157.000;
#BPMS:0.000=157.010;
#STOPS:;
#BGCHANGES:;
#ATTACKS:;

//---------------dance-single - ----------------
#NOTES:
     dance-single:
     :
     Hard:
     7:
     0.574,0.545,0.548,0.430,0.160:
0000
0000
0000
0000
,
2000
0000
0000
3001
0002
0000
0000
0013
,
0001
0000
1010
0001
,
0021
0000
0000
0000
0230
0000
0000
1300
,
0100
0000
0000
0000
0000
0000
0000
0001
,
0002
0000
0000
1003
2000
0000
0000
3010
,
1000
0000
0011
1000
,
2010
0000
0000
0100
3200
0000
0000
0000
,
0310
0000
0000
0010
0000
0000
0110
0000
0000
0000
0000
0100
1000
0000
0001
0000
,
0002
0000
0000
1003
2000
0000
0000
3010
,
1000
0000
0011
1000
,
1020
0000
0000
0000
0230
0000
0000
0301
,
0200
0000
0000
0000
0320
0000
0000
1030
,
2000
0000
0000
3001
0002
0000
0000
0013
,
0001
0000
1010
0001
,
0012
0000
0000
0103
0200
0000
0000
0000
,
0320
0000
0000
0000
1030
0100
0010
0001
,
0000
0000
1000
0000
1000
0000
0000
0001
1000
0000
0010
0000
1000
0000
0100
0000
,
0000
0000
0001
0000
0001
0000
0000
1000
0001
0000
0010
0000
0001
0000
0100
0000
,
0110
0000
1010
0000
0101
0000
0000
0001
,
1001
0000
0000
0000
1000
0000
1100
0000
0000
0000
0000
0100
0010
0000
0000
0000
,
0000
0000
0001
0000
0001
0000
0000
1000
0001
0000
0100
0000
0001
0000
0010
0000
,
0000
0000
1000
0000
1000
0000
0000
0001
1000
0000
0100
0000
1000
0000
0010
0000
,
1010
0101
0011
1001
,
1010
0101
0010
0110
,
0100
0000
0000
1000
0000
0000
0010
0000
0000
0000
1000
0000
1010
0000
0000
0000
,
0100
0000
0000
0001
0000
0000
0010
0000
0000
0000
0001
0000
0011
0000
0000
0000
,
0100
0000
0000
1000
0000
0000
0001
0000
0000
0000
0100
0000
0101
0000
0000
0000
,
0100
0000
0000
0001
0000
0000
1000
0000
0000
0100
1000
0000
1100
0000
0000
0000
,
0010
0000
0000
0001
0000
0000
0010
0000
0000
0000
1000
0000
1010
0000
0000
0000
,
0010
0000
0000
0100
0000
0000
1000
0000
0000
0000
0001
0000
0101
0000
0001
0000
,
2000
0000
0000
0010
3020
0000
0000
0230
,
0301
0000
1000
0000
0001
0000
0000
0000
1000
0100
0000
0010
0000
0000
0001
0000
,
1000
0000
0001
0000
1000
0000
0000
0010
0100
0000
0001
0000
0100
0000
0001
0000
,
0000
0000
0001
0000
0100
0000
0000
0010
0100
0000
0001
0000
0010
0000
0100
0000
,
1100
0000
0011
0000
1001
0000
0000
1000
,
1010
0000
0000
0000
0100
0000
0101
0000
0000
0000
0000
0100
0010
0000
0000
0000
,
0000
0000
0010
0000
0010
0000
0000
1000
0100
0000
0001
0000
0100
0000
0010
0000
,
0000
0000
0100
0000
0100
0000
0000
1000
0010
0000
0001
0000
0010
0000
1000
0000
,
0100
1100
0011
1010
,
0100
0101
1010
0011
,
0001
0000
0000
1000
0000
0000
0010
0000
0000
0000
1000
0000
1100
0000
0000
0000
,
1000
0000
0000
0001
0000
0000
0010
0000
0000
0000
0001
0000
0101
0000
0000
0000
,
0001
0000
0000
0010
0000
0000
0100
0000
0000
0000
0010
0000
0110
0000
0000
0000
,
0100
0000
0000
1000
0000
0000
0010
0000
0000
1000
0010
0000
1010
0000
0000
0000
,
1000
0000
0000
0100
0000
0000
0010
0000
0000
0000
0100
0000
0101
0000
0000
0000
,
0001
0000
0000
0100
0000
0000
0010
0000
0000
0000
0100
0000
1100
0000
0000
0000
,
1000
0000
0000
0001
0000
0000
0100
0000
0001
0000
0000
0000
0001
0000
1001
0000
,
0000
2000
3020
0230
,
0301
0000
1001
1000
0001
0000
1001
0001
,
1000
0010
0100
0001
0000
0001
1000
0100
,
1000
0000
1010
0010
0100
0000
0101
0001
,
0010
0110
1001
1100
,
1000
0000
0101
0001
0100
0000
1100
1000
,
0100
0010
0100
1000
0000
0001
1000
0100
,
0020
0000
0230
0000
,
1300
0000
0100
0000
0010
0010
0100
0000
1000
0000
0001
0001
,
0100
0000
0000
0000
0000
0000
0000
0000
0001
0000
0000
0000
0000
0000
0000
0000
0101
0000
0000
0000
0000
0000
0000
0000
0000
0000
0000
0000
0000
0000
0000
0000
0000
0001
0000
0000
1000
0000
0000
0000
0000
0000
0001
0000
0000
0000
0000
0000
,
0002
0000
0000
1003
2000
0000
0000
3010
,
1000
1001
0002
0203
,
0320
0000
0000
1030
2000
0000
0000
3001
,
2000
0000
0000
0000
3020
0000
0000
0130
,
0200
0000
0000
0310
0020
0000
0000
1030
,
0010
0101
0002
0023
,
2030
0000
0000
3010
0020
0000
0000
0000
,
0130
1000
0001
0010
0100
0010
0100
1000
,
0001
0000
0100
0001
0000
1001
0000
1100
,
0000
1000
0100
0001
0100
0000
0000
0010
,
0100
0000
1000
0001
0000
0101
0000
0010
,
0000
0010
0100
1000
0010
0000
0000
1000
,
1010
0000
0100
0101
0000
0011
0000
0100
,
2000
0000
3020
0000
0230
0000
0301
0001
,
2000
0000
0000
3001
0002
0000
0000
0013
,
0001
1001
0020
2030
,
3200
0000
0000
0310
0010
0100
0010
0220
,
0000
0000
0000
0000
,
0000
0330
0000
0000
0000
0000
0000
0000
0000
0000
0000
0000
0000
0000
0000
0000
;

//---------------dance-single - ----------------
#NOTES:
     dance-single:
     :
     Medium:
     6:
     0.427,0.442,0.371,0.321,0.021:
0000
0000
0000
0000
,
1000
0000
0000
0010
1000
0000
0000
0001
,
0100
0000
0010
0001
,
2000
0000
3020
0000
,
0130
0000
0000
0110
,
0200
0301
0002
0013
,
0020
0130
0200
1300
,
2000
3010
1010
1000
,
0010
0000
0000
0010
0000
0000
0010
0000
0000
0000
0000
0000
0110
0000
0000
0000
,
0100
0000
0000
0001
0010
0000
0000
0010
,
1000
0000
1000
0010
,
0200
0000
2300
0000
,
3001
0000
0101
0011
,
0100
0000
0000
1000
0010
0000
0000
0010
,
0001
0000
0001
0010
,
0200
0000
0301
0010
,
0200
0000
0000
0000
1300
0010
0100
0001
,
0000
0000
1000
0000
0010
1000
0010
0000
,
0000
0000
1000
0000
0001
1000
0001
0000
,
0011
1100
1010
0000
,
0101
1010
1100
0000
,
0000
0000
0001
0000
0010
0001
0010
0000
,
0000
0000
0001
0000
1000
0001
1000
0000
,
1010
0101
0011
0000
,
1100
0011
0101
0000
,
0001
0000
0000
0001
1000
0000
0000
1000
,
0010
0000
0000
1000
,
0002
0000
0000
0013
0002
0000
1000
1003
,
0000
0000
0000
1010
,
1000
0000
0000
1000
0001
0000
0000
0001
,
0010
0000
0000
0000
0000
0000
0000
0100
,
2000
0000
0000
3010
2000
0000
0000
3001
,
1001
0000
0000
0000
,
1000
0000
0010
0000
0100
0001
0100
0000
,
0010
0000
1000
0000
0100
0001
0100
0000
,
0101
1100
0110
0000
,
1100
0101
0110
0000
,
0001
0000
0010
0000
0100
1000
0100
0000
,
0010
0000
0001
0000
0100
1000
0100
0000
,
2000
3200
0302
0023
,
2030
3200
0302
0013
,
0110
0000
0000
0100
1000
0000
0000
1000
,
0001
0000
0000
0101
,
0200
0000
0000
0301
0200
0000
0010
0310
,
0000
0000
0000
0000
,
1010
0000
0000
0100
0001
0000
0000
0010
,
0100
0000
0000
0000
0000
0000
0000
0001
,
0200
0000
0000
0310
2000
0000
0100
3100
,
0000
1100
0110
0011
,
1001
0000
0000
1000
0001
0000
0000
1000
,
0001
0010
0100
0010
0000
0100
1000
0001
,
0010
0000
0000
0100
1000
0000
0010
1000
,
0000
1001
0110
0011
,
1100
0000
0000
0001
1000
0000
0000
0001
,
1000
0010
1000
0100
0000
0010
0001
0100
,
0002
0000
2003
0000
,
3010
0000
1000
0000
0000
0000
1000
0000
0001
0000
0000
0000
,
0001
0000
0010
0000
0000
0110
0000
0000
0000
0000
0000
0000
,
1100
0000
0000
0100
0010
0000
0000
0010
,
0001
0000
0001
1000
,
1200
0000
0000
0000
0320
0000
0000
0130
,
1000
0000
0000
0000
0000
0000
0000
0001
,
0002
0000
0000
0013
0020
0000
0000
0031
,
0100
0000
0010
1000
,
1020
0000
0000
0100
0130
0000
0000
0000
,
0101
0000
0000
0000
0001
0010
0100
1000
,
0010
0000
1000
1000
0000
0001
0000
0010
,
0000
0100
1000
0001
0010
0000
0000
0001
,
0010
0000
0001
0001
0000
1000
0000
0010
,
0000
0100
0001
1000
0010
0000
0000
1000
,
0001
0000
0001
0010
0000
0110
0000
0100
,
2000
0000
3020
0000
0130
0000
0000
0100
,
0002
0000
0000
0013
0002
0000
0000
1003
,
0001
0000
1001
0110
,
0020
0000
0031
0000
0001
0100
1000
0010
;

//---------------dance-single - ----------------
#NOTES:
     dance-single:
     :
     Easy:
     4:
     0.330,0.347,0.658,0.017,0.000: // measure 1
0000
0000
0000
0000
,  // measure 2
1000
0000
1010
0000
,  // measure 3
1001
0000
0001
0000
,  // measure 4
0011
0000
0110
0000
,  // measure 5
1100
0000
0000
0000
,  // measure 6
0001
0000
0011
0000
,  // measure 7
1001
0000
1000
0000
,  // measure 8
1010
0000
0110
0000
,  // measure 9
0101
0001
0001
0000
,  // measure 10
1000
0000
1100
0000
,  // measure 11
1001
0000
0001
0000
,  // measure 12
0101
0000
0110
0000
,  // measure 13
1010
0000
1000
0000
,  // measure 14
0001
0000
0101
0000
,  // measure 15
1001
0000
1000
0000
,  // measure 16
1100
0000
0110
0000
,  // measure 17
0011
0000
0000
0000
,  // measure 18
1000
0100
1000
0000
,  // measure 19
0001
0100
0001
0000
,  // measure 20
1000
1000
0001
0001
,  // measure 21
0010
0100
0010
0000
,  // measure 22
0001
0010
0001
0000
,  // measure 23
1000
0010
1000
0000
,  // measure 24
0001
0001
1000
1000
,  // measure 25
0010
0100
0010
0010
,  // measure 26
0110
0000
1001
0000
,  // measure 27
0011
0000
1100
0000
,  // measure 28
1001
0000
0110
0000
,  // measure 29
1010
0000
0101
0000
,  // measure 30
0110
0000
1001
0000
,  // measure 31
1010
0000
0101
0000
,  // measure 32
0110
0000
1001
0000
,  // measure 33
0011
0000
1100
0000
,  // measure 34
1000
0100
0001
0000
,  // measure 35
0001
0010
1000
0000
,  // measure 36
1000
0010
1000
0010
,  // measure 37
0001
0100
1000
0000
,  // measure 38
1000
0010
0001
0000
,  // measure 39
0001
0100
1000
0000
,  // measure 40
0001
0010
0001
0010
,  // measure 41
1000
0100
0001
0000
,  // measure 42
0101
0000
1100
0000
,  // measure 43
1010
0000
0011
0000
,  // measure 44
0110
0000
1001
0000
,  // measure 45
0011
0000
1100
0000
,  // measure 46
1010
0000
0101
0000
,  // measure 47
1001
0000
1001
0000
,  // measure 48
0110
0000
0000
0000
0110
0000
0000
1001
,  // measure 49
0000
1000
0100
0010
,  // measure 50
0001
0011
0001
0011
,  // measure 51
0010
0100
1000
0010
,  // measure 52
1000
1010
1000
1010
,  // measure 53
0100
0010
0001
0100
,  // measure 54
0001
0101
0001
0101
,  // measure 55
0100
0010
1000
0100
,  // measure 56
2000
0000
3002
0000
,  // measure 57
1003
0000
1100
0000
,  // measure 58
0001
0000
0101
1001
,  // measure 59
1000
0000
1010
0000
,  // measure 60
1001
0000
0001
0000
,  // measure 61
0011
0000
0110
0000
,  // measure 62
1100
0000
1000
0000
,  // measure 63
0001
0000
0011
0000
,  // measure 64
1001
0000
1000
0000
,  // measure 65
1010
0000
0110
0000
,  // measure 66
0101
0000
0001
1000
,  // measure 67
0001
0010
0001
0100
,  // measure 68
0010
0010
0010
0000
,  // measure 69
1000
0001
1000
0100
,  // measure 70
0010
0010
0010
0000
,  // measure 71
0110
0100
1000
0001
,  // measure 72
0100
0010
0001
0000
,  // measure 73
0011
0000
1010
0000
,  // measure 74
1100
0000
0101
0000
,  // measure 75
0110
0000
0000
0000
0110
0000
0000
1001
;
