#TITLE:PONPONPON;
#SUBTITLE:;
#ARTIST:きゃりーぱみゅぱみゅ;
#TITLETRANSLIT:;
#SUBTITLETRANSLIT:;
#ARTISTTRANSLIT:KYARYPAMYUPAMYU;
#GENRE:;
#CREDIT:Chewi☆;
#BANNER:PONPONPON.png;
#BACKGROUND:PONPONPON-bg.png;
#LYRICSPATH:;
#CDTITLE:cdtitle.png;
#MUSIC:PONPONPON.mp3;
#OFFSET:-1.075;
#SAMPLESTART:31.105;
#SAMPLELENGTH:15.000;
#SELECTABLE:YES;
#DISPLAYBPM:128.000;
#BPMS:0.000=128.000
;
#STOPS:
;
#BGCHANGES:;
#KEYSOUNDS:;
#ATTACKS:;

//---------------dance-single - Blank----------------
#NOTES:
     dance-single:
     :
     Hard:
     7:
     0.442,0.390,0.173,0.113,0.056,324.000,20.000,13.000,0.000,0.000,0.000,0.442,0.390,0.173,0.113,0.056,324.000,20.000,13.000,0.000,0.000,0.000:
0000
0000
0000
0000
,
0000
0000
0000
0000
,
0000
0000
0000
0000
,
0000
0000
0000
0000
,
2000
0100
0000
3001
,
0020
1000
0000
0031
,
0200
1000
0000
0310
,
1000
0000
1010
0000
0001
0100
1000
0100
,
0001
0010
0100
1000
0010
0200
0000
0001
,
0000
1000
1300
0000
0100
0001
0010
0100
,
1000
0010
0100
0010
1000
0002
0000
0100
,
0000
1000
1003
0000
0001
0010
0100
1000
,
0010
0100
0010
0100
0001
2000
0000
0010
,
0000
0001
3001
0000
0010
0100
1000
0010
,
0100
0001
1000
0100
0010
0002
0000
0103
,
0000
1000
0100
0001
0100
0010
0010
0000
,
1010
0000
1100
0000
0100
0001
0010
0000
,
1000
0100
0010
0001
0100
0010
1000
0000
,
0011
0000
0101
0000
0100
1000
0010
0000
,
0001
0100
0010
1000
0100
0010
0001
0000
,
1100
0000
1010
0000
0010
0001
0100
0000
,
1000
0010
0100
0001
0010
0100
1000
0000
,
0101
0000
0011
0000
0010
1000
0100
0000
,
0001
0010
0100
1000
0010
0100
0100
0001
,
1000
0000
0000
1000
0000
0000
1000
0000
0001
0000
0000
0001
0000
0000
0001
0000
,
0100
0000
0000
0100
0000
0000
0100
0000
0010
0000
0000
0010
0000
0000
0010
0000
,
1000
0000
0000
0100
0000
0000
1000
0000
0001
0000
0000
0010
0000
0000
0001
0000
,
1000
0000
0000
0010
0000
0000
1000
0000
0001
0000
0100
0000
0100
0000
0000
0000
,
0001
0000
0000
0001
0000
0000
0001
0000
1000
0000
0000
1000
0000
0000
1000
0000
,
0010
0000
0000
0010
0000
0000
0010
0000
0100
0000
0000
0100
0000
0000
0100
0000
,
0001
0000
0000
0010
0000
0000
0001
0000
1000
0000
0000
0100
0000
0000
1000
0000
,
0001
0001
0001
0001
0000
0100
0110
0000
,
1010
0000
1100
0000
0010
0001
0100
0010
,
0100
0001
0010
0100
2000
0000
3010
0000
,
0110
0000
0101
0000
0001
0010
0100
1000
,
0010
0100
0010
1000
0002
0000
0103
0000
,
0110
0000
1001
0000
1000
0100
0010
0001
,
0101
0000
1000
0001
0020
0000
0130
0000
,
1100
0010
0101
1000
,
0001
0010
1000
0010
0001
1000
0100
0000
,
1000
0010
0100
0001
1000
1000
1000
0100
,
0010
0001
0100
1000
0100
0001
0010
0000
,
0001
0010
0100
1000
0001
0001
0001
0100
,
0010
1000
0100
0001
0100
1000
0010
0000
,
1000
0100
0010
0001
1000
1000
1000
0010
,
0100
0001
0010
1000
0010
0001
0100
0000
,
0001
0100
0010
1000
0001
0001
0001
0010
,
0100
1000
0010
0001
0010
1000
0100
0000
,
1000
0100
0001
0000
0001
0010
0000
0000
,
1000
0010
0100
0001
0010
0100
1000
0000
,
0001
0100
1000
0000
1000
0010
0001
0000
,
0001
0010
0100
1000
0010
0100
0001
0000
,
1000
0010
0001
0000
0001
0100
1000
0000
,
1000
0100
0010
0001
0100
0010
1000
0000
,
0001
0010
1000
0000
1000
0100
0001
0000
,
0001
0010
1000
0010
0100
0010
0001
1000
,
0200
0000
0000
0000
,
0000
0000
0000
0300
,
2002
0000
0000
0000
,
0000
0000
0000
0000
,
3003
0000
0000
0000
;

//---------------dance-single - Blank----------------
#NOTES:
     dance-single:
     :
     Easy:
     2:
     0.183,0.182,0.061,0.147,0.000,124.000,7.000,17.000,0.000,0.000,0.000,0.183,0.182,0.061,0.147,0.000,124.000,7.000,17.000,0.000,0.000,0.000:
0000
0000
0000
0000
,
0000
0000
0000
0000
,
0000
0000
0000
0000
,
0000
0000
0000
0000
,
2000
0000
0000
0000
,
3002
0000
0000
0000
,
0203
0000
0000
0000
,
0320
0000
0000
0000
,
1030
0000
0100
0000
,
1100
0000
0000
0000
,
0100
0000
0001
0000
,
0101
0000
0000
0000
,
0001
0000
1000
0000
,
1010
0000
0000
0000
,
0001
0000
1000
0000
,
1100
1000
1000
0000
,
0001
0100
0001
0000
,
1000
0000
0100
0000
,
0010
0001
0010
0000
,
0001
0000
0100
0000
,
0010
1000
0010
0000
,
1000
0000
0100
0000
,
1000
1000
0001
0000
,
0100
0000
0010
0000
,
0000
0100
0200
0000
,
0000
0301
0002
0000
,
0000
1003
1000
0000
,
1100
0000
1001
0000
,
0000
0001
0002
0000
,
0000
0103
0200
0000
,
0000
0310
0010
1000
,
0001
0010
0100
0000
,
1000
1000
1000
0000
,
0001
0001
0001
0000
,
0100
0010
0100
0000
,
0001
1000
0001
0000
,
0010
0010
0010
0000
,
0100
0100
0100
0000
,
1000
0001
1000
0000
,
0001
1000
0001
0000
,
1000
0000
0100
0000
,
0010
0000
0002
0000
,
0103
0000
0010
0000
,
1000
0000
0002
0000
,
1003
0000
0100
0000
,
1000
0000
0020
0000
,
0130
0000
0001
0000
,
0010
0000
0100
0100
,
1000
1000
1000
0000
,
0001
0100
0020
0000
,
1030
1000
1000
0000
,
0001
0010
0200
0000
,
1300
1000
1000
0000
,
0001
1000
0020
0000
,
0130
0100
0100
0000
,
0001
0100
0010
1000
,
0002
0000
0000
0000
,
0000
0000
0000
0003
,
2002
0000
0000
0000
,
0000
0000
0000
0000
,
3003
0000
0000
0000
;

//---------------dance-single - Blank----------------
#NOTES:
     dance-single:
     :
     Medium:
     5:
     0.323,0.364,0.139,0.208,0.000,221.000,16.000,24.000,0.000,0.000,0.000,0.323,0.364,0.139,0.208,0.000,221.000,16.000,24.000,0.000,0.000,0.000: // measure 0
0000
0000
0000
0000
,  // measure 1
0000
0000
0000
0000
,  // measure 2
0000
0000
0000
0000
,  // measure 3
0000
0000
0000
0000
,  // measure 4
0000
1100
0000
1001
,  // measure 5
0000
0011
0000
1001
,  // measure 6
0000
1010
0000
1001
,  // measure 7
0000
0101
0100
0100
,  // measure 8
0001
0010
0001
0000
1000
0000
1000
0000
,  // measure 9
0010
0010
0010
0000
0100
0000
0001
0000
,  // measure 10
1000
0100
1000
0000
0010
0000
0010
0000
,  // measure 11
0100
0100
0100
0000
0001
0000
0010
0000
,  // measure 12
0100
1000
0100
0000
1000
0000
0001
0000
,  // measure 13
0100
0100
0100
0000
0010
0000
0100
0000
,  // measure 14
0001
0010
0001
0000
0010
0000
0100
0000
,  // measure 15
1000
1000
1001
0000
,  // measure 16
0001
0100
1000
0100
,  // measure 17
0001
0100
1000
0100
,  // measure 18
0001
0010
1000
0010
,  // measure 19
0001
0010
1000
0010
,  // measure 20
0001
0100
1000
0010
,  // measure 21
0001
0100
1000
0010
,  // measure 22
0001
0010
1000
0100
,  // measure 23
0001
0010
1000
0100
,  // measure 24
1000
0010
0110
0100
,  // measure 25
0001
1000
1100
1000
,  // measure 26
0010
0100
0101
0001
,  // measure 27
1000
0000
0100
0100
0000
1000
1000
0000
,  // measure 28
0001
0101
0100
0010
,  // measure 29
1000
1100
1000
0001
,  // measure 30
0010
0110
0100
1000
,  // measure 31
0001
1000
0001
1000
0000
0010
0010
0000
,  // measure 32
1000
0000
1000
0000
0001
0100
0010
0000
,  // measure 33
0100
0100
0001
0001
,  // measure 34
1000
0000
1000
0000
0100
0010
0001
0000
,  // measure 35
0100
0100
0010
0010
,  // measure 36
1000
0000
0001
0000
0100
0010
1000
0000
,  // measure 37
0001
0100
0010
1000
,  // measure 38
0100
0000
0100
0000
1000
0001
0010
0000
,  // measure 39
0001
1000
1100
0000
,  // measure 40
1000
1000
0010
0010
,  // measure 41
0100
0100
0100
0000
0001
0001
0001
0000
,  // measure 42
1000
0000
0100
0000
0001
0001
0001
0000
,  // measure 43
0100
0000
0100
0000
1000
1000
1000
0000
,  // measure 44
0010
0100
0100
0001
,  // measure 45
1000
1000
1000
0000
0100
0100
0100
0000
,  // measure 46
0010
0000
0100
0000
1000
1000
1000
0000
,  // measure 47
0001
0001
0001
0000
0100
0100
0100
0000
,  // measure 48
0010
1000
0200
2300
,  // measure 49
3020
0230
0302
0000
,  // measure 50
1003
0100
0020
0032
,  // measure 51
0203
0000
0320
0000
2030
0000
0000
3000
,  // measure 52
0001
0010
0200
2300
,  // measure 53
3020
0230
2300
0000
,  // measure 54
3100
0001
0020
0230
,  // measure 55
2300
3002
0203
0320
,  // measure 56
0230
0000
0000
0000
,  // measure 57
0000
0000
0000
0000
0000
0000
0000
0300
,  // measure 58
2002
0000
0000
0000
,  // measure 59
0000
0000
0000
0000
,  // measure 60
3003
0000
0000
0000
;
