#TITLE:OVER DRIVE;
#SUBTITLE:DistorteD Ending;
#ARTIST:Tatsh;
#TITLETRANSLIT:;
#SUBTITLETRANSLIT:;
#ARTISTTRANSLIT:;
#CREDIT:;
#BANNER:[BEMANI Week] - OVER DRIVE.png;
#BACKGROUND:[BEMANI Week] - OVER DRIVE-bg.png;
#LYRICSPATH:;
#CDTITLE:;
#MUSIC:[BEMANI Week] - OVER DRIVE.mp3;
#OFFSET:1.240;
#SAMPLESTART:38.400;
#SAMPLELENGTH:12.000;
#SELECTABLE:YES;
#DISPLAYBPM:150.000;
#BPMS:0.000=150.020,179.000=300.040,187.000=150.020;
#STOPS:137.000=1.200
;
#BGCHANGES:;

//---------------dance-single - ----------------
#NOTES:
     dance-single:
     :
     Easy:
     5:
     0.261,0.329,0.207,0.061,0.000:
0000
0000
0000
0000
,
0000
0000
0000
0000
,
0000
0000
0000
0000
,
0000
0000
0000
0000
,
0100
0000
0100
0000
,
0100
0000
0100
0000
,
0110
0010
0001
0000
,
1000
0010
0100
0000
,
0001
0000
1000
0000
,
0100
1000
0001
0000
,
0100
0000
0010
0000
,
1000
0100
0010
0000
,
1001
0000
0100
0000
,
1001
0000
0010
0000
,
0110
0000
1000
0000
,
0110
0000
0001
0000
,
1000
0000
0100
0000
,
1000
0000
0010
0000
,
0100
0000
0010
0000
,
1000
0100
1000
0010
,
1000
0001
0010
0001
,
1001
1000
1000
0001
,
0002
0000
1003
0100
,
0000
1001
0000
0100
,
0010
1001
0000
0010
,
0100
0110
0000
0110
,
0000
0100
0001
0100
,
1000
0001
0100
0010
,
1000
0001
0010
0100
,
1000
0010
0100
0001
,
1000
0100
0010
0110
,
0010
0001
0100
0110
,
0010
1000
0100
0110
,
0010
0001
0100
0110
,
0000
1001
0100
1000
,
0100
0001
0010
1000
,
0010
0001
0100
0010
,
1000
0100
0010
0001
,
0001
1001
0100
0010
,
1000
0100
0000
0010
,
0001
0100
0010
1000
,
0100
0010
0000
0010
,
0001
0100
0020
0000
,
0000
1000
1030
0100
,
0100
0010
0001
0200
,
0000
0000
0000
0000
,
0000
0000
0300
2002
,
0000
0000
0000
0000
,
0000
0000
0000
0000
,
3003
0000
0000
0000
;

//---------------dance-single - ----------------
#NOTES:
     dance-single:
     :
     Medium:
     8:
     0.387,0.448,0.280,0.049,0.000:
0000
0000
0000
0000
,
0000
0000
0000
0000
,
0000
0000
0000
0000
,
0000
0000
0000
0000
,
0010
0000
0010
0000
,
0001
0000
0001
0000
,
0100
0010
1000
0100
,
1000
0000
0001
0000
0100
0000
0010
1000
,
0100
0010
0100
0001
,
0100
1000
0010
0100
,
0001
1000
0010
0001
,
0010
1000
0100
0000
0010
0000
0001
0000
,
1001
0010
0100
1000
,
1001
0100
0010
1000
,
0110
0010
0001
0100
,
0110
0000
1001
0000
,
1100
0000
0000
0000
0010
0001
0100
0000
,
0101
0000
0000
0000
1000
0100
0010
0000
,
0011
0000
0000
0000
0001
0100
0010
0000
,
1010
0100
1001
0010
,
1100
0001
0101
1001
,
0110
0100
0100
0100
,
0200
0000
0000
0000
0310
0000
0001
0100
,
0010
0000
0110
0000
1000
0000
0100
0010
,
0001
0000
1001
0000
0010
0000
0100
0001
,
0010
1100
0000
1100
,
0000
0000
1000
0100
0010
0000
0100
0010
,
0001
1000
0000
0000
0010
0000
0100
0000
,
0001
1000
0100
0010
0000
0000
0010
0000
,
0001
0000
0100
0000
0010
1000
0100
0000
,
0010
0001
1000
1001
,
1000
0000
0010
0100
0001
0000
0101
0000
,
0001
0000
1000
0100
0010
0000
0011
0000
,
1000
0000
0010
0100
0001
0000
0101
0000
,
1000
0000
0100
0000
0100
1000
0100
0000
,
1000
0010
1000
0000
0010
0100
0010
1000
,
0100
0000
0010
0000
0001
1000
0001
0000
,
1000
0001
1000
0000
0010
0100
0010
0100
,
0001
1000
0001
0010
0100
1000
0000
1000
,
0001
0100
0000
0000
0010
1000
0001
0010
,
0100
1000
0000
0001
0100
0010
0000
1000
,
0100
0010
0000
0100
0010
0001
1000
0010
,
0100
0001
1000
0000
0100
0010
0000
0010
,
0001
1000
0001
1000
0001
0010
0100
0010
,
0100
1000
0010
1000
0010
0010
0020
0000
,
0000
0000
0000
0000
,
0000
0000
0030
2002
,
0000
0000
0000
0000
,
0000
0000
0000
0000
,
3003
0000
0000
0000
;

//---------------dance-single - ----------------
#NOTES:
     dance-single:
     :
     Hard:
     9:
     0.568,0.657,0.305,0.085,0.238: // measure 1
0000
0000
0000
0000
,  // measure 2
0000
0000
0000
0000
,  // measure 3
0000
0000
0000
0000
,  // measure 4
0000
0000
0000
0000
,  // measure 5
0010
0000
0010
0000
,  // measure 6
1000
0000
1000
0000
,  // measure 7
0100
0000
0100
0010
0001
0001
0100
0010
,  // measure 8
1000
0100
0001
0100
1000
0010
0100
0001
,  // measure 9
1001
0000
0100
0000
0010
0001
0000
0001
0100
0000
0010
0000
2000
0000
0000
0000
,  // measure 10
3100
0000
0010
0000
0001
1000
0001
0000
1000
0000
0010
0000
0100
0000
0001
0000
,  // measure 11
0100
0100
0000
1000
0100
0100
0000
1000
,  // measure 12
0100
0001
1000
0010
0001
1000
0010
0000
,  // measure 13
0110
0000
0010
1000
0000
1000
0100
0000
0100
0010
0000
0001
0000
0000
0001
0000
,  // measure 14
0101
0000
0001
0100
0000
0100
0010
0000
0010
1000
0000
0100
0000
0000
0100
0000
,  // measure 15
1100
0000
0100
1000
0000
1000
0001
0000
0001
0100
0000
0010
0000
0000
0010
0000
,  // measure 16
1000
0100
1000
0000
0001
0000
0001
0000
0001
0100
0001
0000
1000
0000
1000
0000
,  // measure 17
1001
0000
0000
0000
0100
0000
0000
0000
0010
0000
0001
0010
0000
0000
0000
0000
,  // measure 18
1001
0000
0000
0000
0100
0000
0000
0000
0010
0000
1000
0100
0000
0000
0000
0000
,  // measure 19
0011
0000
0000
0000
0100
0000
0000
0000
1000
0001
1000
0000
0010
0000
0000
0000
,  // measure 20
0110
0001
1100
0010
,  // measure 21
0101
1000
1100
1001
,  // measure 22
1001
0000
0100
0000
0100
0001
0100
0001
,  // measure 23
0002
0000
0000
0000
0013
0000
0000
0000
0010
0000
0000
0000
0100
1000
0001
0000
,  // measure 24
0001
0000
0100
0000
1001
0000
0000
0000
0010
0000
0100
0000
1000
0001
0100
0000
,  // measure 25
0010
0000
0100
0000
1010
0000
0000
0000
0010
0000
1000
0000
0100
0010
0001
0000
,  // measure 26
1000
0010
0101
0000
1000
0000
1100
0000
,  // measure 27
1001
0000
0000
0000
0100
0000
0010
0000
1000
0000
0100
0000
0010
0001
0100
0000
,  // measure 28
0010
1000
0100
0000
0000
0000
0001
0000
0100
0000
1000
0000
0010
0000
0100
0000
,  // measure 29
0001
1000
0100
0000
0010
0000
0100
0000
0001
0000
0100
0000
1000
0000
0001
0000
,  // measure 30
0100
1000
0001
0010
1000
0001
0010
0100
,  // measure 31
1000
0100
1000
0000
0001
0000
0100
0010
0000
0000
1000
0000
1010
0000
0000
0000
,  // measure 32
0100
0000
0000
0000
0001
0000
1000
0100
0000
0000
0010
0000
0011
0000
0000
0000
,  // measure 33
1000
0000
0000
0000
0010
0000
0100
0001
0000
0000
1000
0000
1100
0000
0000
0000
,  // measure 34
0001
0000
0000
0000
0100
0000
0010
1000
0000
0000
0100
0000
0011
0000
0000
0000
,  // measure 35
1001
0000
0110
0000
0001
0100
0001
0100
,  // measure 36
0001
1000
0100
0010
0001
1000
0010
0100
,  // measure 37
0001
0010
0100
1000
0001
1000
0010
0001
,  // measure 38
1000
0000
0100
0000
0001
0000
0010
0000
0100
0000
1000
0000
0010
0100
0010
0100
,  // measure 39
0001
1000
0001
1000
0002
0000
0000
0000
1003
0000
0010
0000
0100
0000
0010
0000
,  // measure 40
1000
0100
0010
0001
1000
0010
0100
0001
,  // measure 41
1000
0100
1000
0001
0100
0010
1000
0100
,  // measure 42
0001
1000
0010
0001
1000
0010
1000
0100
,  // measure 43
0001
0100
1000
0000
0001
0100
0010
1000
,  // measure 44
0100
0010
0002
0010
0010
0010
0010
0010
,  // measure 45
0013
0000
0100
0000
1000
0001
1000
0001
1000
0001
1000
0001
0200
0000
0000
0000
,  // measure 46
0000
0000
0000
0000
,  // measure 47
0000
0300
0000
2002
,  // measure 48
0000
0000
0000
0000
,  // measure 49
0000
0000
0000
0000
,  // measure 50
3003
0000
0000
0000
;
