#TITLE:New Castle Legions;
#SUBTITLE:;
#ARTIST:Dirty Androids;
#TITLETRANSLIT:;
#SUBTITLETRANSLIT:;
#ARTISTTRANSLIT:;
#CREDIT:;
#BANNER: New Castle Legions.png;
#BACKGROUND: New Castle Legions-bg.png;
#LYRICSPATH:;
#CDTITLE:;
#MUSIC:New Castle Legions.mp3;
#OFFSET:-0.028;
#SAMPLESTART:48.030;
#SAMPLELENGTH:10.700;
#SELECTABLE:YES;
#DISPLAYBPM:120.000:180.000;
#BPMS:0.000=120.000,96.000=150.000,156.000=120.000,157.000=60.000,157.500=30.000,158.000=170.000,190.000=180.000;
#STOPS:;
#BGCHANGES:;

//---------------dance-single - ----------------
#NOTES:
     dance-single:
     :
     Beginner:
     2:
     0.148,0.169,0.102,0.000,0.000:
1000
0000
0001
0000
,
0100
0000
0010
0000
,
0100
0000
0001
0000
,
1000
0000
0000
0000
,
1001
0000
0001
0000
,
0100
0000
0010
0000
,
0100
0000
0000
0000
,
0010
0000
0000
0000
,
1000
0000
0001
0000
,
1000
0000
0100
0000
,
0010
0000
0000
0000
,
0100
0000
0000
0000
,
1001
0000
0001
0000
,
1000
0000
0100
0000
,
1000
0000
0000
0000
,
0001
0000
0000
0000
,
0100
0000
0001
0000
,
1000
0000
0100
0000
,
0010
0000
0000
0000
,
0100
0000
0000
0000
,
0010
0000
0001
0000
,
1000
0000
0001
0000
,
0100
0000
0010
0000
,
0100
0000
0000
0000
,
0010
0000
1000
0000
,
0010
0000
0100
0000
,
0001
0000
1000
0000
,
0001
0000
0000
0000
,
1000
0000
0100
0000
,
0010
0000
0001
0000
,
1000
0000
0010
0000
,
0100
0000
0001
0000
,
1000
0000
0001
0000
,
1000
0000
0001
0000
,
0100
0000
0010
0000
,
0110
0000
0000
0000
,
1001
0000
0000
0000
,
1000
0000
0001
0000
,
0100
0000
0000
0000
,
0010
0000
0000
0100
0001
0000
0000
0000
,
0000
0000
1000
0000
,
0001
0000
0010
0000
,
0000
0000
0100
0000
,
0010
0000
0001
0000
,
0001
0000
1000
0000
,
1000
0000
0010
0000
,
0010
0000
0100
0000
,
0100
0000
0010
0000
,
1000
0000
0001
0000
,
0100
0000
0001
0000
,
0010
0000
0001
0000
,
0000
0000
1001
0000
,
0000
0000
1000
0000
,
0100
0000
0010
0000
,
0100
0000
1000
0000
,
0000
0000
1001
0000
,
0000
0000
0001
0000
,
0100
0000
0010
0000
,
0100
0000
0001
0000
,
0000
0000
1001
0000
,
0000
0000
1000
0000
,
0100
0000
0010
0000
,
0001
0000
0100
0000
,
0000
0000
0110
0000
,
0000
0000
0110
0000
,
0000
0000
1001
0000
,
1001
0000
1001
0000
;

//---------------dance-single - ----------------
#NOTES:
     dance-single:
     :
     Hard:
     9:
     0.703,0.695,0.322,0.025,0.521:
0000
0000
0000
0000
,
0000
0000
0000
0000
,
0000
0000
0000
0000
,
0000
0000
0000
0000
,
0000
1000
0100
0000
1000
0000
0100
0000
0010
0000
0001
0100
0000
0100
0001
1000
,
0000
0001
0100
0000
0001
0000
0100
0000
0010
0000
1000
0100
0000
0100
1000
0001
,
0000
1000
0100
0000
0010
0000
0100
1000
0000
0001
0100
0000
0010
0000
0100
0001
,
0000
1000
0100
0000
0010
0000
0001
0000
1000
0010
1000
0010
0100
0001
0100
0001
,
1000
0000
0010
0000
0100
0000
0000
0010
0000
0000
1000
0000
0101
0000
0000
0000
,
0001
0000
0010
0000
0100
0000
0000
0010
0000
0000
0001
0000
1100
0000
0000
0000
,
1000
0000
0001
0000
0100
0000
0000
0001
0000
0000
0010
0000
1001
0000
0000
0000
,
0001
0000
1000
0000
0100
0000
0000
0010
0000
0000
0100
0000
1001
0000
0010
0000
,
0100
0000
1000
0000
0100
0000
0000
1000
0000
0000
0010
0000
1001
0000
0000
0000
,
0100
0000
0001
0000
0010
0000
0000
0001
0000
0000
0100
0000
1001
0000
0000
0000
,
1000
0000
0100
0000
1000
0000
0000
0010
0000
0000
0100
0000
0001
0000
0010
0000
,
1001
0000
0000
0000
0110
0000
0000
0000
1000
0100
0010
0001
0000
0010
0001
0010
,
0001
0000
0001
0000
1000
0000
0000
0010
0000
0000
0100
0000
1001
0000
0000
0000
,
1000
0000
1000
0000
0001
0000
0000
0010
0000
0000
0100
0000
1001
0000
0000
0000
,
1100
0000
0010
0100
0010
0001
1100
0000
,
1000
0000
1000
0000
0001
0100
0001
1000
0000
0100
1000
0000
0001
0000
0010
0000
,
0100
0000
1000
0000
0001
0000
0000
1010
0000
0000
0101
0000
1000
0000
0100
0000
,
0010
0000
0001
0000
1000
0000
0000
0011
0000
0000
1100
0000
0001
0000
1000
0000
,
0110
0000
0000
0000
1001
0000
0000
0001
1000
0000
0000
0000
0110
0000
0000
1000
,
0001
0000
0001
1000
0000
0010
0100
0010
0100
0000
0000
1001
0000
0000
0110
0000
,
0010
0000
1000
0000
0100
0000
0000
0010
0000
0000
0100
0000
1000
0100
0010
0001
,
0100
0000
0001
0000
0010
0000
0000
0100
0000
0000
0010
0000
0001
0100
0010
1000
,
0001
0000
1000
0000
0100
0000
0000
0010
0000
0000
0100
0000
1000
0010
0100
0001
,
1000
0000
0001
0000
0010
0000
0000
0100
0000
0000
0010
0000
0001
0010
0100
1000
,
0001
0000
0100
0000
0010
0000
0000
1000
0000
0000
0001
0000
1000
0001
0100
0001
,
0010
0000
0100
0000
1000
0000
0000
0010
0000
0000
1000
0000
0001
0100
0001
1000
,
0100
0000
0010
0000
0001
0000
0000
1000
0000
0000
0100
0000
0010
0000
0001
0000
,
1000
0000
0001
0100
0000
0010
1000
0010
1000
0001
0010
0000
0010
0000
0000
0000
,
0100
0000
0100
0000
1000
0000
0000
0001
0000
0000
0100
0000
0001
0010
0100
1000
,
0001
0000
0001
0000
0100
0000
0000
0010
0000
0000
1000
0000
0001
0010
0100
1000
,
0001
0000
1000
0000
0100
0000
0000
0010
0000
0000
0001
0000
1000
0010
0100
0001
,
1000
0000
1000
0000
0001
0000
1000
0100
0000
0010
0001
0000
1000
0100
0010
0001
,
1000
0000
1000
0000
0001
0000
0000
0100
0000
0000
0001
0000
0010
0100
1000
0001
,
0100
0000
0100
0000
0010
0000
0000
1000
0000
0000
0100
0000
1000
0010
0100
0001
,
0010
0100
1001
0000
0010
0100
1001
0000
,
0002
0000
0203
0320
1030
0100
0010
0001
,
0010
0100
1000
0001
0100
0000
0100
0001
,
0000
0001
0010
0010
0001
0100
0010
1000
,
0010
0100
0001
1000
0100
0000
0100
1000
,
0000
0010
0100
0010
1000
0100
0010
0100
,
1000
0010
0100
0010
1000
0000
0100
0010
,
0000
0001
0100
0100
0001
0010
0100
0010
,
0001
0100
0010
0100
0001
0000
1000
0010
,
0000
1000
0100
0010
0001
0010
0100
1000
,
0010
1000
0010
1000
0010
0000
1000
0000
0001
0000
0010
0000
0100
0000
0010
0000
,
0001
0010
0001
0010
0001
0010
0001
0000
0010
0000
0100
0000
1000
0000
0010
0000
,
0100
0001
0100
0001
0100
0000
0010
0000
1000
0000
0001
0000
0010
0000
0100
1000
,
0100
1000
0100
1000
0100
0000
1000
0000
0001
0000
0100
0000
0001
0000
0010
0000
,
0100
0010
0100
0010
0100
0000
1000
0000
0001
0000
0100
0000
0010
0000
1000
0000
,
0010
0100
0010
0100
0010
0100
0010
0000
0100
0000
0001
0000
1000
0000
0100
0000
,
1000
0001
1000
0001
1000
0001
1000
0000
0100
0000
0000
0000
0010
0000
0000
0000
,
1001
0000
1001
0000
0100
0000
0000
0000
0010
0000
0000
0001
0010
0000
0100
0000
,
0000
0000
0010
0000
1001
0000
0000
0000
1000
0000
0000
0010
0100
0000
0010
0000
,
0000
0000
1000
0000
0101
0000
0000
0000
0001
0000
0000
0010
0100
0000
0010
0000
,
0000
0000
0100
0000
1100
0000
0000
0000
1000
0000
0000
0001
1000
0000
0010
0000
,
0000
0100
0101
0000
1000
0001
0100
0001
,
1000
0100
0010
0000
0001
0010
1000
0001
,
0100
1000
0010
0000
0100
0001
0100
0001
,
1000
0000
0100
0000
0010
0000
0001
0000
1001
0000
0000
0011
0000
0000
1100
0000
,
0000
1000
0001
0000
1000
0000
0010
0000
0100
0000
0000
0001
1000
0000
0100
0000
,
1000
0000
0010
0000
0101
0000
0000
0000
0001
0000
0000
1000
0001
0000
0100
0000
,
0001
0000
0010
0000
1100
0000
0000
0000
0011
0000
0000
0100
1000
0000
0000
0000
,
1010
0000
0000
0100
0001
0000
0000
0000
1000
0010
1000
0000
0001
0100
0001
0000
,
1000
0001
0100
0001
0010
0100
1000
0000
0001
0000
0100
0000
0000
0000
0001
0000
,
0010
0000
0100
1000
0000
0010
1000
0000
,
0100
0000
0000
0000
0010
0000
0000
0000
1001
0000
0000
0001
0100
0000
0010
0000
,
1001
0000
0000
1000
0100
0000
0010
0000
0001
0010
0001
0000
1000
0100
1000
0000
,
0001
0010
0100
1000
0001
0100
0001
0000
0000
0000
0000
0000
0000
0000
0000
0000
;

//---------------dance-single - ----------------
#NOTES:
     dance-single:
     :
     Medium:
     6:
     0.528,0.484,0.127,0.025,0.000:
0000
0000
0000
0000
,
0000
0000
0000
0000
,
0000
0000
0000
0000
,
0000
0000
0000
0000
,
0000
1000
0001
0100
0001
1000
0010
0000
,
0000
0001
1000
0100
1000
0001
0010
0000
,
0000
0100
1000
0010
0000
0100
0001
0010
,
0000
0100
1000
0010
0100
0001
0010
0100
,
1000
0000
0101
0000
1000
0001
0100
0000
,
0001
0000
0101
0000
0001
1000
0100
0000
,
0010
0000
0011
0000
0010
0100
1000
0000
,
0001
0100
0001
0000
1000
0100
1000
0000
,
0001
0000
0101
0000
1000
0001
0100
0000
,
1000
0000
1100
0000
0001
1000
0100
0000
,
0010
0001
0010
0000
0100
1000
0100
0000
,
0011
0000
0011
0000
0100
1000
0001
1000
,
0010
0100
0010
0000
1000
0000
0001
0000
,
0010
0100
0010
0000
0001
0000
1000
0000
,
0101
0000
1100
0000
0001
1000
0100
0000
,
0010
0001
0010
0100
1000
0001
1000
0000
,
0010
0000
0110
0000
0100
0001
0010
0000
,
0100
0000
0110
0000
0100
1000
0010
0000
,
0100
1001
0100
1001
,
1100
0000
0101
0000
1000
0001
0100
0010
,
1000
0001
0100
0000
0001
1000
0010
0000
,
1000
0100
0010
0001
0010
0001
1000
0000
,
0001
1000
0100
0000
1000
0001
0100
0000
,
0001
0010
0001
0010
0100
1000
0010
0000
,
0100
0001
0100
0000
0010
1000
0010
0000
,
0100
0001
0010
0100
1000
0001
0010
0000
,
0100
1000
0100
0000
0010
0001
0010
0000
,
0100
0100
1000
1000
0001
0001
0100
0000
,
0010
1000
0010
0100
0001
0010
0001
0000
,
1000
0010
1000
0010
0100
0001
0010
0000
,
0001
1000
0001
1000
0001
0010
0100
0000
,
0010
0001
0010
0001
0010
0100
1000
0001
,
1000
0010
1000
0010
0100
0010
1000
0000
,
0001
0010
0001
0010
0001
0010
0100
0000
,
1000
0100
0010
0000
0001
0100
0010
0000
,
2000
0000
3002
2003
3100
1000
0001
0000
,
0100
0001
1000
0000
0010
1000
0001
0010
,
0001
1000
0010
0000
0100
1000
0001
0000
,
0100
0001
1000
0000
0010
1000
0010
1000
,
0010
0100
0001
0000
0010
0100
1000
0000
,
0001
0100
0010
0000
1000
0001
1000
0001
,
0010
0100
0010
0000
0100
0010
0001
0000
,
0100
0010
1000
0000
0010
0100
0010
0100
,
0001
1000
0100
0000
0010
0000
0010
0000
,
0001
0100
0010
1000
0001
0000
0001
0000
,
1000
0010
0100
0001
1000
0000
1000
0000
,
0100
0010
0001
1000
0010
0000
0010
0000
,
1000
0100
0010
0100
1000
0000
1000
0000
,
0001
0100
0010
0100
0001
0000
0001
0000
,
1000
0100
0010
0100
1000
0000
0001
0000
,
0100
0010
0100
0010
0100
0000
0010
0000
,
1000
0100
1000
0000
0001
0010
0100
1000
,
0001
0010
0100
0000
1000
0001
0010
0100
,
1000
0001
0010
0000
0001
1000
0010
0100
,
0001
1000
0010
0000
0100
0001
1000
0010
,
0100
0001
1000
0000
0001
0100
0001
1000
,
0001
1000
0100
1000
0001
1000
0001
0010
,
0001
1000
0001
0000
1000
0100
1000
0000
,
0001
0100
0001
0000
1000
0010
1000
0010
,
0100
0001
0010
0000
0100
1000
0010
1000
,
0000
0100
0010
0000
0001
0100
0010
0100
,
0000
0001
0010
0000
0100
1000
0010
0000
,
0100
0001
0010
0000
0100
1000
0010
0100
,
0001
0010
0100
0000
1000
0001
0000
1000
,
0010
0000
1000
0100
0000
0010
0001
0000
,
1000
0000
0001
0000
0100
0001
0000
0010
,
0001
0000
0100
0010
1000
0100
0010
0100
,
1000
0001
0100
0010
0000
0000
0000
0000
;

//---------------dance-single - Copied from----------------
#NOTES:
     dance-single:
     Copied from:
     Easy:
     4:
     0.300,0.392,0.237,0.008,0.000:
0000
0000
0000
0000
,
0000
0000
0000
0000
,
0000
0000
0000
0000
,
0000
0000
0000
0000
,
0000
1000
0010
0000
,
0000
0001
0010
0000
,
0000
0010
0000
0010
,
0000
0010
1000
0100
,
1000
0100
0000
0101
,
0001
0100
0000
1100
,
1000
0100
0000
1001
,
0001
0100
0000
1001
,
0100
0100
0000
1001
,
0100
0010
0000
1001
,
1000
1000
0000
0001
,
1001
0110
1000
0000
,
0001
1000
0000
1001
,
1000
0001
0000
1001
,
0000
0010
0000
1100
,
1000
0001
0000
0001
,
0100
0001
0000
1000
,
0010
1000
0000
0001
,
0110
1001
1000
0110
,
0001
0000
0100
0000
,
0010
0100
0000
1000
,
0100
0010
0000
0001
,
0001
0100
0000
1000
,
1000
0010
0000
0001
,
0001
0010
0000
1000
,
0010
1000
0000
0001
,
0100
0001
0000
0010
,
1000
0000
1000
0010
,
0100
1000
0000
0001
,
0001
0100
0000
0001
,
0001
0100
0000
1000
,
1000
0001
0000
1000
,
1000
0001
0000
0010
,
0100
0010
0000
1000
,
0010
1001
0010
1001
,
2000
0000
3001
0010
,
0010
1000
0100
0100
,
0000
0010
0001
0010
,
0010
0001
0100
0100
,
0000
0100
1000
0010
,
1000
0100
1000
0100
,
0000
0100
0001
0100
,
0001
0010
0001
1000
,
0000
0100
0001
0100
,
0010
0010
0001
0100
,
0001
0001
0010
1000
,
0100
0100
1000
0010
,
0100
0100
0001
0001
,
0100
0100
0001
0010
,
0010
0010
0100
1000
,
1000
1000
0010
0001
,
1001
0100
0010
0010
,
0000
1001
1000
0100
,
0000
0101
0001
0100
,
0000
1100
1000
1000
,
0000
0101
1000
0100
,
1000
0010
0001
1000
,
0100
0010
0100
0100
,
1000
0010
1001
0000
,
0000
1000
0100
1000
,
1000
0101
0001
0001
,
0001
1100
0011
1000
,
1010
0001
1000
0001
,
1000
0010
0001
0000
,
0010
0100
0000
1000
,
0100
0010
1001
0100
,
1001
0100
0001
1000
,
0001
0001
0000
0000
;

//---------------dance-double - ----------------
#NOTES:
     dance-double:
     :
     Challenge:
     9:
     0.618,0.605,0.271,0.017,0.123: // measure 1
00000000
00000000
00000000
00000000
,  // measure 2
00000000
00000000
00000000
00000000
,  // measure 3
00000000
00000000
00000000
00000000
,  // measure 4
00000000
00000000
00000000
00000000
,  // measure 5
00000000
00001000
00010000
01000000
10000000
00100000
00010000
00001000
,  // measure 6
00000000
00010000
00001000
00000100
00000001
00000010
00001000
00010000
,  // measure 7
00000000
00000000
00001000
00000000
00100000
00000000
00010000
10000000
00000000
00000000
00010000
00000000
01000000
00000000
00001000
00010000
,  // measure 8
00000000
00000000
00000100
00000000
00001000
00000000
00000001
00000000
00000010
00000100
00000010
00000100
00001000
00000100
00001000
00000100
,  // measure 9
00000010
00001000
00010000
01000000
00010000
00001000
00011000
00000000
,  // measure 10
00100000
00010000
00001000
00000100
00001000
00010000
00011000
00000000
,  // measure 11
00001000
00100000
00010000
10000000
01000000
00100000
01100000
00000000
,  // measure 12
00010000
00100000
00001000
00010000
00000010
00000100
00000110
00000000
,  // measure 13
00000100
00001000
00010000
00100000
10000000
01000000
01100000
00000000
,  // measure 14
01000000
00010000
00001000
00000010
00000001
00000100
00000110
00000000
,  // measure 15
00000010
00010000
00001000
00100000
,  // measure 16
00100010
00000000
00000000
00000000
00011000
00000000
00000000
00000000
00010000
00001000
00010000
00001000
00000000
00001000
00010000
00000000
,  // measure 17
00100000
01000000
00001000
00010000
00001000
00100000
00001000
00000000
,  // measure 18
00000010
00000100
00010000
00001000
00010000
00000010
00001000
00000000
,  // measure 19
00100000
00000000
00000000
00000000
00110000
00000000
00000000
00100000
10000000
00000000
00010000
00000000
01000000
00000000
00000000
00000000
,  // measure 20
00100000
10000000
01000000
00010000
00001000
00010000
00100000
00000000
,  // measure 21
10000000
00010000
01000000
00001000
00010000
00000100
00000010
00000000
,  // measure 22
00000001
00001000
00000100
00010000
00001000
00100000
00010000
00000000
,  // measure 23
10010000
00000000
00000000
00001000
00010000
00000000
00000000
00000000
00011000
00000000
00000000
00000001
00001000
00000000
00000000
00000000
,  // measure 24
00000001
00000000
00000010
00000100
00000000
00001000
00000001
00000100
00000010
00000000
00000000
00010000
00000000
00000000
00001000
00000000
,  // measure 25
00010000
00100000
10000000
00100000
00010000
00001000
00000100
00001000
,  // measure 26
00010000
01000000
00010000
00001000
00000010
00000001
00000010
00001000
,  // measure 27
00010000
00001000
00000100
00000001
00000010
00000100
00010000
00001000
,  // measure 28
00010000
01000000
10000000
00100000
00010000
00001000
00000100
00001000
,  // measure 29
00010000
00010000
00100000
10000000
01000000
00100000
01000000
10000000
,  // measure 30
00010000
10000000
00100000
00010000
00001000
00000100
00000001
00001000
,  // measure 31
00000100
00000010
00000100
00001000
00000001
00000100
00001000
00010000
,  // measure 32
00001000
00000000
01000000
00001000
00000000
00010000
00000100
00010000
00000100
00010000
00001000
00000000
00001000
00000000
00000000
00000000
,  // measure 33
00011000
00000000
00011000
00000000
00010000
00100000
00010000
00001000
,  // measure 34
00011000
00000000
00011000
00000000
00010000
00001000
00000100
00001000
,  // measure 35
00011000
00000000
00011000
00000000
00001000
00000010
00001000
00010000
,  // measure 36
00011000
00000000
01000100
00000000
00000100
01000000
00010000
10000000
,  // measure 37
00100000
01000000
00100000
10000000
01000000
00010000
00001000
00000010
,  // measure 38
00000001
00000100
00000010
00000100
00000001
00000010
00001000
00010000
,  // measure 39
01000000
10000000
11000000
00000000
01000000
00010000
01010000
00000000
,  // measure 40
00010000
00001000
00022000
00033000
00001000
00010000
00001000
00100000
,  // measure 41
00010000
01000000
00001000
00010000
00001000
00000000
00000100
00001000
,  // measure 42
00000000
00001000
00010000
00100000
00010000
00001000
00010000
00000010
,  // measure 43
00001000
00000100
00010000
00001000
00010000
00000000
01000000
00010000
,  // measure 44
00000000
00010000
00001000
00010000
00001000
00001000
00100000
00100000
,  // measure 45
00010000
00010000
10000000
10000000
01000000
00000000
00010000
01000000
,  // measure 46
00000000
10000000
00100000
00010000
00001000
00001000
00010000
00010000
,  // measure 47
00000100
00000100
00000010
00000010
00000001
00000000
00000100
00001000
,  // measure 48
00000000
00010000
01000000
10000000
00100000
10000000
01000000
10000000
,  // measure 49
00100000
00010000
00001000
00000100
00000001
00000010
00000001
00000100
,  // measure 50
00000001
00000010
00001000
00010000
01000000
10000000
00100000
01000000
,  // measure 51
00010000
10000000
01000000
00010000
00001000
00000010
00000001
00001000
,  // measure 52
00000001
00000100
00001000
00010000
00100000
10000000
01000000
00010000
,  // measure 53
10000000
00100000
00010000
00000010
00000001
00000100
00000001
00000100
,  // measure 54
00001000
00010000
01000000
10000000
00100000
01000000
00100000
10000000
,  // measure 55
01000000
00010000
00001000
00000100
00000001
00000000
00001010
00000000
,  // measure 56
00000001
00000000
00000010
00000000
00000100
00000000
00000000
00000000
00000011
00000000
00000000
00001000
00000100
00000000
00010000
00000000
,  // measure 57
00000000
00000000
00001000
00000000
00010000
00000000
00000000
00000000
00011000
00000000
00000000
01000000
00010000
00000000
10000000
00000000
,  // measure 58
00000000
00000000
00100000
00000000
10000000
00000000
00000000
00000000
10100000
00000000
00000000
00010000
01000000
00000000
00001000
00000000
,  // measure 59
00000000
00000000
00010000
00000000
00001000
00000000
00000000
00000000
00011000
00000000
00000000
00000100
00010000
00000000
00000010
00000000
,  // measure 60
00000000
00000100
00000001
00000000
00000010
00001000
00010000
00001000
,  // measure 61
00000100
00000001
00000010
00000000
00000001
00000100
00001000
00010000
,  // measure 62
00001000
00000010
00000001
00000000
00000010
00001000
00010000
00001000
,  // measure 63
00010000
00000000
00100000
00000000
10000000
00000000
00000000
00000000
10100000
00000000
00000000
01010000
00000000
00000000
10100000
00000000
,  // measure 64
00000000
00010000
01000000
00001000
00010000
00001000
00000100
00001000
,  // measure 65
00010000
00100000
00010000
00000000
00001000
00010000
01000000
00010000
,  // measure 66
00001000
00000000
00000010
00000000
00001000
00000000
00000000
00000000
00011000
00000000
00000000
00100000
00001000
00000000
00000000
00000000
,  // measure 67
00011000
00000000
00000000
00000010
00010000
00000000
00000000
00000000
00001000
00000000
00000000
00001000
00010000
00000000
00000000
00010000
,  // measure 68
00100000
10000000
01000000
00100000
00010000
00010000
00000000
00001000
,  // measure 69
00001000
00000000
01000000
01000000
00000000
00100000
00100000
00000000
,  // measure 70
00001000
00000000
00010000
00000000
00000100
00000100
00000000
00000010
,  // measure 71
00000010
00000000
00000001
00000000
00000100
00001000
00010000
00100000
,  // measure 72
10000000
00100000
00010000
00001000
00000000
00000000
00000000
00000000
;
