#TITLE:LEVEL5 -judgelight-;
#SUBTITLE:;
#ARTIST:fripSide;
#TITLETRANSLIT:;
#SUBTITLETRANSLIT:;
#ARTISTTRANSLIT:;
#CREDIT:;
#BANNER:LEVEL5 -judgelight-.png;
#BACKGROUND:LEVEL5 -judgelight--bg.png;
#LYRICSPATH:;
#CDTITLE:;
#MUSIC:LEVEL5 -judgelight-.mp3;
#OFFSET:-1.042;
#SAMPLESTART:13.910;
#SAMPLELENGTH:17.220;
#SELECTABLE:YES;
#BPMS:0.000=139.500;
#STOPS:;
#BGCHANGES:;

//---------------dance-single - ----------------
#NOTES:
     dance-single:
     :
     Hard:
     7:
     0.475,0.454,0.164,0.185,0.164:
0000
0000
0000
0000
,
0000
0000
0000
0000
,
0000
0000
0000
0000
,
0000
0000
0000
0000
,
1000
1100
0100
0110
,
0010
0011
0001
0101
,
0100
0010
1000
0000
0010
0100
0001
0000
,
1000
0100
0010
0001
1000
1000
0001
0001
,
1001
0000
0000
0000
0001
0000
0100
0000
0010
0000
0000
0100
0000
0000
0001
0000
,
0010
0100
1000
0001
0200
0000
0310
1000
,
0001
0000
0000
0100
0000
0000
0010
0000
1000
0000
0000
0100
0000
0000
0010
0000
,
0001
1000
0100
0000
1000
0010
0100
0010
,
1010
0000
0000
0000
1000
0000
0100
0000
0010
0000
0000
0100
0000
0000
1000
0000
,
0010
0000
0100
0000
0001
0000
0100
0000
0010
0000
0000
0100
0000
0000
0001
0000
,
0020
0000
0130
0000
0010
0001
1000
0010
,
0100
0001
0010
0000
0100
1000
0010
0000
,
0100
0001
0010
1000
0010
0001
0100
1000
,
0100
0000
0000
0001
0000
0000
0020
0000
0000
0000
0031
0000
0100
0000
0010
0000
,
1000
0000
0000
0100
0000
0000
0020
0000
0001
0000
0000
0000
1030
0000
0000
0000
,
0001
0000
0000
1000
0000
0000
0200
0000
0000
0000
1300
0000
0010
0000
0100
0000
,
0001
0000
0000
0010
0000
0000
1000
0000
0020
0000
0000
0000
0031
0000
0000
0000
,
0011
0000
0101
0000
0110
0000
0010
1000
,
1010
0000
1001
0000
1000
0100
0001
0100
,
2000
0000
3010
0100
0002
0000
0103
0010
,
1000
0000
0000
0001
0000
0000
0010
0000
0100
0000
0100
0000
0010
0000
0010
0000
,
0001
0000
0000
0100
0000
0000
0010
0000
1000
0000
0000
0010
0000
0000
0100
0000
,
0001
0000
0000
0100
0000
0000
1000
0000
0020
0000
0000
0000
0130
0000
0000
0000
,
0001
0000
0000
0010
0000
0000
0100
0000
1000
0000
0000
0100
0000
0000
0010
0000
,
0001
0000
0000
0010
0000
0000
1000
0000
0200
0000
0000
0000
0301
0000
0000
0000
,
0100
0000
0000
1000
0000
0000
0010
0000
0200
0000
0000
0000
0310
0000
0000
0000
,
0100
0000
0000
0001
0000
0000
0010
0000
0100
0000
0000
1000
0000
0000
0010
0000
,
0100
0000
0000
0001
0000
0000
1000
0000
0010
0000
0000
1000
0000
0000
0001
0000
,
1000
0000
0000
0100
0000
0000
0001
0000
0010
0000
1000
0000
0001
0000
0100
0000
,
0110
0000
0000
0000
0010
0000
0100
0000
0001
0000
0000
0010
0000
0000
0100
0000
,
1000
0010
0001
0010
2000
0000
3001
1000
,
0001
0000
0000
0100
0000
0000
0010
0000
1000
0000
0000
0100
0000
0000
0010
0000
,
0001
1000
0100
0000
1000
0010
0100
0010
,
1010
0000
0000
0000
1000
0000
0100
0000
0010
0000
0000
0100
0000
0000
1000
0000
,
0010
0000
0100
0000
0001
0000
0100
0000
0010
0000
0000
0100
0000
0000
0001
0000
,
0020
0000
0130
0000
0010
0001
1000
0010
,
0100
0001
0010
0000
0100
1000
0010
0001
,
0101
0000
0000
0000
0100
0000
0010
0000
0001
0000
0000
0100
0000
0000
0010
0000
,
1000
0100
0001
0100
2000
0000
3001
1000
,
0010
0000
0000
0001
0000
0000
1000
0000
0100
0000
0000
0001
0000
0000
1000
0000
,
0010
0100
0001
0000
0010
0100
1000
0001
,
1001
0000
0000
0000
0001
0000
0100
0000
0010
0000
0000
0100
0000
0000
0001
0000
,
0010
0000
0100
0000
1000
0000
0001
0000
0100
0000
0000
0010
0000
0000
0100
0000
,
0002
0000
1003
0000
0001
0100
1000
0010
,
0001
0100
1000
0000
0001
0010
1000
0010
,
0002
0000
0103
0000
0010
1000
0100
0001
,
0010
1000
0001
0000
0100
0001
1000
0000
,
2002
0000
0000
0000
,
3003
0000
0000
0000
;

//---------------dance-single - ----------------
#NOTES:
     dance-single:
     :
     Beginner:
     1:
     0.098,0.131,0.010,0.000,0.000: // measure 1
0000
0000
0000
0000
,  // measure 2
0000
0000
0000
0000
,  // measure 3
0000
0000
0000
0000
,  // measure 4
0000
0000
0000
0000
,  // measure 5
1000
0000
1000
0000
,  // measure 6
1000
0000
1000
0000
,  // measure 7
0001
0000
0001
0000
,  // measure 8
0001
0000
0001
0000
,  // measure 9
0001
0000
0000
0000
,  // measure 10
0100
0000
0000
0000
,  // measure 11
0010
0000
0000
0000
,  // measure 12
1000
0000
1000
0000
,  // measure 13
1000
0000
0000
0000
,  // measure 14
0001
0000
0000
0000
,  // measure 15
0010
0000
0000
0000
,  // measure 16
0100
0000
0100
0000
,  // measure 17
1000
0000
1000
0000
,  // measure 18
0001
0000
0000
0000
,  // measure 19
0100
0000
0000
0000
,  // measure 20
0010
0000
0000
0000
,  // measure 21
1000
0000
1000
0000
,  // measure 22
1000
0000
0000
0000
,  // measure 23
0001
0000
0000
0000
,  // measure 24
0100
0000
0100
0000
,  // measure 25
0100
0000
0000
0000
,  // measure 26
0010
0000
0010
0000
,  // measure 27
0010
0000
0000
0000
,  // measure 28
1000
0000
1000
0000
,  // measure 29
1000
0000
0000
0000
,  // measure 30
0001
0000
0001
0000
,  // measure 31
0001
0000
0000
0000
,  // measure 32
0100
0000
0100
0000
,  // measure 33
0100
0000
0000
0000
,  // measure 34
0010
0000
0000
0000
,  // measure 35
1000
0000
0000
0000
,  // measure 36
0001
0000
0000
0000
,  // measure 37
0100
0000
0100
0000
,  // measure 38
0100
0000
0000
0000
,  // measure 39
0001
0000
0000
0000
,  // measure 40
0010
0000
0010
0000
,  // measure 41
0010
0000
0000
0000
,  // measure 42
0100
0000
0000
0000
,  // measure 43
1000
0000
0000
0000
,  // measure 44
0001
0000
0000
0000
,  // measure 45
0100
0000
0100
0000
,  // measure 46
0100
0000
0000
0000
,  // measure 47
0010
0000
0000
0000
,  // measure 48
1000
0000
1000
0000
,  // measure 49
1000
0000
0000
0000
,  // measure 50
0001
0000
0001
0000
,  // measure 51
0001
0000
0000
0000
,  // measure 52
1001
0000
0000
0000
;

//---------------dance-single - ----------------
#NOTES:
     dance-single:
     :
     Easy:
     3:
     0.260,0.252,0.041,0.000,0.000: // measure 1
0000
0000
0000
0000
,  // measure 2
0000
0000
0000
0000
,  // measure 3
0000
0000
0000
0000
,  // measure 4
0000
0000
0000
0000
,  // measure 5
1000
1000
1000
1000
,  // measure 6
0001
0001
0001
0001
,  // measure 7
0100
0100
0100
0100
,  // measure 8
0010
0010
1000
0001
,  // measure 9
1001
1000
0010
0100
,  // measure 10
0010
1000
0100
0000
,  // measure 11
0010
0010
0100
0100
,  // measure 12
1000
1000
0001
0001
,  // measure 13
0100
0010
0100
0001
,  // measure 14
0010
0100
0010
0001
,  // measure 15
1000
1000
0001
0001
,  // measure 16
0100
0010
1000
0010
,  // measure 17
0100
0001
1000
0100
,  // measure 18
0010
0100
1000
0100
,  // measure 19
0010
0001
0100
0000
,  // measure 20
0010
1000
0100
1000
,  // measure 21
0001
0010
0001
0000
,  // measure 22
0100
0100
0100
0010
,  // measure 23
1000
1000
1000
0001
,  // measure 24
1000
0100
0001
0100
,  // measure 25
1000
0010
0001
0010
,  // measure 26
1000
1000
0001
0001
,  // measure 27
0100
0010
1000
0000
,  // measure 28
0001
0001
1000
1000
,  // measure 29
0100
0010
0001
0000
,  // measure 30
1000
0100
0001
0000
,  // measure 31
1000
0010
0001
0010
,  // measure 32
1000
0100
0001
0100
,  // measure 33
1000
0010
0100
0001
,  // measure 34
1001
1000
0100
0001
,  // measure 35
0100
1000
0010
0000
,  // measure 36
0001
0001
0010
0010
,  // measure 37
1000
1000
0100
0100
,  // measure 38
0010
0001
0100
0001
,  // measure 39
0010
0100
1000
0001
,  // measure 40
0100
0100
0010
0010
,  // measure 41
1000
0001
0100
0010
,  // measure 42
1001
1000
0100
0001
,  // measure 43
0100
1000
0010
0000
,  // measure 44
0001
0001
0010
0010
,  // measure 45
1000
1000
0100
0100
,  // measure 46
1000
0001
0010
0001
,  // measure 47
0100
0010
1000
0010
,  // measure 48
0100
0100
0001
0001
,  // measure 49
1000
1000
0010
0010
,  // measure 50
0110
0000
0000
0000
;

//---------------dance-single - ----------------
#NOTES:
     dance-single:
     :
     Medium:
     5:
     0.411,0.393,0.339,0.021,0.000: // measure 1
0000
0000
0000
0000
,  // measure 2
0000
0000
0000
0000
,  // measure 3
0000
0000
0000
0000
,  // measure 4
0000
0000
0000
0000
,  // measure 5
1000
0100
0010
0011
,  // measure 6
0001
0100
0010
1010
,  // measure 7
0010
1000
0100
0110
,  // measure 8
0010
0000
0001
0000
1000
0010
0100
0001
,  // measure 9
1000
0000
0001
0000
0010
0100
0010
0000
,  // measure 10
0001
0000
0100
0010
0100
0000
1001
0000
,  // measure 11
1000
0100
1000
0000
0001
0100
0001
0000
,  // measure 12
1000
0010
1000
0000
0001
0010
0001
0000
,  // measure 13
1001
0000
1000
0000
0100
0010
0100
0000
,  // measure 14
1000
0000
0001
0000
0100
0010
0100
0000
,  // measure 15
0101
0101
1010
1010
,  // measure 16
1000
0001
1000
0000
0010
0100
0010
0000
,  // measure 17
1000
0100
1000
0100
0010
0001
0010
0001
,  // measure 18
0100
0000
0010
0000
1000
0000
0001
0100
,  // measure 19
0001
1000
0010
0110
,  // measure 20
0010
0000
1000
0000
0100
0000
0010
0001
,  // measure 21
0010
0100
1000
1001
,  // measure 22
0100
0100
0100
1001
,  // measure 23
0010
0010
0010
1001
,  // measure 24
1000
1100
0001
0101
,  // measure 25
1000
0010
1000
0000
0001
0010
0100
1000
,  // measure 26
0001
0001
1000
1000
,  // measure 27
0010
0000
0100
0001
0100
0000
1010
0000
,  // measure 28
1000
1000
0001
0001
,  // measure 29
0100
0000
0010
0001
0010
0000
1100
0000
,  // measure 30
0010
0000
0100
0001
0200
0000
0310
0000
,  // measure 31
1000
0000
0001
0100
0002
0000
1003
0000
,  // measure 32
0001
0010
0100
0000
1000
0100
0010
0000
,  // measure 33
0001
0100
0010
1000
0001
0010
0100
1000
,  // measure 34
0001
0000
1000
0000
0100
0010
0100
0000
,  // measure 35
1000
0000
0010
0100
0010
0000
1001
0000
,  // measure 36
0001
0100
0001
0000
0100
1000
0100
0000
,  // measure 37
1000
0010
1000
0000
0010
0001
0010
0000
,  // measure 38
0011
0000
0001
0000
0100
0010
0100
0000
,  // measure 39
0001
0000
0010
0000
0100
0010
0100
0000
,  // measure 40
1001
1001
0110
0110
,  // measure 41
1000
0100
1000
0000
0001
0010
0100
1000
,  // measure 42
0001
0000
0100
0000
0010
1000
0010
0000
,  // measure 43
0100
0000
0001
0100
0001
0000
0101
0000
,  // measure 44
0001
0010
0100
0000
0010
0100
1000
0000
,  // measure 45
0100
1000
0010
0000
1000
0010
0100
0001
,  // measure 46
1000
0000
0001
0000
0010
0100
0010
0000
,  // measure 47
0001
0000
0100
0000
0010
0100
0010
0000
,  // measure 48
0110
0110
1001
1001
,  // measure 49
1000
0100
0010
0000
0001
0100
0010
0000
,  // measure 50
1001
1001
0110
0110
,  // measure 51
0001
0100
0010
1000
0010
0100
0001
0000
,  // measure 52
1001
0000
0000
0000
;
