#TITLE:Heaven Or Hell;
#SUBTITLE:(Can-Can);
#ARTIST:GGOMAK;
#TITLETRANSLIT:;
#SUBTITLETRANSLIT:;
#ARTISTTRANSLIT:;
#GENRE:;
#CREDIT:;
#MENUCOLOR:;
#METERTYPE:DDR;
#BANNER:Heaven or Hell (Can-Can).png;
#BACKGROUND:Heaven or Hell (Can-Can)-bg.png;
#LYRICSPATH:;
#CDTITLE:;
#MUSIC:Heaven Or Hell (Can-Can).ogg;
#OFFSET:-2.685;
#SAMPLESTART:62.340;
#SAMPLELENGTH:17.220;
#SELECTABLE:YES;
#LISTSORT:;
#BPMS:0.000=195.001;
#STOPS:;
#BGCHANGES:;
#ATTACKS:;

//---------------dance-single - ----------------
#NOTES:
     dance-single:
     :
     Beginner:
     4:
     0.351,0.379,0.135,0.000,0.000: // measure 1
1000
0001
1000
0001
,  // measure 2
1000
0000
0000
0000
,  // measure 3
0100
0100
0001
0001
,  // measure 4
1000
0000
0000
0000
,  // measure 5
1000
1000
0001
0001
,  // measure 6
1000
0000
0000
0000
,  // measure 7
0100
0100
0010
0010
,  // measure 8
1000
0000
0000
0000
,  // measure 9
0001
0001
0100
0100
,  // measure 10
0010
0000
0000
0000
,  // measure 11
1001
0000
0000
0000
,  // measure 12
1100
0000
1100
0000
,  // measure 13
0101
0000
0101
0000
,  // measure 14
1010
0000
1010
0000
,  // measure 15
1100
0000
1100
0000
,  // measure 16
0101
0000
1000
0000
,  // measure 17
0010
0000
0100
0000
,  // measure 18
0001
0010
0100
1000
,  // measure 19
0001
0010
0100
1000
,  // measure 20
0100
0010
0001
1000
,  // measure 21
0100
0010
0001
1000
,  // measure 22
0100
0010
0001
0000
,  // measure 23
1000
0001
1000
0001
,  // measure 24
0010
0001
0010
0001
,  // measure 25
1000
0100
0010
0001
,  // measure 26
1000
0100
0010
0000
,  // measure 27
0001
0010
0100
1000
,  // measure 28
0000
0000
1000
1100
,  // measure 29
0100
0100
0000
0000
,  // measure 30
0001
0000
1000
1000
,  // measure 31
0001
0001
0010
0010
,  // measure 32
0001
0001
1000
0000
,  // measure 33
1000
1000
0100
0100
,  // measure 34
1000
1000
0000
0000
,  // measure 35
0001
0001
0010
0010
,  // measure 36
0100
0100
0001
0000
,  // measure 37
1000
1000
0010
0000
,  // measure 38
0100
0000
0100
0100
,  // measure 39
0001
0000
1000
0100
,  // measure 40
0010
0000
0001
0010
,  // measure 41
0100
0000
1000
0100
,  // measure 42
0001
0000
0001
0010
,  // measure 43
1000
0000
1000
0100
,  // measure 44
0010
0000
0001
0001
,  // measure 45
0010
0010
0100
0100
,  // measure 46
1000
0000
1000
1000
,  // measure 47
0100
0100
0010
0010
,  // measure 48
0001
0001
0010
0010
,  // measure 49
0001
0001
0010
0000
,  // measure 50
1000
1000
0100
0000
,  // measure 51
0001
0001
0010
0000
,  // measure 52
0100
0100
0001
0001
,  // measure 53
1000
0000
0100
0100
,  // measure 54
0010
0000
1000
1000
,  // measure 55
0010
0000
0100
0100
,  // measure 56
0001
0000
1000
0010
,  // measure 57
0100
0000
0001
0100
,  // measure 58
0010
0100
0001
0000
,  // measure 59
1000
0010
0100
0000
,  // measure 60
0100
0001
0010
0001
,  // measure 61
0010
1000
0000
0000
,  // measure 62
1000
0100
0001
0000
,  // measure 63
0001
0100
1000
0000
,  // measure 64
1000
0010
0001
0010
,  // measure 65
1000
0000
1000
0100
,  // measure 66
0010
0001
1000
1000
,  // measure 67
0001
0001
0010
0100
,  // measure 68
1000
0000
1000
0100
,  // measure 69
0010
0001
1000
0100
,  // measure 70
1000
0001
0010
0001
,  // measure 71
1000
0100
1000
0001
,  // measure 72
1000
0000
0010
0000
,  // measure 73
0000
0000
1000
0100
,  // measure 74
0010
0001
1000
0100
,  // measure 75
1000
0001
0010
0001
,  // measure 76
1000
0100
1000
0000
,  // measure 77
0001
1000
0001
0000
,  // measure 78
1000
0000
1001
0000
,  // measure 79
1001
0000
0110
0000
;

//---------------dance-single - ----------------
#NOTES:
     dance-single:
     :
     Easy:
     7:
     0.675,0.691,1.000,0.019,0.000: // measure 1
1010
1010
0101
0101
,  // measure 2
1000
0010
0100
0010
,  // measure 3
1000
0001
0100
0001
,  // measure 4
1000
0001
0100
0010
,  // measure 5
0100
0001
1000
0010
,  // measure 6
0100
0010
1000
0001
,  // measure 7
0100
0010
0100
0001
,  // measure 8
1010
0100
0001
0100
,  // measure 9
0010
1000
0010
0100
,  // measure 10
1001
0110
1001
0110
,  // measure 11
0001
1000
0010
0100
,  // measure 12
1001
1001
0110
0110
,  // measure 13
1000
0010
0100
0010
,  // measure 14
1001
1001
0101
0101
,  // measure 15
1000
0010
0100
0010
,  // measure 16
1010
1010
0101
0101
,  // measure 17
1000
0010
0100
0010
,  // measure 18
1000
0001
0100
0001
,  // measure 19
1000
0001
0100
0010
,  // measure 20
0100
0001
1001
0110
,  // measure 21
1001
0110
1100
1001
,  // measure 22
0110
1001
1000
0010
,  // measure 23
0100
0010
1000
0101
,  // measure 24
1010
0101
1010
0101
,  // measure 25
1000
0001
0100
0001
,  // measure 26
1000
0001
0100
0110
,  // measure 27
1001
0110
1001
0010
,  // measure 28
0001
0010
1000
0010
,  // measure 29
1000
0010
0110
1001
,  // measure 30
0110
0000
1000
0100
,  // measure 31
0010
0100
1000
0001
,  // measure 32
0100
0010
0101
0101
,  // measure 33
1010
1010
0110
0110
,  // measure 34
1001
1001
0100
0010
,  // measure 35
1000
0010
0110
0110
,  // measure 36
1001
1001
0110
0110
,  // measure 37
1100
1100
0101
0101
,  // measure 38
1010
0101
1010
0101
,  // measure 39
1010
0101
1010
0101
,  // measure 40
1010
0110
1001
1001
,  // measure 41
0110
0110
1001
1001
,  // measure 42
0110
0110
1001
1001
,  // measure 43
1100
1100
0101
0101
,  // measure 44
0011
0011
0110
0110
,  // measure 45
1100
1100
1001
1001
,  // measure 46
0110
0110
1000
0100
,  // measure 47
1000
0100
0001
0100
,  // measure 48
0001
0100
1000
0010
,  // measure 49
1000
0010
0001
0010
,  // measure 50
0001
1000
1001
1001
,  // measure 51
0010
0100
0110
0110
,  // measure 52
1000
0010
1010
1010
,  // measure 53
0101
0101
1010
0010
,  // measure 54
0100
0100
1010
1010
,  // measure 55
0101
0101
1010
1010
,  // measure 56
0100
0010
1010
1010
,  // measure 57
0101
1000
1000
1000
,  // measure 58
0001
0001
1001
1001
,  // measure 59
0110
0110
1001
1001
,  // measure 60
0100
0001
0100
0101
,  // measure 61
1001
0110
1001
0010
,  // measure 62
0100
0010
1010
1010
,  // measure 63
0101
0101
1010
1010
,  // measure 64
0100
0001
1000
0001
,  // measure 65
0100
1001
0110
1010
,  // measure 66
1010
0101
1010
1001
,  // measure 67
0110
1001
1000
0100
,  // measure 68
0010
0001
1100
1100
,  // measure 69
0011
0011
1100
1100
,  // measure 70
0011
0011
1100
1001
,  // measure 71
0110
1001
0110
1001
,  // measure 72
0110
1001
1100
1001
,  // measure 73
0011
1001
0101
1010
,  // measure 74
0101
1010
0101
1010
,  // measure 75
0101
1010
0110
1001
,  // measure 76
0110
1001
0110
1001
,  // measure 77
0110
1100
0011
0000
,  // measure 78
1100
0000
0101
0000
,  // measure 79
1010
0000
2200
0000
,  // measure 80
0000
0000
3300
0000
;

//---------------dance-single - ----------------
#NOTES:
     dance-single:
     :
     Medium:
     9:
     0.607,0.645,0.135,0.000,0.000: // measure 1
1001
1001
0110
0110
,  // measure 2
1001
0110
1100
0101
,  // measure 3
1000
0010
1000
0000
0001
0100
0001
0000
,  // measure 4
1000
0010
1000
0000
0010
0100
0010
0000
,  // measure 5
1000
0001
1000
0000
0100
0010
0100
0000
,  // measure 6
0001
1000
0001
0000
1000
0000
1000
0000
,  // measure 7
0001
0001
1000
1000
,  // measure 8
0010
1000
0010
0000
0100
0001
0100
0000
,  // measure 9
0001
1000
0001
0000
1000
0010
1000
0000
,  // measure 10
0010
0100
0010
0000
1000
0000
1000
0000
,  // measure 11
0001
0001
1000
1000
,  // measure 12
0001
1000
0001
1000
0001
1000
0001
0000
,  // measure 13
1000
1000
0010
0010
,  // measure 14
0100
0010
0100
0010
0100
0010
0100
0000
,  // measure 15
0001
1000
0001
0100
,  // measure 16
0010
1000
0010
1000
0010
1000
0010
0000
,  // measure 17
0100
0001
0100
0001
,  // measure 18
0100
0001
0100
0001
1000
0001
1000
0001
,  // measure 19
0100
0001
1000
0001
1000
0010
0100
0010
,  // measure 20
0100
0010
1000
0010
1000
0010
0100
0010
,  // measure 21
0100
0001
0100
0000
1001
0000
1001
0000
,  // measure 22
1001
0000
1001
0000
0000
1000
0010
0000
,  // measure 23
0100
0010
1000
0001
,  // measure 24
1000
0001
1000
0000
0010
0000
1000
0000
,  // measure 25
0010
0100
0010
0000
1000
0000
0100
0000
,  // measure 26
0010
0001
1000
0100
,  // measure 27
0010
1000
0010
0000
0100
0000
0001
0000
,  // measure 28
1000
0001
1000
0000
0010
0000
0100
0000
,  // measure 29
0010
0000
1000
0000
0100
1000
0100
1000
,  // measure 30
0100
0000
1000
0001
,  // measure 31
1000
0001
1000
0000
0010
0000
0010
0000
,  // measure 32
0100
0010
0100
0000
0001
0000
0001
0000
,  // measure 33
1000
0001
1000
0001
1000
0001
1000
0001
,  // measure 34
1000
0001
1000
0000
0001
0000
0001
0000
,  // measure 35
1000
0010
1000
0000
0010
0000
0010
0000
,  // measure 36
0100
1000
0100
0000
0001
0000
0001
0000
,  // measure 37
1000
0001
1000
0000
0010
0100
0010
0000
,  // measure 38
1000
0010
1000
0000
0001
0000
0001
0000
,  // measure 39
1000
1000
0001
0001
,  // measure 40
1000
0010
1000
0000
0010
0100
0010
0000
,  // measure 41
1000
0010
1000
0000
0001
0100
0001
0000
,  // measure 42
1000
0010
1000
0000
0100
0000
0100
0000
,  // measure 43
1000
1000
0001
0001
,  // measure 44
1000
0000
1000
0000
0010
1000
0010
0000
,  // measure 45
0100
0001
0100
0000
0010
1000
0010
0000
,  // measure 46
0100
0001
0100
0000
0001
1000
0001
0000
,  // measure 47
0100
0010
0100
0000
0010
1000
0010
0000
,  // measure 48
0100
0001
0100
0000
0010
1000
0010
0000
,  // measure 49
0100
0001
0100
0000
0001
1000
0010
0000
,  // measure 50
1000
0000
0010
0000
0100
0000
0000
0001
,  // measure 51
1000
0001
1000
0000
0010
0000
0100
0000
,  // measure 52
0000
1010
0010
0000
0100
0001
0000
0100
,  // measure 53
0001
1000
0010
0000
1000
0000
0000
0000
,  // measure 54
0100
1000
0100
0000
0001
0100
0001
0010
,  // measure 55
1000
0010
0100
0010
1000
0000
0001
0000
,  // measure 56
0100
0010
0100
0000
1000
0001
1000
0000
,  // measure 57
0110
0010
1000
0010
,  // measure 58
0100
0010
0100
0010
0100
0000
0001
0000
,  // measure 59
1000
0001
1000
0001
1000
0000
0010
0100
,  // measure 60
0010
0100
0010
0100
0010
0100
0010
0100
,  // measure 61
0010
0100
0010
0100
0010
0000
0000
0000
,  // measure 62
1000
0001
1000
0001
1000
0000
0001
0000
,  // measure 63
0100
0010
0100
0010
0100
0010
1000
0000
,  // measure 64
0010
0100
0010
0100
0010
1000
0010
1000
,  // measure 65
0010
0100
0001
0100
0001
1000
0000
0001
,  // measure 66
1000
0000
0000
1000
,  // measure 67
1000
0000
0100
0000
1000
0100
1000
0010
,  // measure 68
0100
0010
0100
0001
1000
0000
0010
0000
,  // measure 69
0100
0010
1000
0010
0100
0010
1000
0010
,  // measure 70
0100
0010
1000
0010
0100
0001
0010
0100
,  // measure 71
0010
0001
1000
0100
0010
0001
1000
0010
,  // measure 72
0100
0010
1000
0001
0010
0000
0100
0000
,  // measure 73
0001
1000
0100
1000
,  // measure 74
0010
0100
0001
1000
,  // measure 75
0010
0100
0010
1000
,  // measure 76
0001
0100
0010
1000
,  // measure 77
0010
0100
0001
1000
,  // measure 78
0010
0000
0100
0000
,  // measure 79
0001
0000
1000
0000
;

//---------------dance-single - ----------------
#NOTES:
     dance-single:
     :
     Hard:
     10:
     0.824,0.730,0.676,0.290,0.121: // measure 1
1001
0110
1001
0110
,  // measure 2
1001
0110
0110
0110
,  // measure 3
1000
0100
0001
0100
1000
0010
0001
0010
,  // measure 4
1000
0001
0100
0001
1000
0001
0100
0010
,  // measure 5
0100
0001
0010
0100
1000
0100
0010
0001
,  // measure 6
1000
0100
0000
0000
0100
0010
0000
0000
0010
0001
0000
0000
0001
1000
0000
0000
,  // measure 7
0001
0100
0010
0100
0010
0100
0001
1000
,  // measure 8
0010
0100
0010
1000
0001
1000
0010
0100
,  // measure 9
0010
1000
0001
1000
0010
1000
0010
0100
,  // measure 10
0001
0100
0001
0000
0100
0010
0100
0000
0010
0000
0100
0000
0010
0000
0000
0000
,  // measure 11
1100
0110
0011
0110
,  // measure 12
1000
0100
0001
0100
1000
0001
0010
0000
,  // measure 13
1100
0110
0011
1001
,  // measure 14
0100
0010
1000
0001
1000
0010
0100
0000
,  // measure 15
1001
0110
1001
0110
,  // measure 16
0001
0100
0010
1000
0010
0100
0001
0000
,  // measure 17
0101
1010
0101
1010
,  // measure 18
1000
0100
0001
0100
1000
0010
0110
0000
,  // measure 19
1100
0011
1100
0011
,  // measure 20
1100
0000
0011
0000
0100
0010
1000
0010
,  // measure 21
0100
0001
0100
0010
0100
0001
1000
0010
,  // measure 22
0100
0010
0110
0000
0202
0000
0303
0000
,  // measure 23
0010
0100
0001
0100
0010
0000
1000
0000
,  // measure 24
0001
0100
1000
0100
0001
0000
0010
0000
,  // measure 25
0010
0001
0100
0001
1000
0001
0100
0010
,  // measure 26
0100
0001
0101
0100
0220
0000
0330
0000
,  // measure 27
0001
0100
0010
0100
0001
0000
1010
0000
,  // measure 28
0100
0001
1000
0001
0100
0000
1010
0000
,  // measure 29
0001
0100
0010
1000
0010
0100
0001
1000
,  // measure 30
1001
0110
2002
3003
,  // measure 31
0001
0100
1000
0100
0001
0000
0100
0000
,  // measure 32
0010
1000
0100
1000
0010
0000
0100
0000
,  // measure 33
0001
0100
1000
0100
0001
0010
0100
1000
,  // measure 34
0100
0010
0011
0001
2002
0000
3003
0000
,  // measure 35
1000
0001
0100
0001
0100
0000
1001
0000
,  // measure 36
0010
1000
0100
1000
0010
0000
0100
0000
,  // measure 37
0001
0100
1000
0100
0001
0010
1000
0010
,  // measure 38
0001
0010
0110
0000
1000
0100
0010
0001
,  // measure 39
1000
0100
0001
0100
1000
0010
0001
0010
,  // measure 40
1000
0000
1001
0000
0001
0100
0010
0100
,  // measure 41
0001
1000
0010
0100
0010
1000
0001
0100
,  // measure 42
1000
0100
0001
0010
1000
0010
0001
1000
,  // measure 43
0100
0001
0100
1000
0010
0001
0010
1000
,  // measure 44
0100
0010
0001
0100
1000
0100
0001
0000
,  // measure 45
0101
1010
0101
1010
,  // measure 46
0101
0000
1010
0000
0100
0001
0100
0010
,  // measure 47
0100
0001
1000
0010
1000
0001
0100
0010
,  // measure 48
0100
0001
0010
0100
1000
0001
0010
0100
,  // measure 49
1000
0001
0010
0100
2002
0000
3003
0000
,  // measure 50
0100
1000
0010
1000
0100
0000
1001
0000
,  // measure 51
0100
0010
1000
0010
0100
0000
0101
0000
,  // measure 52
0001
1000
0010
0100
0010
1000
0001
0100
,  // measure 53
0010
1000
1010
0010
0220
0000
0330
0000
,  // measure 54
0001
0100
0010
0100
0001
0000
1001
0000
,  // measure 55
0100
0010
1000
0010
0100
0000
1001
0000
,  // measure 56
0010
1000
0100
1000
0001
0100
0010
0100
,  // measure 57
0001
1001
0220
0330
,  // measure 58
1000
0100
0001
0100
1000
0000
0110
0000
,  // measure 59
0001
0100
1000
0100
0001
0000
1010
0000
,  // measure 60
0100
0001
1000
0001
0100
0010
1000
0001
,  // measure 61
1000
0010
0110
0100
0202
0000
0303
0000
,  // measure 62
1000
0010
0100
0010
1000
0000
0101
0000
,  // measure 63
0010
1000
0100
1000
0010
0000
0101
0000
,  // measure 64
0001
0100
1000
0100
0002
0000
0023
0000
,  // measure 65
0230
0000
2300
0000
3001
0010
0100
1000
,  // measure 66
0001
0010
0100
1000
0002
0000
0203
0000
,  // measure 67
2300
0000
3200
0000
0301
0010
0100
1000
,  // measure 68
0001
0000
0010
0000
0001
0000
1000
0000
0010
0000
0000
0010
0100
0000
0000
0100
,  // measure 69
0001
0000
0000
0001
1000
0000
0000
1000
0010
0000
0000
0010
0100
0000
0000
0100
,  // measure 70
0001
0000
0000
0001
1000
0000
0000
1000
0100
0000
0010
0000
0100
0000
0000
0100
,  // measure 71
1000
0000
0000
1000
0001
0000
0000
0001
0100
0000
0000
0100
0010
0000
0000
0010
,  // measure 72
1000
0000
0000
1000
0100
0000
0000
0100
2000
0000
0000
0000
3020
0000
0000
0000
,  // measure 73
0230
0000
0302
0000
0103
0001
0010
0001
,  // measure 74
0100
0001
1000
0000
0001
0100
0010
0100
,  // measure 75
0001
1000
0010
0000
0100
0001
0010
0000
,  // measure 76
0001
0000
0100
0000
0010
0000
0000
0000
0001
0000
0000
0001
0010
0000
0000
0010
,  // measure 77
0100
0000
0000
0100
1000
0000
0000
1000
0001
0000
0000
0000
0000
0000
0000
0000
,  // measure 78
1001
0000
1010
0000
,  // measure 79
0101
0000
0220
0000
,  // measure 80
0000
0000
0330
0000
;
