#TITLE:Frontal Impact;
#SUBTITLE:;
#ARTIST:Daniel;
#TITLETRANSLIT:;
#SUBTITLETRANSLIT:;
#ARTISTTRANSLIT:;
#CREDIT:;
#BANNER:Frontal Impact.png;
#BACKGROUND:Frontal Impact-bg.png;
#LYRICSPATH:;
#CDTITLE:;
#MUSIC:Frontal Impact.mp3;
#OFFSET:-0.060;
#SAMPLESTART:31.110;
#SAMPLELENGTH:17.220;
#SELECTABLE:YES;
#BPMS:0.000=162.000;
#STOPS:;
#BGCHANGES:;

//---------------dance-single - ----------------
#NOTES:
     dance-single:
     :
     Hard:
     8:
     0.638,0.584,0.549,0.380,0.137: // measure 1
0000
0000
0000
0000
,  // measure 2
0000
0000
0000
0000
,  // measure 3
0000
0000
0000
0000
,  // measure 4
0000
0000
0000
0000
,  // measure 5
0000
0000
1100
0101
,  // measure 6
1001
0000
0000
0001
1000
0000
0010
0000
0100
0000
0100
0000
0010
0000
0010
0000
,  // measure 7
1000
0000
0000
1000
0100
0000
0000
0000
0010
0000
0010
0000
0001
0000
0001
0000
,  // measure 8
0100
0000
0000
0100
0010
0000
1000
0000
0001
0000
0000
0010
0000
0000
0100
0000
,  // measure 9
2000
0000
0000
0000
3001
0000
0000
0000
0100
0000
0010
1000
0000
0010
1000
0000
,  // measure 10
0001
0000
0000
0001
0100
0000
0010
0000
1000
0000
1000
0000
0010
0000
0010
0000
,  // measure 11
0100
0000
0000
0100
0001
0000
0000
0000
0010
0000
0010
0000
0100
0000
0100
0000
,  // measure 12
1000
0000
0000
1000
0001
0000
0010
0000
0001
0000
0000
0100
0000
0000
1000
0000
,  // measure 13
0001
0000
0000
0010
0000
0000
2000
0000
0000
0000
0001
0000
3001
0000
0000
0000
,  // measure 14
1000
0010
0100
0010
1000
0100
0000
1100
,  // measure 15
0000
0100
0010
0001
0100
0010
0000
0110
,  // measure 16
0000
0010
1000
0001
0100
0010
0000
1010
,  // measure 17
0000
0101
0000
0011
0000
1100
0000
1001
,  // measure 18
0000
1000
0010
0001
0010
1000
0000
1001
,  // measure 19
0000
1000
0100
0001
0100
1000
0000
1001
,  // measure 20
0000
0001
0010
1000
0100
0001
0000
0101
,  // measure 21
0000
1010
0000
0012
0000
1000
1003
0000
,  // measure 22
0201
0000
0010
0310
0000
0100
0000
0020
,  // measure 23
0000
1000
1030
0000
1010
0000
0101
0000
,  // measure 24
2100
0000
0001
3001
0000
0100
0000
0020
,  // measure 25
0000
0100
0130
0000
0110
0000
1010
0000
,  // measure 26
2000
0000
0001
3001
0000
0100
0000
0020
,  // measure 27
0000
1000
1030
0000
1010
0000
1100
0000
,  // measure 28
1000
0100
0001
0010
1000
0001
0000
0102
,  // measure 29
0000
1000
1003
0000
0002
0000
1003
0000
,  // measure 30
1010
1010
0000
0020
0000
0130
0001
0010
,  // measure 31
0110
0110
0000
0200
0000
1300
0001
0010
,  // measure 32
0001
0100
0000
0110
0000
1010
0000
1000
,  // measure 33
0002
0000
1003
0010
0200
0000
0301
0000
,  // measure 34
1001
1001
0000
2000
0000
3010
0100
0001
,  // measure 35
0011
0011
0000
0020
0000
0130
1000
0001
,  // measure 36
0100
0000
0010
2000
0000
3001
0000
1001
,  // measure 37
0000
1000
0100
0001
0200
0000
1300
0000
,  // measure 38
1010
0110
0000
0200
0000
0301
0010
0100
,  // measure 39
0110
1100
0000
2000
0000
3001
0100
0010
,  // measure 40
0100
0001
0000
0011
0000
0110
0000
0100
,  // measure 41
2000
0000
3010
0001
0200
0000
0310
0000
,  // measure 42
0110
1001
0000
0020
0000
1030
0100
0010
,  // measure 43
0011
0101
0000
0200
0000
0310
1000
0001
,  // measure 44
0100
0000
0010
2000
0000
3100
0000
1100
,  // measure 45
0000
0100
0001
0010
2000
0000
3001
0000
,  // measure 46
0101
0000
0000
0000
1010
0000
0000
0000
1001
0000
0000
1000
0001
0000
0100
0000
,  // measure 47
0010
0000
0010
0000
0100
0000
0100
0000
0001
0000
0000
0001
0010
0000
0000
0000
,  // measure 48
0100
0000
0100
0000
1000
0000
1000
0000
0010
0000
0000
0010
0100
0000
0001
0000
,  // measure 49
1000
0000
0000
0100
0000
0000
0010
0000
0002
0000
0000
0000
1003
0000
0000
0000
,  // measure 50
0010
0000
0100
0001
0000
0100
0001
0000
1000
0000
0000
1000
0010
0000
0100
0000
,  // measure 51
0001
0000
0001
0000
0100
0000
0100
0000
0010
0000
0000
0010
1000
0000
0000
0000
,  // measure 52
0100
0000
0100
0000
0010
0000
0010
0000
0001
0000
0000
0001
1000
0000
0100
0000
,  // measure 53
1000
0000
0000
0010
0000
0000
0001
0000
1000
0000
0000
0100
0000
0000
0002
0000
,  // measure 54
0000
1000
1003
0000
0001
0100
0010
0200
,  // measure 55
0000
0001
0301
0000
0101
0000
0001
0020
,  // measure 56
0000
0100
0130
0000
0010
0100
0000
1000
,  // measure 57
0000
0100
0000
0010
0002
0000
1003
0010
,  // measure 58
0200
0000
0310
0000
1000
0100
0010
0200
,  // measure 59
0000
1000
1300
0000
0110
0000
0010
0002
,  // measure 60
0000
0103
0010
1000
0010
0000
0100
0001
,  // measure 61
0000
1000
0000
2001
0000
0001
3001
0000
,  // measure 62
0100
0010
0100
0010
0100
0010
0100
0010
0000
0000
0000
0000
0000
0000
0000
0000
;

//---------------dance-single - ----------------
#NOTES:
     dance-single:
     :
     Beginner:
     2:
     0.134,0.162,0.000,0.000,0.000: // measure 1
0000
0000
0000
0000
,  // measure 2
0000
0000
0000
0000
,  // measure 3
0000
0000
0000
0000
,  // measure 4
0000
0000
0000
0000
,  // measure 5
0000
0000
0000
0000
,  // measure 6
1000
1000
0000
0000
,  // measure 7
0001
0001
0000
0000
,  // measure 8
0100
0100
0000
0000
,  // measure 9
0010
0000
0010
0000
,  // measure 10
0010
0010
0000
0000
,  // measure 11
0100
0100
0000
0000
,  // measure 12
0001
0001
0000
0000
,  // measure 13
1000
0000
1000
0000
,  // measure 14
0010
0000
0000
0000
,  // measure 15
0100
0000
0000
0000
,  // measure 16
0001
0000
0000
0000
,  // measure 17
1000
0000
1000
0000
,  // measure 18
1000
0000
0000
0000
,  // measure 19
0100
0000
0000
0000
,  // measure 20
0010
0000
0000
0000
,  // measure 21
0001
0000
0001
0000
,  // measure 22
0001
0000
0000
0000
,  // measure 23
0010
0000
0010
0000
,  // measure 24
0010
0000
0000
0000
,  // measure 25
0100
0000
0100
0000
,  // measure 26
0100
0000
0000
0000
,  // measure 27
1000
0000
1000
0000
,  // measure 28
1000
0000
0000
0000
,  // measure 29
0001
0000
0001
0000
,  // measure 30
0001
0000
0000
0000
,  // measure 31
1000
0000
0000
0000
,  // measure 32
0010
0000
0010
0000
,  // measure 33
0100
0000
0100
0000
,  // measure 34
0001
0000
0000
0000
,  // measure 35
0010
0000
0000
0000
,  // measure 36
0100
0000
0100
0000
,  // measure 37
1000
0000
1000
0000
,  // measure 38
0001
0000
0000
0000
,  // measure 39
1000
0000
0000
0000
,  // measure 40
0010
0000
0010
0000
,  // measure 41
0100
0000
0100
0000
,  // measure 42
0001
0000
0000
0000
,  // measure 43
1000
0000
0000
0000
,  // measure 44
0010
0000
0000
0000
,  // measure 45
0100
0000
0100
0000
,  // measure 46
0010
0000
0010
0010
,  // measure 47
0000
0000
0100
0100
,  // measure 48
0000
0000
0001
0001
,  // measure 49
0000
0000
1000
0000
,  // measure 50
1000
0000
0010
0010
,  // measure 51
0000
0000
0100
0100
,  // measure 52
0000
0000
0001
0001
,  // measure 53
0000
0000
1000
0000
,  // measure 54
1000
0000
0010
0000
,  // measure 55
0000
0000
0100
0000
,  // measure 56
0000
0000
0001
0000
,  // measure 57
0000
0000
1000
0000
,  // measure 58
1000
0000
1000
0000
,  // measure 59
0000
0000
0010
0000
,  // measure 60
0000
0000
0100
0000
,  // measure 61
0000
0000
0001
0000
,  // measure 62
0001
0001
0000
0000
;

//---------------dance-single - ----------------
#NOTES:
     dance-single:
     :
     Medium:
     6:
     0.560,0.551,0.570,0.338,0.000: // measure 1
0000
0000
0000
0000
,  // measure 2
0000
0000
0000
0000
,  // measure 3
0000
0000
0000
0000
,  // measure 4
0000
0000
0000
0000
,  // measure 5
0000
0000
2000
3001
,  // measure 6
1001
0000
0101
0000
0001
0100
0010
0000
,  // measure 7
0110
0000
1010
0000
0010
1000
0100
0000
,  // measure 8
1100
0000
0110
0000
0010
0001
0100
0000
,  // measure 9
0010
1000
0001
0000
0100
0001
1000
0000
,  // measure 10
1100
0000
0110
0000
0010
0001
0100
0000
,  // measure 11
0110
0000
1010
0000
0010
1000
0001
0000
,  // measure 12
1001
0000
0101
0000
0001
0100
0010
0000
,  // measure 13
1000
0001
0010
0000
0001
1000
0100
0000
,  // measure 14
1000
0000
0010
0000
0100
0010
0000
1010
,  // measure 15
0000
0010
1000
0000
0100
1000
0000
1001
,  // measure 16
0000
0001
0010
0000
0100
0010
0000
0011
,  // measure 17
0000
0011
0000
0101
0000
0101
0000
0110
,  // measure 18
0000
0010
1000
0000
0010
0100
0000
0101
,  // measure 19
0000
0001
0010
0000
0100
0010
0000
0011
,  // measure 20
0000
0001
0100
0000
0010
1000
0000
1100
,  // measure 21
0000
1100
0000
0011
0000
0011
0000
0000
,  // measure 22
1001
0001
0100
0010
,  // measure 23
1000
0100
1000
0000
1001
0000
1001
0000
,  // measure 24
0001
0010
0100
0010
,  // measure 25
0001
0100
0001
0000
0101
0000
0110
0000
,  // measure 26
0010
1000
0100
0010
,  // measure 27
0001
1000
0010
0000
0110
0000
0101
0000
,  // measure 28
0001
0010
0100
1000
,  // measure 29
0001
0100
0010
0100
0002
0000
1003
0000
,  // measure 30
0001
1000
0100
0000
0010
0000
0011
0000
,  // measure 31
0001
0100
0010
0000
1000
0000
1010
0000
,  // measure 32
0010
1000
0100
0000
0010
0001
0100
0000
,  // measure 33
0010
1000
0001
0000
0100
0001
1000
0000
,  // measure 34
0001
0010
0100
0000
1000
0000
1001
0000
,  // measure 35
0001
0100
0010
0000
1000
0000
1001
0000
,  // measure 36
1000
0100
0010
0000
0001
0010
0100
0000
,  // measure 37
1000
0010
0100
0010
2000
0000
3001
0000
,  // measure 38
0010
0100
1000
0000
0010
0000
0101
0000
,  // measure 39
0001
0010
0100
0000
1000
0000
1010
0000
,  // measure 40
0010
0100
0001
0000
0010
0100
1000
0000
,  // measure 41
0001
0100
1000
0000
0001
0010
1000
0000
,  // measure 42
0001
0100
0010
0000
1000
0000
0110
0000
,  // measure 43
0001
0010
0100
0000
1000
0000
0110
0000
,  // measure 44
0010
0001
0100
0000
0010
1000
0100
0000
,  // measure 45
0010
0001
0100
0010
2000
0000
3001
0000
,  // measure 46
1100
0101
1001
1010
,  // measure 47
1000
0010
0100
0000
0110
0000
0101
0000
,  // measure 48
0100
0001
0010
0000
0011
0000
0110
0000
,  // measure 49
0100
1000
0010
0000
0100
0001
1000
0000
,  // measure 50
0010
1000
0001
0000
0011
0000
0110
0000
,  // measure 51
0100
1000
0010
0000
0110
0000
0101
0000
,  // measure 52
0100
0001
1000
0000
1001
0000
1010
0000
,  // measure 53
1000
0010
0100
0000
0001
1000
0100
0000
,  // measure 54
1000
0001
0010
0000
0002
0000
0203
0000
,  // measure 55
0320
2030
3200
2300
,  // measure 56
3002
0023
0230
2300
,  // measure 57
3020
0032
0023
2030
,  // measure 58
3100
0010
0100
0000
2000
0000
3020
0000
,  // measure 59
0032
0023
2030
3200
,  // measure 60
0302
0203
2300
3020
,  // measure 61
0230
0302
2003
3200
,  // measure 62
0310
0001
1000
0100
0000
0000
0000
0000
;

//---------------dance-single - ----------------
#NOTES:
     dance-single:
     :
     Easy:
     4:
     0.330,0.324,0.137,0.000,0.000: // measure 1
0000
0000
0000
0000
,  // measure 2
0000
0000
0000
0000
,  // measure 3
0000
0000
0000
0000
,  // measure 4
0000
0000
0000
0000
,  // measure 5
0000
0000
0000
0000
,  // measure 6
1000
0100
0010
0001
,  // measure 7
1000
0010
0100
0001
,  // measure 8
1000
0100
0001
0100
,  // measure 9
1000
0010
0001
0010
,  // measure 10
1000
0100
0010
0001
,  // measure 11
1000
0010
0100
0001
,  // measure 12
1000
0010
0001
0010
,  // measure 13
1000
0100
0001
0100
,  // measure 14
1000
0010
0110
0000
,  // measure 15
0001
0010
0110
0000
,  // measure 16
1000
0001
0010
0001
,  // measure 17
0100
0010
1000
0010
,  // measure 18
0100
0001
0011
0000
,  // measure 19
0100
1000
1010
0000
,  // measure 20
0010
0100
0001
0010
,  // measure 21
0100
1000
0001
1001
,  // measure 22
1000
0010
0100
0000
,  // measure 23
0010
1000
0100
0010
,  // measure 24
0100
1000
0001
0010
,  // measure 25
0001
0100
0010
0010
,  // measure 26
0100
0001
0010
0000
,  // measure 27
0100
1000
0010
1000
,  // measure 28
0100
0010
0001
1000
,  // measure 29
0001
0000
1000
0100
,  // measure 30
1100
0000
0001
0100
,  // measure 31
0101
0000
1000
0010
,  // measure 32
0100
0001
0010
0100
,  // measure 33
1000
0000
0100
0010
,  // measure 34
0011
0000
0100
0010
,  // measure 35
1010
0000
0010
0100
,  // measure 36
0001
1000
0100
1000
,  // measure 37
0001
0010
0100
1000
,  // measure 38
1001
0000
0001
0100
,  // measure 39
0110
0000
0010
1000
,  // measure 40
0001
0010
0100
0010
,  // measure 41
0001
0100
0010
0100
,  // measure 42
0101
0000
0001
0010
,  // measure 43
0110
0000
0100
1000
,  // measure 44
0010
0100
0001
0100
,  // measure 45
0010
1000
0100
0010
,  // measure 46
0001
1000
0001
0100
,  // measure 47
0010
1000
0001
0010
,  // measure 48
0100
1000
0001
0100
,  // measure 49
1000
0100
0001
0010
,  // measure 50
1000
0010
0001
0100
,  // measure 51
0010
1000
0001
0010
,  // measure 52
0100
1000
0001
0100
,  // measure 53
1000
0100
0001
0010
,  // measure 54
1000
0010
0001
0000
,  // measure 55
1000
0010
0100
0000
,  // measure 56
0001
0100
0010
0000
,  // measure 57
1000
0100
0010
0001
,  // measure 58
0010
0100
1000
0000
,  // measure 59
0010
0100
0001
0000
,  // measure 60
1000
0100
0010
0000
,  // measure 61
0001
0010
0100
1000
,  // measure 62
0001
0001
0001
0001
0000
0000
0000
0000
;
