#TITLE:Butterfly (DELACTION REMIX);
#SUBTITLE:;
#ARTIST:SMiLE.dk;
#TITLETRANSLIT:;
#SUBTITLETRANSLIT:;
#ARTISTTRANSLIT:;
#GENRE:;
#CREDIT:hooky;
#BANNER:Butterfly (DELACTION REMIX).png;
#BACKGROUND:Butterfly (DELACTION REMIX)-bg.png;
#LYRICSPATH:;
#CDTITLE:;
#MUSIC:Butterfly (DELACTION REMIX).ogg;
#OFFSET:0.000;
#SAMPLESTART:39.700;
#SAMPLELENGTH:15.000;
#SELECTABLE:YES;
#DISPLAYBPM:145.000;
#BPMS:0.000=145.000
;
#STOPS:
;
#BGCHANGES:;
#KEYSOUNDS:;
#ATTACKS:;

//---------------dance-single - hooky----------------
#NOTES:
     dance-single:
     hooky:
     Hard:
     9:
     0.641,0.941,0.447,0.180,0.357,535.000,62.000,25.000,0.000,0.000,0.000,0.641,0.941,0.447,0.180,0.357,535.000,62.000,25.000,0.000,0.000,0.000:
0000
0000
0000
0000
,
0000
0000
0000
0000
,
0000
0000
0000
0000
,
0000
0000
0000
0000
,
1000
0000
0000
0000
0100
0000
0000
0000
1000
0000
0000
0100
1000
0000
0100
0000
,
0010
0001
0010
0000
0001
0000
0100
0000
0010
0000
0000
0010
1000
0000
1000
0000
,
0200
0000
0000
0000
0320
0000
0000
0000
0130
0000
0000
0010
0100
0000
0010
0000
,
0001
0100
0010
0000
1000
0000
0100
0000
0110
0000
0000
0000
1001
0000
0000
0000
,
0100
0000
0010
0000
0100
0000
0000
0000
0010
0000
0000
1000
0100
0000
0010
0000
,
0001
0010
0001
0000
0100
0000
0010
0000
1000
0000
0000
0100
0010
0000
0010
0000
,
0001
0000
0010
0000
0001
0000
0000
0000
0100
0000
0000
0010
1000
0000
0010
0000
,
0100
0010
0100
0000
0010
0000
0010
0000
1001
0000
0000
0000
0110
0000
0000
0000
,
1010
0000
0000
0000
0011
0000
0000
0000
1001
0000
0000
0001
0100
0000
0010
0000
,
1000
0100
1000
0000
0001
0000
0001
0000
0100
0000
0000
0010
0100
0000
0100
0000
,
0200
0000
0000
0000
0010
0000
0000
0000
0301
0000
0000
0010
0001
0000
1000
0000
,
0100
1000
0100
0000
0010
0000
0001
0000
0200
0000
0000
0000
0010
0000
0310
0000
,
1010
0000
0000
0010
1000
0000
1000
0000
0110
0000
0010
0100
0010
0000
0000
0000
,
0101
0000
0000
0001
0100
0000
0100
0000
1100
0000
0100
1000
0100
0000
0000
0000
,
0110
0000
0000
0010
0100
0000
0000
0100
0010
0000
0000
0010
1000
0000
0000
1000
,
0100
0010
0001
0100
1000
1000
1001
0000
,
0101
0000
0000
0100
0001
0000
0001
0000
0110
0000
0100
0010
0100
0000
0000
0000
,
1010
0000
0000
1000
0010
0000
0010
0000
0011
0000
0010
0001
0010
0000
0000
0000
,
0110
0000
0000
0100
0010
0000
0000
0010
0100
0000
0000
0100
0010
0000
0000
0010
,
0001
0010
1000
0010
0001
0001
1001
0000
,
1000
0100
1000
0100
0010
0001
0010
0001
,
0100
0000
0010
0000
0100
0000
0010
0000
1000
0000
0100
1000
0100
0000
0000
0000
,
0010
0001
0010
0001
0100
0010
0100
0010
,
1000
0000
0100
0000
1000
0000
0100
0000
0010
0000
0100
0010
0100
0000
0010
0000
,
0001
0010
1000
0010
0001
0001
0100
0001
,
0010
0000
0001
0000
0010
0000
0001
0000
0100
0000
0010
1000
0010
0000
0000
0000
,
1000
0001
1000
0001
1000
0001
1000
0001
1000
0100
1000
0100
1000
0100
1000
0100
,
0220
0330
2002
3003
2020
3030
0022
0033
,
0010
0000
0100
0000
0010
0000
0000
0000
0100
0000
0000
0001
0010
0000
0100
0000
,
1000
0100
1000
0000
0010
0000
0100
0000
1000
0000
0000
0100
0010
0000
0100
0000
,
0010
0000
0100
0000
1000
0000
0000
0000
0100
0000
0000
0001
0100
0000
0100
0000
,
0010
0100
0010
0000
0100
0000
0100
0000
1001
0000
0000
0000
0110
0000
0000
0000
,
0101
0000
0000
0000
1100
0000
0000
0000
1001
0000
0000
1000
0010
0000
0100
0000
,
0001
0010
0001
0000
1000
0000
1000
0000
0010
0000
0000
0100
0010
0000
0010
0000
,
0020
0000
0000
0000
0100
0000
0000
0000
1030
0000
0000
0100
0010
0000
1000
0000
,
1000
0100
1000
0000
0100
0000
1000
0000
0020
0000
0000
0000
0100
0000
0130
0000
,
0101
0000
0000
0100
0001
0000
0001
0000
0110
0000
0100
0010
0100
0000
0000
0000
,
1010
0000
0000
1000
0010
0000
0010
0000
0011
0000
0010
0001
0010
0000
0000
0000
,
0110
0000
0000
0100
0010
0000
0000
0010
0100
0000
0000
0100
0001
0000
0000
0001
,
0010
0100
0100
0010
0001
0001
1001
0000
,
1010
0000
0000
0010
1000
0000
1000
0000
0110
0000
0010
0100
0010
0000
0000
0000
,
0101
0000
0000
0001
0100
0000
0100
0000
1100
0000
0100
1000
0100
0000
0000
0000
,
0110
0000
0000
0010
0100
0000
0000
0100
0010
0000
0000
0010
1000
0000
0000
1000
,
0100
0010
0001
0100
1000
1000
1001
0000
,
0001
0010
0001
0010
0100
1000
0100
1000
,
0010
0100
0010
0100
0001
0010
0001
0000
,
1000
0100
1000
0100
0010
0100
0010
0100
,
0001
0000
0010
0000
0001
0000
0010
0000
0100
0000
0010
0100
0010
0000
0100
0000
,
0101
0000
0000
0000
0100
0000
0000
0000
0001
0000
1010
0000
0000
1001
0000
0000
,
0110
0000
0000
0000
0100
0000
0000
0000
0010
0000
0101
0000
0000
0110
0000
0000
,
1001
0000
0000
0000
1000
0000
0000
0000
0001
0000
0101
0000
0000
1010
0000
0000
,
0011
0000
0000
0000
1000
0000
0000
0000
0100
0000
0011
0000
0000
0110
0000
0000
,
2100
0000
0000
3000
,
0002
0000
0000
0003
,
0020
0000
0000
0030
,
0200
0000
0000
0300
,
2000
0000
0000
3000
,
0002
0000
0000
0003
,
0020
0000
0000
0030
,
0220
0000
0330
1001
,
0110
0000
0000
0100
0010
0000
0010
0000
0110
0000
0000
0010
0100
0000
0100
0000
,
1000
0100
0000
0000
0001
0010
0000
0000
0100
0010
0000
0000
1001
0000
0000
0000
,
0100
0000
0010
0000
0100
0000
0000
0000
0110
0000
0000
0001
1000
0000
1000
0000
,
0001
0010
0001
0000
0001
0000
0100
0000
0100
0000
0000
0010
0100
0000
0100
0000
,
0001
0000
0010
0000
0100
0000
0000
0000
1000
0000
0000
0010
1000
0000
1000
0000
,
0100
1000
0100
0000
1000
0000
1000
0000
0200
0000
0000
0000
0310
0000
0000
0000
,
0010
0000
0001
0000
0010
0000
0000
0000
0100
0000
0000
0010
0100
0000
0100
0000
,
0010
0100
0010
0000
0100
0000
0100
0000
1000
0000
0000
0001
0100
0000
0100
0000
,
0010
0000
1000
0000
0010
0000
0000
0000
0100
0000
0000
0100
0010
0000
0010
0000
,
1000
0100
1000
0000
0010
0000
0100
0000
0010
0000
0000
0100
0010
0000
0100
0000
,
0110
0000
0100
0000
0100
0000
0000
0000
0110
0000
0000
1000
0001
0000
0001
0000
,
1000
0100
1000
0000
1000
0000
0010
0000
0010
0000
0000
0100
0010
0000
0010
0000
,
1000
0000
0100
0000
0010
0000
0000
0000
0001
0000
0000
0100
0001
0000
0001
0000
,
0010
0001
0010
0000
0001
0000
0001
0000
0020
0000
0000
0000
0130
0000
0000
0000
,
1100
0000
0100
0000
0100
0000
0000
0000
0010
0000
0000
0100
0010
0000
0010
0000
,
0001
0100
0001
0000
0010
0000
0010
0000
0100
0000
0000
1000
0010
0000
0010
0000
,
0100
0000
0000
0000
0100
0000
0000
0000
0010
0000
0000
0010
0100
0000
0100
0000
,
0001
0010
0001
0000
0100
0000
0010
0000
0100
0000
0000
0000
0000
0000
0000
0000
;

//---------------dance-single - hooky----------------
#NOTES:
     dance-single:
     :
     Medium:
     6:
     0.332,0.412,0.079,0.216,0.000,281.000,11.000,30.000,0.000,0.000,0.000,0.332,0.412,0.079,0.216,0.000,281.000,11.000,30.000,0.000,0.000,0.000:
0000
0000
0000
0000
,
0000
0000
0000
0000
,
0000
0000
0000
0000
,
0000
0000
0000
0000
,
2200
0000
0000
0000
,
0000
0000
3300
0011
,
0202
0000
0000
0000
,
0000
0000
0000
0303
,
1000
0100
1000
0010
,
0100
0001
0010
0001
0100
0000
0100
0000
,
0010
1000
0100
1000
,
0010
0100
0010
1000
0100
0000
0100
0000
,
1000
0010
0100
0001
,
0010
0001
0100
0001
0010
0000
0010
0000
,
2002
0000
0000
3003
,
0220
0000
0000
0330
,
1000
0100
1000
0100
,
0010
0001
0010
0001
,
0100
0010
0100
0000
0010
1000
0100
0000
,
1000
0000
1000
0000
0001
1000
0001
0000
,
0100
0000
0100
0000
0010
1000
0100
0000
,
0010
0000
0010
0000
0001
0100
0001
0000
,
0010
0010
0001
0001
,
1000
0000
0100
0000
1000
1000
1000
0000
,
0010
0100
0001
0000
1000
0000
0100
0000
,
0010
0001
0100
0000
0010
0000
0010
0000
,
1000
1000
1000
0000
0001
0001
0001
0000
,
0100
0000
0010
0000
1000
0100
0010
0000
,
0001
0001
0100
0010
,
1000
0100
1000
0000
0010
0000
0010
0000
,
0100
0001
0100
0000
0001
0010
0001
0000
,
2000
3000
0200
0300
2000
3000
0200
0300
,
1000
0010
0100
0001
,
0010
0001
0100
0010
1000
0000
1000
0000
,
0100
0010
0001
0100
,
0010
1000
0100
0010
0001
0000
0001
0000
,
1000
0010
0100
0001
,
1000
0010
0100
0001
1000
0000
1000
0000
,
2000
0000
0000
3000
,
0002
0003
0200
0300
,
0010
1000
0100
0100
,
1000
0010
0100
0100
,
0001
0001
0100
0100
,
0001
0010
0001
0001
,
0100
0010
1000
0100
,
1000
0010
0100
0001
,
0010
0010
0001
0001
,
0100
0001
2002
3003
,
2000
0000
0000
3000
,
0200
0000
0000
0300
,
0020
0000
0000
0030
,
0002
0000
0000
0003
,
0100
0000
0100
0000
,
0010
0000
0010
0000
,
1000
0000
1000
0000
,
0001
0000
0001
0000
,
2000
0000
0000
3000
,
0002
0000
0000
0003
,
0020
0000
0000
0030
,
0200
0000
0000
0300
,
2000
0000
0000
3000
,
0002
0000
0000
0003
,
0020
0000
0000
0030
,
0001
1000
0110
1001
,
1000
0000
1000
0000
,
0001
1000
0001
1001
,
0110
0010
1000
0100
,
1000
0010
0100
0001
0010
0000
0010
0000
,
0001
0100
0010
1000
,
0100
1000
0010
0100
0001
0000
0001
0000
,
0010
0001
0100
0010
,
1000
0100
1000
0010
1000
0000
1000
0000
,
0001
0100
0001
0010
,
0001
0100
0010
1000
0100
0000
0100
0000
,
1000
0010
0100
0001
,
0010
0001
0010
0001
0100
0000
0100
0000
,
0010
1000
0100
1000
,
0010
0100
0001
0100
0010
0000
1000
0000
,
0100
1000
0010
0100
,
0001
0010
0001
0100
0010
0000
0010
0000
,
2000
0000
0002
3003
,
0100
0010
0110
0000
;

//---------------dance-single - hooky----------------
#NOTES:
     dance-single:
     :
     Easy:
     3:
     0.195,0.235,0.036,0.065,0.000,175.000,5.000,9.000,0.000,0.000,0.000,0.195,0.235,0.036,0.065,0.000,175.000,5.000,9.000,0.000,0.000,0.000:
0000
0000
0000
0000
,
0000
0000
0000
0000
,
0000
0000
0000
0000
,
0000
0000
0000
0000
,
1000
0000
0000
0000
,
0000
0000
0000
0000
,
0001
0000
0000
0000
,
0000
0000
0000
0000
,
1000
0000
0010
0000
,
0100
0001
0010
0000
,
0010
0000
0001
0000
,
0100
0010
1000
0000
,
1000
0000
0100
0000
,
1000
0010
0100
0000
,
0200
0000
0000
0000
,
0020
0000
0000
0330
,
0001
0000
1000
0000
,
0100
0000
0100
0000
,
1000
0000
0010
0000
,
0100
0001
0100
0000
,
0200
0300
0010
0000
,
1000
0000
0100
0000
,
1000
0000
1000
0000
,
0010
0100
0001
0000
,
0010
0001
0010
0000
,
0001
0100
0010
0000
,
1000
1000
0100
0000
,
0100
0100
1000
0000
,
0010
0100
0001
0000
,
0010
0001
0100
0000
,
0010
1000
0100
0000
,
0100
1000
0010
0000
,
0100
0001
0010
0000
,
0010
0100
0010
0000
,
0001
1000
0100
0000
,
1000
0010
0100
0000
,
0100
0001
0010
0000
,
0010
0001
0100
0000
,
2000
0000
0000
0000
,
0002
0000
0000
3003
,
0100
0000
0000
0000
,
0010
0000
0000
0000
,
0100
0000
0010
0000
,
0100
0010
0100
0000
,
0001
0000
0000
0000
,
1000
0000
0000
0000
,
0001
0000
1000
0000
,
0001
1000
0001
0000
,
0100
0010
1000
0000
,
0100
0010
0001
0000
,
0100
0010
1000
0000
,
0100
1000
0010
0000
,
0100
0001
0010
0000
,
0001
0100
0010
0000
,
1000
0000
1000
0000
,
0001
1000
0001
0000
,
0200
0000
0000
0000
,
0000
0000
0000
0000
,
0000
0000
0000
0000
,
0000
0000
0000
0300
,
0020
0000
0000
0000
,
0000
0000
0000
0000
,
0000
0000
0000
0030
,
1000
0100
1000
0010
,
0110
0000
1001
0000
,
1010
0000
0101
0000
,
1000
0100
1000
0000
,
0010
0100
0001
0000
,
0010
0001
0100
0000
,
0010
1000
0100
0000
,
1000
0010
0100
0000
,
0001
0010
0001
0000
,
0100
0010
1000
0000
,
0100
1000
0010
0000
,
0100
0001
0010
0000
,
0010
0001
0100
0000
,
0010
0100
0010
0000
,
1000
0100
0010
0000
,
0001
0100
0010
0000
,
1000
0100
1000
0000
,
0020
0000
0200
0330
,
1000
0100
1001
0000
;

//---------------dance-single - hooky----------------
#NOTES:
     dance-single:
     :
     Beginner:
     1:
     0.075,0.118,0.022,0.000,0.000,70.000,3.000,0.000,0.000,0.000,0.000,0.075,0.118,0.022,0.000,0.000,70.000,3.000,0.000,0.000,0.000,0.000: // measure 0
0000
0000
0000
0000
,  // measure 1
0000
0000
0000
0000
,  // measure 2
0000
0000
0000
0000
,  // measure 3
0000
0000
0000
0000
,  // measure 4
0000
0000
0000
0000
,  // measure 5
0000
0000
0000
0000
,  // measure 6
0000
0000
0000
0000
,  // measure 7
0000
0000
0000
0000
,  // measure 8
1000
0000
0000
0000
,  // measure 9
0000
0000
0000
0000
,  // measure 10
1000
0000
0000
0000
,  // measure 11
0000
0000
0000
0000
,  // measure 12
0001
0000
0000
0000
,  // measure 13
0000
0000
0000
0000
,  // measure 14
0001
0000
0000
0000
,  // measure 15
0000
0000
0000
0000
,  // measure 16
1000
0000
0000
0000
,  // measure 17
1000
0000
0000
0000
,  // measure 18
1000
0000
0000
0000
,  // measure 19
1000
0000
0000
0000
,  // measure 20
0001
0000
0000
0000
,  // measure 21
0001
0000
0000
0000
,  // measure 22
0001
0000
0000
0000
,  // measure 23
0001
0000
0000
0000
,  // measure 24
1000
0000
0001
0000
,  // measure 25
1000
0000
0000
0000
,  // measure 26
0001
0000
0010
0000
,  // measure 27
0001
0000
0000
0000
,  // measure 28
1000
0000
0100
0000
,  // measure 29
1000
0000
0000
0000
,  // measure 30
0010
0000
0100
0000
,  // measure 31
0010
0000
0000
0000
,  // measure 32
1000
0000
0000
0000
,  // measure 33
0000
0000
0000
0000
,  // measure 34
0001
0000
0000
0000
,  // measure 35
0000
0000
0000
0000
,  // measure 36
1000
0000
0000
0000
,  // measure 37
0000
0000
0000
0000
,  // measure 38
0001
0000
0000
0000
,  // measure 39
0000
0000
0000
0000
,  // measure 40
0010
0000
0000
0000
,  // measure 41
0100
0000
0000
0000
,  // measure 42
0010
0000
0000
0000
,  // measure 43
0100
0000
0000
0000
,  // measure 44
0001
0000
0000
0000
,  // measure 45
1000
0000
0000
0000
,  // measure 46
0001
0000
0000
0000
,  // measure 47
1000
0000
0000
0000
,  // measure 48
0100
0000
0000
0000
,  // measure 49
0000
0000
0000
0000
,  // measure 50
0010
0000
0000
0000
,  // measure 51
0000
0000
0000
0000
,  // measure 52
1000
0000
0000
0000
,  // measure 53
0000
0000
0000
0000
,  // measure 54
0001
0000
0000
0000
,  // measure 55
0000
0000
0000
0000
,  // measure 56
1000
0000
0000
0000
,  // measure 57
0000
0000
0000
0000
,  // measure 58
0000
0000
0000
0000
,  // measure 59
0000
0000
0000
0000
,  // measure 60
0001
0000
0000
0000
,  // measure 61
0000
0000
0000
0000
,  // measure 62
0000
0000
0000
0000
,  // measure 63
0100
0000
0010
0000
,  // measure 64
1001
0000
0000
0000
,  // measure 65
0110
0000
0000
0000
,  // measure 66
1000
0000
0100
0000
,  // measure 67
1000
0000
0000
0000
,  // measure 68
0010
0000
0001
0000
,  // measure 69
0010
0000
0000
0000
,  // measure 70
0100
0000
0001
0000
,  // measure 71
0100
0000
0000
0000
,  // measure 72
0010
0000
1000
0000
,  // measure 73
0010
0000
0000
0000
,  // measure 74
0100
0100
0100
0000
,  // measure 75
0000
0000
0000
0000
,  // measure 76
0010
0010
0010
0000
,  // measure 77
0000
0000
0000
0000
,  // measure 78
1000
1000
1000
0000
,  // measure 79
0000
0000
0000
0000
,  // measure 80
0001
0000
0000
0000
,  // measure 81
0100
0000
1001
0000
;
