#VERSION:0.81;
#TITLE:BELIEVE IN FIREMAN;
#ARTIST:FIREMAN;
#GENRE:Dancemania;
#CREDIT:A. Michaelangelo;
#BANNER:[SC 2011] - BELIEVE IN FIREMAN.png;
#BACKGROUND:[SC 2011] - BELIEVE IN FIREMAN-bg.png;
#JACKET:[SC 2011] - BELIEVE IN FIREMAN-jacket.png;
#CDTITLE:cdtitle.png;
#MUSIC:[SC 2011] - BELIEVE IN FIREMAN.ogg;
#OFFSET:-16.625;
#SAMPLESTART:53.1;
#BPMS:0=159.45;
#NOTEDATA:;
#CHARTNAME:Beginner;
#STEPSTYPE:dance-single;
#DESCRIPTION:EXTREME Style;
#CHARTSTYLE:Pad;
#DIFFICULTY:Beginner;
#METER:1;
#CREDIT:A. Michaelangelo;
#NOTES:
0010
0000
0000
0000
,
0100
0000
0000
0000
,
0010
0000
0000
0000
,
0100
0000
0000
0000
,
0010
0000
0000
0000
,
1000
0000
0000
0000
,
0010
0000
0000
0000
,
0001
0000
0000
0000
,
0010
0000
0000
0000
,
0000
0000
0000
0000
,
0100
0000
0000
0000
,
0000
0000
0000
0000
,
1000
0000
0000
0000
,
0000
0000
0000
0000
,
0001
0000
0000
0000
,
0000
0000
0000
0000
,
1000
0000
0000
0000
,
0000
0000
0000
0000
,
0010
0000
0000
0000
,
0000
0000
0000
0000
,
0100
0000
0000
0000
,
0000
0000
0000
0000
,
0010
0000
0000
0000
,
0000
0000
0000
0000
,
1000
0000
0000
0000
,
0001
0001
0000
0000
,
0000
0000
0000
0000
,
0100
0100
0000
0000
,
0000
0000
0000
0000
,
0010
0010
0000
0000
,
0000
0000
0000
0000
,
1000
1000
0000
0000
,
0000
0000
0000
0000
,
0100
0100
0000
0000
,
0000
0000
0000
0000
,
1000
1000
0000
0000
,
0000
0000
0000
0000
,
0001
0001
0000
0000
,
0000
0000
0000
0000
,
0100
0100
0000
0000
,
0000
0000
0000
0000
,
0010
0000
0000
0000
,
0100
0000
0000
0000
,
0001
0000
0000
0000
,
0010
0000
0000
0000
,
0001
0000
0000
0000
,
1000
0000
0000
0000
,
0100
0000
0000
0000
,
0010
0000
0000
0000
,
0001
0000
0000
0000
,
1000
0000
0000
0000
,
0001
0000
0000
0000
,
0010
0000
0000
0000
,
0100
0000
0000
0000
,
0010
0000
0000
0000
,
1000
0000
0000
0000
,
0010
0000
0000
0000
,
0100
0100
0000
0000
,
0000
0000
0000
0000
,
0010
0010
0000
0000
,
0000
0000
0000
0000
,
1000
1000
0000
0000
,
0000
0000
0000
0000
,
0001
0001
0000
0000
,
0000
0000
0000
0000
,
0001
0001
0000
0000
,
0000
0000
0000
0000
,
0010
0010
0000
0000
,
0000
0000
0000
0000
,
0100
0100
0000
0000
,
0000
0000
0000
0000
,
0100
0100
0000
0000
,
0000
0000
0000
0000
,
1000
0000
0000
0000
,
0000
0000
0000
0000
,
0001
0000
0000
0000
,
0000
0000
0000
0000
,
1000
0000
0000
0000
,
0000
0000
0000
0000
,
0010
0000
0000
0000
,
0000
0000
0000
0000
,
0001
0000
0000
0000
,
0100
0000
0100
0000
;
#NOTEDATA:;
#CHARTNAME:Basic;
#STEPSTYPE:dance-single;
#DESCRIPTION:3rdMIX Redux;
#CHARTSTYLE:Pad;
#DIFFICULTY:Easy;
#METER:4;
#CREDIT:A. Michaelangelo;
#NOTES:
0001
0001
0001
0000
,
1000
1000
1000
0000
,
0001
0001
0001
0000
,
1000
1000
1000
0000
,
0010
0100
0001
0000
,
0010
0100
1000
0000
,
1000
0100
0010
0000
,
0001
0001
0010
0010
,
1001
0000
0010
0100
,
1001
0000
1000
0010
,
1001
0000
0001
0010
,
1001
0000
1000
1000
,
1001
0000
0001
0001
,
1001
0000
0010
0010
,
0100
0100
0010
0010
,
1000
1000
1000
0000
,
1000
0100
0001
0100
,
1000
0100
0001
0100
,
1000
0010
0001
0010
,
1000
0010
0001
0010
,
1000
0100
1000
0010
,
1000
0100
1000
0010
,
1000
0100
1000
0010
,
1000
0100
1000
1000
,
1000
0000
0000
0000
,
0110
0001
0001
0001
,
0100
0100
0100
0000
,
1001
1000
1000
1000
,
0100
0010
0001
0000
,
0110
0010
0100
0000
,
1001
0001
1000
0000
,
1001
0000
0110
0000
,
1001
0000
0000
0000
,
0110
0100
0100
0100
,
0010
0010
0010
0000
,
1001
1000
0100
0001
,
0010
1000
0001
0000
,
0110
0001
1000
0001
,
0010
0001
1000
0001
,
0010
0001
1000
0001
,
0001
0000
0000
0000
,
0010
0010
0010
0000
,
1000
1000
1000
0000
,
0100
0100
0100
0000
,
1000
1000
1000
0000
,
0001
0001
0001
0000
,
0010
0001
0010
0000
,
0100
1000
0100
0000
,
0010
1000
0010
0000
,
0001
0001
0001
0000
,
0100
0100
0100
0000
,
1000
1000
1000
0000
,
0100
0100
0100
0000
,
0010
0010
0010
0000
,
0001
1000
0001
0000
,
1000
0100
1000
0000
,
0000
0000
0000
0000
,
1001
0001
1001
0000
,
1001
1000
1001
0000
,
1001
0100
1001
0000
,
1001
0010
1001
0000
,
1000
0010
1000
0100
,
1000
0001
1000
0010
,
1000
0100
0010
0001
,
1000
0000
0000
0000
,
0110
0001
0001
0000
,
0110
1000
1000
0000
,
1001
0010
0010
0000
,
1001
0100
0100
0000
,
0010
1000
0010
0001
,
0010
0100
0010
0001
,
0010
1000
1000
1000
,
1000
0000
0000
0000
,
1000
0000
1000
0000
,
0010
0000
0010
0000
,
1000
0000
1000
0000
,
0001
0000
0001
0000
,
0010
0000
0010
0000
,
0100
0000
0100
0000
,
0001
0000
0001
0000
,
1000
0000
1000
0000
,
1000
0000
0000
0000
,
0100
0000
0100
0000
;
#NOTEDATA:;
#CHARTNAME:Difficult;
#STEPSTYPE:dance-single;
#DESCRIPTION:I dunno...;
#CHARTSTYLE:Pad;
#DIFFICULTY:Medium;
#METER:6;
#CREDIT:A. Michaelangelo;
#NOTES:
0001
0000
1000
0100
0000
0100
1000
0000
,
0010
0000
0100
0001
0000
0001
0100
0000
,
0010
0000
1000
0100
0000
0100
1000
0000
,
0100
0000
1000
0001
0000
0001
1000
0000
,
0010
0000
0100
0001
0000
0001
0100
0000
,
0001
0000
0010
1000
0000
1000
0010
0000
,
1000
0000
0010
0100
0000
0100
0010
0000
,
1000
0100
0010
0000
1000
0100
0010
0000
,
0001
0100
1000
0000
1000
0000
1000
0000
,
0001
0100
1000
0000
1000
0000
1000
0000
,
0010
0100
1000
0000
0010
0000
0010
0000
,
0010
0100
1000
0000
0010
0000
0010
0000
,
1000
0100
0001
0000
0001
0000
0001
0000
,
1000
0100
0001
0000
0001
0000
0001
0000
,
1000
0001
1000
0001
,
1000
0100
1000
0100
,
0001
0010
0100
0000
0100
0000
0100
0000
,
0001
0010
0100
0000
0100
0000
0100
0000
,
0010
1000
0100
0000
0010
0000
0010
0000
,
0010
1000
0100
0000
0010
0000
0010
0000
,
0001
0010
1000
0000
1000
0000
1000
0000
,
0001
0010
1000
0000
1000
0000
1000
0000
,
0010
0100
0010
0000
0100
0000
0100
0000
,
0001
0010
0100
0000
0001
0010
0100
0000
,
1001
0000
0000
0000
,
1000
0100
1000
0100
1000
0000
0000
0000
,
0001
0100
0001
0100
0001
0000
0000
0000
,
0010
1000
0010
1000
0010
0000
0000
0000
,
0010
0001
0010
0001
0010
0000
0000
0000
,
1000
0001
1000
0001
1000
0000
0000
0000
,
1000
0010
1000
0010
1000
0000
0000
0000
,
0010
1000
0001
1000
0010
0100
0001
1000
,
0100
0000
0000
0000
,
0010
0100
0010
0100
0010
0000
0000
0000
,
0010
1000
0010
1000
0010
0000
0000
0000
,
0001
0010
0001
0010
0001
0000
0000
0000
,
0001
1000
0001
1000
0001
0000
0000
0000
,
0100
0001
0100
0001
0100
0000
0000
0000
,
1000
0010
1000
0010
1000
0000
0000
0000
,
1000
0100
0010
0001
1000
0010
0100
0001
,
0100
0000
0000
0000
,
0010
0000
1000
0001
0000
0001
1000
0000
,
0100
0000
0010
0001
0000
0001
0010
0000
,
1000
0000
0100
0010
0000
0010
0100
0000
,
0001
0000
1000
0010
0000
0010
1000
0000
,
0001
0000
0100
0001
0000
0001
0100
0000
,
0001
0000
1000
0100
0000
0100
1000
0000
,
0100
0000
1000
0001
0000
0001
1000
0000
,
0010
0000
0100
0010
0000
0010
0100
0000
,
0001
0000
1000
0010
0000
0010
1000
0000
,
0100
0000
0001
0100
0000
0100
0001
0000
,
0010
0000
1000
0001
0000
0001
1000
0000
,
0100
0000
1000
0010
0000
0010
1000
0000
,
0100
0000
0010
0100
0000
0100
0010
0000
,
1000
0000
0001
0100
0000
0100
0001
0000
,
1000
0000
0001
1000
0000
1000
0001
0000
,
1000
0100
0010
0000
1000
0100
0010
0000
,
0001
0010
0001
0100
0001
0000
0000
0000
,
1000
0010
1000
0100
1000
0000
0000
0000
,
0010
0100
0010
1000
0010
0000
0000
0000
,
0001
1000
0001
0010
0001
0000
0000
0000
,
1000
0001
1000
0010
1000
0000
0000
0000
,
0010
0001
0010
0100
0010
0000
0000
0000
,
0001
1000
0010
1000
0100
0010
0001
0100
,
0001
0000
0000
0000
,
0100
0010
0100
1000
0100
0000
0000
0000
,
0010
0001
0010
1000
0010
0000
0000
0000
,
1000
0100
1000
0001
1000
0000
0000
0000
,
0001
0100
0001
0010
0001
0000
0000
0000
,
0010
0100
0010
1000
0010
0000
0000
0000
,
1000
0010
1000
0100
1000
0000
0000
0000
,
0010
0001
1000
0100
0010
1000
0100
0001
,
0010
0000
0000
0000
,
0010
1000
0001
1000
,
0010
1000
0001
1000
,
0010
0100
0010
1000
,
0010
0100
0010
1000
,
0001
0010
0100
0001
,
0010
0100
0001
0010
,
0100
0001
0010
0100
,
1000
0000
0001
0000
,
1000
0000
0000
0000
,
0100
0000
0100
0000
;
#NOTEDATA:;
#CHARTNAME:Expert;
#STEPSTYPE:dance-single;
#DESCRIPTION:3rdMIX Redux;
#CHARTSTYLE:Pad;
#DIFFICULTY:Hard;
#METER:8;
#CREDIT:A. Michaelangelo;
#NOTES:
1000
0100
0010
0001
0000
0010
0001
0000
,
1000
0010
0100
0001
0000
1000
0010
0000
,
0001
0100
0010
1000
0000
0010
1000
0000
,
0001
0010
0100
1000
0000
0001
0010
0000
,
1000
0001
0100
0010
0000
0100
0010
0000
,
0001
1000
0100
0010
0000
0001
1000
0000
,
0010
0001
0100
1000
0000
0100
1000
0000
,
1000
0010
0100
0001
0001
0010
0100
0000
,
1000
0100
1000
0000
1000
0010
1000
0000
,
0001
0100
0001
0010
0001
1000
0001
0000
,
0010
1000
0010
0000
0100
0001
0100
0000
,
0010
0100
0010
0001
0010
1000
0010
0000
,
0100
1000
0100
0000
0100
0001
0100
0000
,
1000
0010
1000
0100
1000
0010
1000
0000
,
0010
0001
0010
0000
0001
1000
0001
0000
,
1000
1000
0001
0001
1000
1000
0100
0100
,
0010
0001
0100
0000
0001
1000
0100
0000
,
1000
0001
0100
0010
1000
0100
0010
0000
,
0100
1000
0001
0000
0001
0010
0100
0000
,
0010
0001
0100
1000
0100
0010
1000
0000
,
1000
0100
0001
0000
1000
0010
0001
0000
,
0010
0100
1000
0001
1000
0010
0100
0000
,
0010
0100
0100
0000
0010
1000
1000
0000
,
0100
0100
0010
0010
0001
0001
1000
1000
,
1000
0000
0000
0000
,
1000
0010
1000
0010
1000
0010
1000
0010
,
1000
0100
1000
0100
1000
0100
1000
0100
,
0010
0001
0010
0001
0010
0001
0010
0001
,
1000
0001
1000
0001
1000
0001
1000
0001
,
0010
0100
0010
0100
0010
0100
0010
0100
,
1000
0100
1000
0100
1000
0100
1000
0000
,
0011
0100
1010
0001
,
0110
1000
0101
0100
,
0010
0100
0010
0100
0010
0100
0010
0100
,
0001
1000
0001
1000
0001
1000
0001
1000
,
0100
1000
0100
1000
0100
1000
0100
1000
,
0001
0100
0001
0100
0001
0100
0001
0100
,
0001
1000
0001
1000
0001
1000
0001
1000
,
0100
0010
0100
0010
0100
0010
0100
0000
,
1100
0100
0011
0001
,
1001
0000
0000
0000
,
0001
1000
0100
0010
0000
0001
0100
0000
,
0010
1000
0010
0100
0000
0001
0001
0000
,
0100
0010
1000
0001
0000
0001
1000
0000
,
1000
0100
0001
0010
0000
0100
0100
0000
,
0010
1000
0100
0010
0000
1000
0100
0000
,
0010
0100
0010
0001
0000
1000
1000
0000
,
1000
0100
0001
0100
0000
1000
0100
0000
,
0001
0100
1000
0100
0000
0001
0100
0000
,
0010
0001
0010
0001
0000
1000
0100
0000
,
1000
0010
1000
0010
0000
0001
0100
0000
,
0001
1000
0001
1000
0000
0100
0010
0000
,
0010
0100
0010
0100
0000
0001
1000
0000
,
0001
0100
0001
0100
0000
0010
1000
0000
,
1000
0100
1000
0100
0000
0010
0001
0000
,
0001
0010
0001
0100
0000
0010
1000
0000
,
1000
1000
0100
0100
0010
0010
0001
0001
,
0001
1000
0001
1000
0001
1000
0001
1000
,
0010
1000
0010
1000
0010
1000
0010
1000
,
0001
0100
0001
0100
0001
0100
0001
0100
,
0001
0010
0001
0010
0001
0010
0001
0010
,
0001
1000
0001
1000
0001
1000
0001
1000
,
0100
1000
0100
1000
0100
1000
0100
0001
,
0100
0001
0010
0001
0010
0001
0010
1000
,
0010
1000
0001
0100
0010
1000
0001
0100
,
0010
1000
0010
1000
0010
1000
0010
1000
,
0010
0100
0010
0100
0010
0100
0010
0100
,
0010
0001
0010
0001
0010
0001
0010
0001
,
1000
0100
1000
0100
1000
0100
1000
0100
,
0010
1000
0010
1000
0010
1000
0010
1000
,
0001
0100
0001
0100
0001
0100
0001
0100
,
0001
0010
0001
0010
0001
0010
0001
0010
,
0000
0000
0000
0000
,
1000
0010
0100
0001
,
0010
1000
0001
0100
,
0001
0100
1000
0010
,
0100
0001
1000
0100
,
0010
0000
1000
0000
,
0100
0000
0010
0000
,
0001
0100
0010
1000
0010
0100
0001
1000
,
0100
0010
0100
0001
0100
1000
0010
1000
,
0100
0000
0000
0000
,
0100
0000
0100
0000
;
