#TITLE:Air Crash;
#SUBTITLE:[Another];
#ARTIST:Mark Mothersbaugh & Josh Mancell;
#TITLETRANSLIT:;
#SUBTITLETRANSLIT:;
#ARTISTTRANSLIT:;
#GENRE:;
#CREDIT:TaroNuke;
#BANNER:[Video Games] - Air Crash [another].png;
#BACKGROUND:[Video Games] - Air Crash [another]-bg.png;
#LYRICSPATH:;
#CDTITLE:;
#MUSIC:[Video Games] - Air Crash [another].ogg;
#OFFSET:0.000;
#SAMPLESTART:5.374;
#SAMPLELENGTH:12.000;
#SELECTABLE:YES;
#BPMS:0.000=178.710
;
#STOPS:
;
#BGCHANGES:;
#KEYSOUNDS:;
#ATTACKS:;

//---------------dance-single - Blank----------------
#NOTES:
     dance-single:
     :
     Hard:
     8:
     0.660,0.622,0.522,0.261,0.000,367.000,50.000,25.000,0.000,0.000,0.000,0.660,0.622,0.522,0.261,0.000,367.000,50.000,25.000,0.000,0.000,0.000:
0000
0000
0000
0000
,
0000
0000
0000
0000
,
0000
0000
0000
0000
,
0000
0000
0000
0000
,
1010
0000
0010
0100
0000
1000
0000
0100
,
0001
0010
1000
0010
0001
0000
0010
0100
,
1000
0000
0100
0010
0000
1000
0000
0010
,
0001
0100
0010
1000
0001
0100
0010
1000
,
0001
0000
0001
0010
0000
1100
0000
0010
,
0001
0000
0001
0100
0000
1010
0000
0100
,
0001
0021
0130
1020
,
0130
0000
0001
0100
0010
1000
1000
0010
,
0100
0000
0001
0010
0100
1000
0010
0000
,
0100
0001
0010
0100
1000
0010
0100
0000
,
0010
0000
1000
0100
0010
0001
0100
0000
,
0010
1000
0100
0010
0001
0100
0010
1000
,
1100
0000
1100
0000
1000
0100
0010
0001
,
0011
0000
0011
0000
0001
0010
0100
1000
,
1010
0000
1010
0000
1000
0010
0100
0001
,
0101
0000
0101
0000
0001
0100
0010
1000
,
1100
0000
0101
0000
0001
0100
0010
0100
,
0101
0000
1100
0000
1000
0010
0100
0010
,
1010
0000
0011
0000
0001
0010
0100
0010
,
0011
0000
1010
0000
1000
0100
0100
0010
,
0011
0000
1100
0000
0001
0010
0100
1000
,
1010
0000
0101
0000
1000
0010
0100
0001
,
1000
1000
0100
0000
0010
0001
0000
0201
,
0000
0000
0301
0100
1000
0000
0100
0000
,
0102
0010
1000
0010
,
0100
0100
0010
0013
,
2100
0100
0001
0100
,
0010
0000
0010
0000
3100
0000
0010
0100
,
1000
0000
0010
0010
0100
0001
1000
0000
,
0010
0000
0100
0100
0001
1000
0100
0000
,
1000
0000
0100
0100
0010
0001
1000
0000
,
0100
0000
0010
0010
0001
1000
0010
0000
,
0100
0000
0001
0001
0100
1000
0100
0000
,
0001
0000
0010
0010
1000
0010
0001
0000
,
0010
1000
0010
1000
0010
1000
0010
1000
,
0010
0001
0010
0001
0010
0001
0010
0001
,
0100
0001
0100
0001
0100
0001
0100
0010
,
2000
3200
0320
0031
,
1000
0100
0001
0100
1000
0000
1010
0000
,
0100
0000
0001
0001
0010
0100
1000
0000
,
0210
0301
0120
1030
,
0001
0100
0010
1000
0100
0010
0001
0000
,
2000
0010
0001
3010
,
0002
0010
1000
0013
,
2000
0100
0001
3100
,
0002
0100
1000
0103
,
1020
0100
0001
0100
,
1000
1000
0100
0130
,
0201
1000
0010
1000
,
0010
0000
0010
0000
0301
0000
1000
0100
,
0010
0001
0100
0010
0100
0001
0010
0100
,
1000
0010
0100
0010
1000
0100
0010
0001
,
0100
0000
0010
1000
0000
0100
0001
0100
,
1000
0000
0010
0100
0000
1000
1000
0100
,
0001
0010
0100
1000
0010
0100
0001
1000
,
0100
0010
0001
0100
0010
0100
0101
0000
,
2010
0100
3001
0011
,
0102
0010
1003
1010
,
2100
0010
0001
0010
,
0100
0100
0001
3001
,
0012
0100
1000
0100
,
0010
0000
0010
0000
1003
0000
0010
0100
,
0210
0301
2010
3100
,
0012
1003
0110
2001
,
3100
0012
0103
1010
,
0110
0000
1001
0000
0001
0010
0100
1000
,
1001
0000
0000
0000
;

//---------------dance-single - Blank----------------
#NOTES:
     dance-single:
     :
     Medium:
     6:
     0.443,0.519,0.303,0.230,0.000,246.000,29.000,22.000,0.000,0.000,0.000,0.443,0.519,0.303,0.230,0.000,246.000,29.000,22.000,0.000,0.000,0.000:
0000
0000
0000
0000
,
0000
0000
0000
0000
,
0000
0000
0000
0000
,
0000
0000
0000
0000
,
0010
0000
0000
1000
0000
1000
0000
0001
,
0100
0100
0010
0000
,
1000
0000
0000
0001
0000
0001
0000
1000
,
0100
0010
0001
0100
,
0110
0000
0000
0001
0000
1000
0000
0100
,
1000
0000
0000
0010
0000
0100
0000
0001
,
0010
0011
0010
0110
,
0100
1000
0010
0100
,
0101
0001
0010
0100
,
1000
1000
0010
0100
0001
0000
0000
0000
,
1100
0010
0001
0100
,
0010
0010
0100
0001
1000
0000
0000
0000
,
1100
1100
0010
0010
,
0101
0101
0010
0010
,
1001
1001
0100
0100
,
1001
1001
0010
0010
,
0101
0101
1000
1000
,
1010
1010
0001
0001
,
1100
1100
0001
0001
,
0011
0000
0011
0000
0010
0000
0010
0100
,
1000
0000
1000
0000
0010
0000
0100
0001
,
0010
0000
0010
0000
0100
0000
1000
0010
,
0100
0001
0010
0000
0100
1000
0000
0020
,
0000
0000
0000
0000
,
0230
0000
0000
0000
,
0000
0000
0000
0000
,
0302
0000
0000
0000
,
0000
0000
0000
0000
0000
0000
0000
0003
,
1000
0100
0010
0001
,
0100
0010
0100
0001
,
0010
0100
0000
1000
0000
0010
0000
0100
,
0001
0010
0000
0100
0000
1000
0000
0010
,
0100
0000
0100
0000
0001
0010
0000
0200
,
0000
0000
0000
0000
0000
0300
1000
0000
,
0010
0100
0010
0100
0010
0100
0010
0000
,
0100
0001
0100
0001
0100
0001
0100
0000
,
1000
0001
1000
0001
1000
0001
1000
0000
,
0020
0000
0000
0130
,
0001
0010
0100
1000
0001
0000
0100
0000
,
0010
0100
0101
0101
,
1000
1100
0001
0011
,
2000
3020
0230
0301
,
1000
0000
0100
1000
0010
0000
0100
0001
,
0010
0000
0100
1000
0001
0100
0010
0000
,
0100
0000
0001
0010
0100
0000
1000
0010
,
0100
0000
0001
1000
0100
0001
0100
0000
,
2000
0000
0000
0000
,
0000
0000
0000
0000
,
3002
0000
0000
0000
,
0000
0000
0000
0000
0000
0000
0000
0003
,
0100
0000
0010
0000
1010
0000
1000
0100
,
0010
0001
0100
0110
,
0100
0000
0001
1000
0100
0000
1000
0001
,
0100
0000
0010
1000
0200
0000
0310
0000
,
0001
0100
0010
1000
,
0100
1000
0100
1000
0010
0100
0010
0000
,
0100
0001
0010
0011
,
0110
0100
1000
0010
,
0200
0000
0000
0000
,
0000
0000
0000
0000
,
0302
0000
0000
0000
,
0000
0000
0000
0000
0000
0000
0000
0003
,
2000
0000
3020
0000
,
0230
0000
0301
0020
,
0000
0030
0200
0000
0000
0000
2300
0000
,
3020
0000
0230
0000
0301
0010
0100
1000
,
0020
0000
0000
0000
,
0030
0000
0000
0000
;

//---------------dance-single - Blank----------------
#NOTES:
     dance-single:
     :
     Easy:
     4:
     0.261,0.293,0.104,0.125,0.000,153.000,10.000,12.000,0.000,0.000,0.000,0.261,0.293,0.104,0.125,0.000,153.000,10.000,12.000,0.000,0.000,0.000: // measure 0
0000
0000
0000
0000
,  // measure 1
0000
0000
0000
0000
,  // measure 2
0000
0000
0000
0000
,  // measure 3
0000
0000
0000
0000
,  // measure 4
1000
0000
0001
0000
,  // measure 5
1000
0100
0001
0000
,  // measure 6
1000
0000
0001
0000
,  // measure 7
1000
0010
0001
0100
,  // measure 8
1000
0000
0001
0100
,  // measure 9
0010
0000
1000
0100
,  // measure 10
0010
0010
0001
0001
,  // measure 11
0100
0010
1000
0001
,  // measure 12
0100
0000
0010
0000
,  // measure 13
1000
0100
0010
0000
,  // measure 14
0001
0000
0100
0000
,  // measure 15
0010
0100
0001
1000
,  // measure 16
0100
0100
0000
0000
,  // measure 17
1000
1000
0000
0000
,  // measure 18
0010
0010
0000
0000
,  // measure 19
0100
0100
0000
0000
,  // measure 20
0001
0001
0000
0000
,  // measure 21
1000
1000
0000
0000
,  // measure 22
0100
0100
0000
0000
,  // measure 23
0010
0010
0000
0000
,  // measure 24
0001
0100
0000
0010
,  // measure 25
0100
0001
0000
1000
,  // measure 26
0100
0001
0010
0000
,  // measure 27
2200
0000
0000
3300
,  // measure 28
2002
0000
0000
0000
,  // measure 29
0000
0000
0000
0000
,  // measure 30
0003
0000
0000
0000
,  // measure 31
0000
0000
0000
0000
,  // measure 32
3001
0100
0010
0000
,  // measure 33
0100
0001
1000
0000
,  // measure 34
0100
0100
1000
1000
,  // measure 35
0001
0001
0100
0100
,  // measure 36
0010
1000
0100
0010
,  // measure 37
0001
0000
0100
0000
,  // measure 38
0001
1000
0100
0000
,  // measure 39
1000
0001
0010
0000
,  // measure 40
0001
1000
0010
0000
,  // measure 41
0220
0000
0000
0330
,  // measure 42
1000
0100
0001
0000
,  // measure 43
0001
0010
1000
0000
,  // measure 44
1010
0000
0101
0000
,  // measure 45
2002
0000
0000
3003
,  // measure 46
0001
0010
0100
1000
,  // measure 47
0001
0000
0000
0000
,  // measure 48
1000
0100
0010
0001
,  // measure 49
1000
0000
0000
0001
,  // measure 50
2020
0000
0000
0000
,  // measure 51
0000
0000
0000
0000
,  // measure 52
3000
0000
0000
0000
,  // measure 53
0000
0000
0000
0000
,  // measure 54
0130
0001
0010
0100
,  // measure 55
1000
0001
0100
0000
,  // measure 56
1000
0100
1000
0100
,  // measure 57
0001
0010
0100
0000
,  // measure 58
1000
1000
0001
0000
,  // measure 59
0100
0100
0001
1000
,  // measure 60
1100
0000
0000
0001
,  // measure 61
0011
0000
0000
0100
,  // measure 62
0002
0000
0000
0000
,  // measure 63
0000
0000
0000
0000
,  // measure 64
2000
0000
0000
0000
,  // measure 65
0000
0000
0000
3003
,  // measure 66
1000
0000
0010
0000
,  // measure 67
0100
0000
0001
1000
,  // measure 68
0000
0100
0000
0010
,  // measure 69
0100
1000
0010
0100
,  // measure 70
1001
0000
0000
0000
;
