#TITLE:AIR RAID FROM THA UNDAGROUND;
#SUBTITLE:;
#ARTIST:GUHROOVY;
#TITLETRANSLIT:;
#SUBTITLETRANSLIT:;
#ARTISTTRANSLIT:;
#CREDIT:;
#BANNER:;
#BACKGROUND:;
#LYRICSPATH:;
#CDTITLE:;
#MUSIC:AIR RAID FROM THA UNDAGROUND.ogg;
#OFFSET:-10.060;
#SAMPLESTART:42.340;
#SAMPLELENGTH:11.340;
#SELECTABLE:YES;
#BPMS:0.000=180.001,31.000=359.999,154.000=180.000,155.000=90.000,156.000=180.000,188.000=359.999;
#STOPS:31.000=1.160
,187.938=0.020
;
#BGCHANGES:;

//---------------dance-single - ----------------
#NOTES:
     dance-single:
     :
     Beginner:
     2:
     0.151,0.254,0.013,0.000,0.000: // measure 1
0000
0000
0000
1000
,  // measure 2
0000
0000
0000
0001
,  // measure 3
0000
0000
0000
0100
,  // measure 4
0000
0000
0000
0010
,  // measure 5
0000
0000
0000
0100
,  // measure 6
0000
0000
0000
0001
,  // measure 7
0000
0000
0000
1000
,  // measure 8
0000
0000
0000
0000
,  // measure 9
1000
0000
0000
0000
,  // measure 10
1000
0000
0000
0000
,  // measure 11
1000
0000
0000
0000
,  // measure 12
0000
0000
0000
0000
,  // measure 13
0001
0000
0000
0000
,  // measure 14
0001
0000
0000
0000
,  // measure 15
0001
0000
0000
0000
,  // measure 16
0000
0000
0000
0000
,  // measure 17
0100
0000
0000
0000
,  // measure 18
0100
0000
0000
0000
,  // measure 19
0100
0000
0000
0000
,  // measure 20
0000
0000
0000
0000
,  // measure 21
0010
0000
0000
0000
,  // measure 22
0010
0000
0000
0000
,  // measure 23
0010
0000
0000
0000
,  // measure 24
0000
0000
0000
0000
,  // measure 25
0010
0000
0000
0000
,  // measure 26
0100
0000
0000
0000
,  // measure 27
0010
0000
0000
0000
,  // measure 28
0000
0000
0000
0000
,  // measure 29
1000
0000
0000
0000
,  // measure 30
0001
0000
0000
0000
,  // measure 31
1000
0000
0000
0000
,  // measure 32
0000
0000
0000
0000
,  // measure 33
0001
0000
0000
0000
,  // measure 34
0010
0000
0000
0000
,  // measure 35
0001
0000
0000
0000
,  // measure 36
0000
0000
0000
0000
,  // measure 37
1000
0000
0000
0000
,  // measure 38
0100
0000
0000
0000
,  // measure 39
1000
0000
0000
0000
,  // measure 40
1000
0000
1000
0000
,  // measure 41
1000
0000
0000
0000
,  // measure 42
0001
0000
0001
0000
,  // measure 43
0001
0000
0000
0000
,  // measure 44
0100
0000
0100
0000
,  // measure 45
0100
0000
0000
0000
,  // measure 46
0010
0000
0010
0000
,  // measure 47
0010
0000
0000
0000
,  // measure 48
0001
0000
0000
0000
,  // measure 49
0001
0000
0000
0000
,  // measure 50
0001
0000
0000
0000
,  // measure 51
0000
0000
0000
0000
,  // measure 52
1000
0000
0000
0000
,  // measure 53
1000
0000
0000
0000
,  // measure 54
1000
0000
0000
0000
,  // measure 55
0000
0000
0000
0000
,  // measure 56
0010
0000
0000
0000
,  // measure 57
0010
0000
0000
0000
,  // measure 58
0010
0000
0000
0000
,  // measure 59
0000
0000
0000
0000
,  // measure 60
0100
0000
0000
0000
,  // measure 61
0100
0000
0000
0000
,  // measure 62
0100
0000
0000
0000
,  // measure 63
0000
0000
0000
0000
,  // measure 64
0001
0000
1000
0000
,  // measure 65
0001
0000
1000
0000
,  // measure 66
0001
0000
1000
0000
,  // measure 67
0001
0000
0000
0000
,  // measure 68
0100
0000
0010
0000
,  // measure 69
0100
0000
0010
0000
,  // measure 70
0100
0000
0000
0000
,  // measure 71
0010
0000
0000
0000
,  // measure 72
1000
0000
0100
0000
,  // measure 73
1000
0000
0100
0000
,  // measure 74
0010
0000
0001
0000
,  // measure 75
0010
0000
0001
0000
,  // measure 76
0100
0000
0000
0000
,  // measure 77
0010
0000
0000
0000
,  // measure 78
1000
0000
0000
0000
,  // measure 79
0001
0000
0000
0000
,  // measure 80
1001
0000
0000
0000
;

//---------------dance-single - ----------------
#NOTES:
     dance-single:
     :
     Easy:
     5:
     0.355,0.559,0.219,0.051,0.045:
0000
0000
0000
1001
,
0000
1000
0000
0100
,
0000
0010
0000
0001
,
0000
0100
0000
0010
,
0000
1000
0000
0001
,
0000
0100
0000
0010
,
0000
0100
0000
0001
,
0000
1000
0000
0000
,
1000
0000
0100
0000
,
1000
0000
0100
0000
,
0010
0000
0001
0000
,
0010
0000
0001
0000
,
0100
0000
0001
0000
,
0100
0000
0001
0000
,
1000
0000
0100
0000
,
1000
0000
0100
0000
,
0010
0000
0001
0000
,
0100
0000
1000
0000
,
0010
0000
1000
0000
,
0100
0000
0001
0000
,
0010
0000
0000
0000
,
0100
0000
0000
0000
,
1001
0000
1001
0000
,
1001
0000
0000
0000
,
0010
0000
0100
0000
,
0010
0000
0100
0000
,
0001
0000
1000
0000
,
0001
0000
0001
0000
,
1000
0000
0010
0000
,
0100
0000
0001
0000
,
0010
0000
0100
0000
,
1000
0000
1000
0000
,
0010
0000
0100
0000
,
0001
0000
0010
0000
,
0001
0000
0100
0000
,
0010
0000
1000
0000
,
1100
0000
0011
0000
,
0101
0000
1010
0000
,
2002
0000
0000
3003
,
1000
0000
0000
0100
0000
0000
1000
0000
1000
0100
0000
0000
,
0010
0000
0000
0001
0000
0000
0010
0000
0010
0001
0000
0000
,
0100
0000
0000
0010
0000
0000
0100
0000
0100
0010
0000
0000
,
1000
0000
0000
0001
0000
0000
1000
0000
1000
0001
0000
0000
,
0001
0000
0000
0100
0000
0000
0010
0000
0010
1000
0000
0000
,
0100
0000
0000
0010
0000
0000
0001
0000
0001
0100
0000
0000
,
0100
0000
0000
0001
0000
0000
0010
0000
0010
0100
0000
0000
,
2000
0000
0000
3000
,
0001
0000
0100
0000
,
0010
0000
1000
0000
,
0100
0000
0010
0000
,
0100
0000
1000
0000
,
0001
0000
0100
0000
,
0010
0000
1000
0000
,
0100
0000
0010
0000
,
1001
0000
0000
0000
,
0001
0000
0001
0000
,
0100
0000
0100
0000
,
0010
0000
0010
0000
,
1000
0000
1000
0000
,
0100
0000
1000
0000
,
0010
0000
0100
0000
,
0002
0000
0000
0000
,
0003
0000
0000
0000
,
0010
0000
0001
0000
,
0100
0000
0010
0000
,
1000
0000
0100
0000
,
0010
0000
0001
0000
,
1000
0000
0010
0000
,
0100
0000
0001
0000
,
0011
0000
1100
0000
,
1001
0000
0000
0000
,
0010
0000
1000
0000
,
0100
0000
0010
0000
,
0001
0000
0100
0000
,
0010
0000
1000
0000
,
1100
0000
0011
0000
,
1010
0000
0101
0000
,
0001
1000
0001
1000
,
0001
1000
0001
1000
,
0001
0000
0000
0000
;

//---------------dance-single - ----------------
#NOTES:
     dance-single:
     :
     Medium:
     7:
     0.509,0.712,0.257,0.129,0.090:
0000
0000
0000
0010
,
0000
1001
0000
0100
,
0000
1001
0000
0001
,
0000
0011
0000
0010
,
0000
0110
0000
0100
,
0000
1100
0000
1000
,
0000
1010
0000
0010
,
0000
1001
0000
0000
,
1000
0000
0010
0000
,
0100
0001
0100
0010
,
1000
0000
0001
0000
,
0010
0100
1000
0010
,
0100
0000
0001
0000
,
0010
0100
0010
0001
,
0100
0000
0010
0000
,
1000
0001
0010
0100
,
1000
0000
0001
0000
,
0100
0010
1000
0001
,
0010
0000
0001
0000
,
0100
0010
1000
0001
,
0010
0000
0011
0000
,
0010
0000
0110
0000
,
1100
0000
0011
0000
,
0202
0000
0303
0000
,
0010
1000
0100
1000
,
0010
0100
0001
0000
,
0010
0100
1000
0100
,
0010
0001
1000
0000
,
0010
0100
0001
0010
,
0100
0010
0001
0000
,
0100
0010
1000
0001
,
0010
0100
1000
0000
,
0010
0100
0001
0010
,
0100
1000
0010
0000
,
0100
0001
0010
0100
,
1000
0010
0100
0000
,
1001
0000
1001
0000
,
0110
0000
0110
0000
,
2002
0000
0000
3003
,
1000
0000
1000
0010
0000
0000
0100
0000
0100
0001
0000
0000
,
0001
0000
0001
0010
0000
0000
0010
0000
0010
0100
0000
0000
,
0100
0000
0100
1000
0000
0000
1000
0000
1000
0010
0000
0000
,
0010
0000
0010
0100
0000
0000
0100
0000
0100
0001
0000
0000
,
0001
0000
0010
0100
0000
0000
1000
0000
0010
0100
0000
0000
,
0001
0000
0100
0010
0000
0000
1000
0000
0001
0010
0000
0000
,
0001
0000
0100
0010
0000
0000
1000
0000
0001
0010
0000
0000
,
2200
0000
0000
3300
,
1000
0010
0100
0001
,
0010
0100
1000
0100
,
0010
0001
0100
0010
,
1000
0001
0010
0000
,
0010
0001
0100
0010
,
1000
0001
0010
0100
,
1000
0100
0010
0001
,
0100
0000
0001
0000
,
0100
0001
0100
0000
,
0010
1000
0010
0000
,
1000
0100
1000
0000
,
0001
0010
0001
0000
,
0100
0010
0100
0000
,
0010
1000
0001
0000
,
2002
0000
0000
0000
,
0000
0000
3003
0000
,
0010
0001
0010
0001
,
1000
0100
1000
0100
,
0010
0001
0010
0001
,
1000
0100
1000
0100
,
0001
0100
0001
0100
,
0010
1000
0010
1000
,
0010
0000
0100
0000
,
2002
0000
3003
0000
,
0001
0010
0001
0000
,
1000
0100
1000
0000
,
0010
0100
0010
0000
,
1000
0001
0010
0000
,
0100
0000
1000
0000
,
0010
0000
0100
0000
,
0001
0010
0001
0100
,
0010
1000
0100
0010
,
0001
0000
0000
0000
;

//---------------dance-single - ----------------
#NOTES:
     dance-single:
     :
     Hard:
     9:
     0.675,0.886,0.335,0.142,0.180:
0000
0000
0000
1001
,
0000
1100
0000
1001
,
0000
0101
0000
0110
,
0000
1010
0000
0110
,
0000
0011
0000
0101
,
0000
1100
0000
0011
,
0000
1010
0000
1001
,
0000
0110
0000
0000
,
0010
1000
0100
0001
,
0100
1000
0010
0100
,
0001
0010
0100
1000
,
0010
0100
0001
0001
,
0010
0001
0100
0010
,
1000
0001
0010
0100
,
1000
0010
0100
0001
,
0010
0100
1000
1000
,
0010
0100
0010
1000
,
0100
0010
0001
1000
,
0010
0100
0001
0010
,
0100
1000
0010
0010
,
0100
0001
0010
0100
,
1000
0010
0100
0001
,
0011
0000
1100
0000
,
2002
0000
3003
0000
,
0001
0100
0010
1000
,
0001
0010
0100
1000
,
0100
0010
0001
1000
,
0010
0100
0101
0001
,
0010
0100
1000
0100
,
0010
0001
1000
0010
,
0100
0001
0010
0100
,
1000
0010
1010
1000
,
0100
0010
0100
1000
,
0001
0100
0010
1000
,
0001
0010
0100
1000
,
0010
0100
0001
0010
,
0011
0000
1100
0000
,
1010
0000
1001
0000
,
0220
0000
0000
0330
,
0010
0000
0010
1000
0000
1000
0100
0000
0100
0010
0000
0010
,
0100
0000
0100
1000
0000
1000
0001
0000
0001
0100
0000
0100
,
0010
0000
0010
1000
0000
1000
0100
0000
0100
0001
0000
0001
,
0010
0000
0010
0001
0000
0001
0100
0000
0100
0010
0000
0010
,
1000
0000
0100
0010
0000
0001
1000
0000
0010
0100
0000
0001
,
0010
0000
0001
0100
0000
0010
1000
0000
0100
0010
0000
0100
,
1000
0000
0001
0100
0000
0010
1000
0000
0001
0010
0000
0100
,
2000
0000
0000
0000
0000
0000
0200
0000
3000
0300
0000
0000
,
1000
0010
0100
0001
,
0010
0100
1000
0100
,
0010
0001
1000
0010
,
0100
0010
1000
0100
,
0010
0001
1000
0010
,
0100
0001
0010
0100
,
1000
0100
0010
0001
,
0012
0000
0000
0000
1003
0100
1000
0100
,
1000
0010
1000
0000
0000
0001
0010
0000
,
0000
0010
0100
0000
0000
0100
1000
0000
,
0000
1000
0010
0000
0000
0010
0100
0000
,
0000
0100
0001
0000
0000
0001
0010
0000
,
0001
0010
0001
0000
1000
0010
1000
0000
,
0001
0100
0001
0000
1000
0100
1000
0000
,
2002
0000
0000
0000
,
0000
0000
3003
0000
,
1000
0010
0100
0001
,
0010
0100
1000
0100
,
0010
0001
1000
0010
,
0100
0001
0010
0100
,
1000
0100
0010
0001
,
1000
0010
0100
0001
,
0010
0001
0000
0100
0000
0010
0000
1000
,
0002
0000
0000
0000
0013
0001
0010
0001
,
0010
0001
0010
0000
0100
1000
0100
0000
,
0010
0001
0100
0000
0010
1000
0100
0000
,
1000
0001
0010
0000
0001
1000
0010
0000
,
0100
0001
0010
0000
0100
1000
0010
0000
,
0100
0001
0010
0100
,
1000
0010
0100
0001
,
1000
0001
1000
0001
1000
0001
1000
0001
,
1000
0010
0100
0001
1000
0100
0010
0001
,
2000
0000
0000
0000
,
0000
0000
0000
0000
,
3000
0000
0000
0000
;
