#TITLE:Upside Down;
#SUBTITLE:(Hyper Euro Mix);
#ARTIST:COO COO;
#TITLETRANSLIT:;
#SUBTITLETRANSLIT:;
#ARTISTTRANSLIT:;
#CREDIT:;
#BANNER:;
#BACKGROUND:;
#LYRICSPATH:;
#CDTITLE:;
#MUSIC:Upside Down (Hype Euro Mix).mp3;
#OFFSET:-0.040;
#SAMPLESTART:12.835;
#SAMPLELENGTH:11.860;
#SELECTABLE:YES;
#BPMS:0.000=149.740;
#STOPS:;
#BGCHANGES:;

//---------------dance-single - ----------------
#NOTES:
     dance-single:
     :
     Hard:
     8:
     0.623,0.576,0.210,0.070,0.186:
0000
0000
0000
0000
,
0000
0000
0000
0000
,
0000
0000
0000
0000
,
0000
0000
0000
0000
,
0000
0001
0100
0000
0100
0000
0100
0001
,
0000
1000
0100
0000
0100
0000
0100
1000
,
0000
0001
0100
0000
0100
0000
0100
0001
,
0020
0000
0000
0200
0000
0000
0000
0000
0000
0000
0000
0000
0330
0000
0000
0000
,
1000
0000
0100
0000
0010
0000
0001
0000
0100
0000
0010
1000
0000
0010
1000
0000
,
0001
0000
0100
0000
0010
0000
1000
0000
0100
0000
0010
0001
0000
0010
0001
0000
,
1000
0000
0100
0000
0010
0000
0001
0000
0100
0000
0010
1000
0000
0010
1000
0000
,
0001
0100
1000
0100
0101
0000
1100
0000
,
0001
0000
0010
0000
0100
0000
1000
0000
0010
0000
0100
0001
0000
0100
0001
0000
,
1000
0000
0010
0000
0100
0000
0001
0000
0010
0000
0100
1000
0000
0100
1000
0000
,
0001
0000
1000
0000
0010
0000
0100
0000
0001
0000
0100
0001
0000
0100
0001
0000
,
1000
0100
0001
0100
1100
0000
0101
0000
,
1000
0010
0100
1000
0100
0001
0010
0100
,
1000
0010
0100
0001
0010
0100
0010
0001
,
1000
0000
1000
0000
0001
0000
0001
0000
0010
0000
0000
0100
0000
0000
1000
0000
,
0001
0000
0001
0000
1000
0000
1000
0000
0020
0000
0000
0200
0000
0000
0330
0000
,
0001
0010
0100
0001
0100
1000
0010
0100
,
0010
1000
0100
0010
0001
1000
0001
0100
,
0010
0000
0010
0000
1000
0000
1000
0000
0001
0000
0000
0010
0000
0000
0100
0000
,
1000
0000
1000
0000
0001
0000
0001
0000
1000
0010
1000
0000
0001
0100
0001
0000
,
0010
0100
2000
0000
3010
0100
0002
0000
,
0013
0100
1000
0010
0100
1000
0100
0000
,
0001
0100
0010
0100
0001
0010
0100
1000
,
0010
0110
0000
0101
0000
1010
0010
1000
,
0010
0100
0001
0010
0100
0001
0100
1000
,
0010
0100
0010
1000
0100
0010
0100
0000
,
1000
0001
1000
0001
0100
0010
0000
1000
,
0000
0101
0000
1100
0000
1001
0001
0001
,
1000
0100
0010
1000
0010
0001
1000
0000
,
0001
0100
0010
0001
0010
1000
0001
0000
,
1000
0100
0001
0000
0001
0100
1000
0000
,
0010
0100
0010
1000
0010
0100
0001
0000
,
1000
0100
0010
1000
0010
0001
0100
0100
,
0001
0100
0010
0001
0010
1000
0100
0000
,
1000
0010
0001
0000
0001
0010
1000
0000
,
0100
0010
0001
0100
0010
0100
0001
0000
,
0100
0001
0100
0001
0010
1000
0010
1000
,
0100
1000
0100
0001
0100
0001
0100
0000
,
1010
0000
1000
0101
0000
0001
1100
0000
,
1000
0000
0001
0000
0100
0000
0010
0000
1000
0001
1000
0001
1000
0000
0000
0000
,
0001
0000
0100
0000
0010
0000
1000
0000
0100
0000
0010
0001
0000
0010
0001
0000
,
1000
0000
0100
0000
0010
0000
0001
0000
0100
0000
0010
1000
0000
0010
1000
0000
,
0001
0000
0100
0000
0010
0000
1000
0000
0100
0000
0010
0001
0000
0010
0001
0000
,
1000
0100
0001
0100
1100
0000
0101
0000
,
1000
0000
0010
0000
0100
0000
0001
0000
0010
0000
0100
1000
0000
0100
1000
0000
,
0001
0000
0010
0000
0100
0000
1000
0000
0010
0000
0100
0001
0000
0100
0001
0000
,
1000
0000
0001
0000
0010
0000
0100
0000
1000
0000
0100
1000
0000
0100
1000
0000
,
0001
0100
1000
0100
0101
0000
1100
0000
,
1001
0000
0000
0000
;

//---------------dance-single - ----------------
#NOTES:
     dance-single:
     :
     Medium:
     6:
     0.494,0.454,0.117,0.117,0.006:
0000
0000
0000
0000
,
0000
0000
0000
0000
,
0000
0000
0000
0000
,
0000
0000
0000
0000
,
1000
0001
0100
0000
0010
0000
0100
0000
,
0010
1000
0100
0000
0010
0000
0100
0000
,
0010
0001
0100
0000
0010
0000
0100
0000
,
0020
0000
0000
0200
0000
0000
0000
0000
0000
0000
0000
0000
0330
0000
0000
0000
,
0010
1000
0010
0000
0100
0001
0100
0000
,
0010
1000
0010
0000
0100
0001
0100
0000
,
0001
0010
0001
0000
1000
0100
1000
0000
,
0010
0001
0100
0010
1000
0000
1001
0000
,
0001
0010
0001
0000
1000
0100
1000
0000
,
0001
0010
0001
0000
1000
0100
1000
0000
,
0010
1000
0010
0000
0100
0001
0100
0000
,
0010
1000
0100
0010
0001
0000
1001
0000
,
0100
1000
0010
0000
1000
0100
0010
0000
,
0001
0100
0010
0000
0100
0001
0010
0000
,
0100
0100
0010
0010
0200
0000
1300
0000
,
0010
0010
0100
0100
0002
0000
0013
0000
,
0100
1000
0010
0000
1000
0100
0010
0000
,
0001
0100
0010
0000
0100
0001
0010
0000
,
0100
0100
1000
1000
0020
0000
0130
0000
,
0001
0001
0010
0010
0200
0000
1300
0000
,
0001
0100
1000
0000
1000
0100
0001
0000
,
0001
0100
1000
0000
1000
0100
0001
0000
,
0010
0100
1000
0000
0100
0010
0001
0000
,
1000
0001
0000
0100
0000
0010
0010
0000
,
1000
0001
0100
0000
0001
1000
0010
0000
,
0001
1000
0100
0000
1000
0001
0010
0000
,
0100
1000
0100
1000
0001
0001
0000
1000
,
0000
1100
0000
0011
0000
1000
1000
1000
,
0001
0010
0001
0010
0100
0100
0000
0000
,
1000
0010
1000
0010
0100
0100
0000
0000
,
0001
0010
0001
0000
1000
0100
1000
0000
,
0001
0010
0100
1000
0010
0100
0001
0000
,
0100
0001
0100
0001
0100
0010
0010
0000
,
1000
0100
1000
0100
0010
0001
0001
0000
,
1000
0010
1000
0000
0001
0100
0001
0000
,
1000
0010
0100
0001
0010
0100
1000
0000
,
0002
0103
0002
0013
,
0200
1300
0200
0310
,
0011
0000
0000
1100
0000
0000
1001
0000
,
1000
0000
0001
0000
1000
0100
0010
0000
,
0010
0001
0010
0000
0100
1000
0100
0000
,
0010
0001
0010
0000
0100
1000
0100
0000
,
1000
0010
1000
0000
0001
0100
0001
0000
,
0010
1000
0100
0010
0001
0000
1001
0000
,
1000
0010
1000
0000
0001
0100
0001
0000
,
1000
0010
1000
0000
0001
0100
0001
0000
,
0010
0001
0010
0000
0100
1000
0100
0000
,
0010
0001
0100
0010
1000
0000
1001
0000
,
0101
0000
0000
0000
;

//---------------dance-single - ----------------
#NOTES:
     dance-single:
     :
     Easy:
     4:
     0.320,0.394,0.175,0.151,0.000: // measure 1
0000
0000
0000
0000
,  // measure 2
0000
0000
0000
0000
,  // measure 3
0000
0000
0000
0000
,  // measure 4
0000
0000
0000
0000
,  // measure 5
0001
1000
0001
0001
,  // measure 6
1000
0001
1000
1000
,  // measure 7
0100
0010
0100
0100
,  // measure 8
2000
0000
0000
3000
,  // measure 9
0001
0001
0100
1000
,  // measure 10
0100
0100
0001
0010
,  // measure 11
1000
1000
0010
0001
,  // measure 12
0100
0010
1000
1001
,  // measure 13
1000
1000
0100
0001
,  // measure 14
0100
0100
0001
0100
,  // measure 15
1000
1000
0010
0001
,  // measure 16
0010
1000
0001
1001
,  // measure 17
2000
0000
0100
3010
,  // measure 18
2000
0000
0010
3100
,  // measure 19
0001
0001
0101
0101
,  // measure 20
1000
1000
1100
1100
,  // measure 21
0002
0000
0100
0013
,  // measure 22
0002
0000
0010
0103
,  // measure 23
1000
1000
1100
1100
,  // measure 24
0001
0001
0101
0101
,  // measure 25
0010
1000
0100
0001
,  // measure 26
0010
0001
0100
1000
,  // measure 27
0020
0000
0230
0000
,  // measure 28
0301
0100
1000
0010
,  // measure 29
1000
0100
0001
0010
,  // measure 30
0200
0000
2300
0000
,  // measure 31
3002
0000
0203
0000
,  // measure 32
0310
1000
0001
1001
,  // measure 33
1000
0010
0001
0010
,  // measure 34
0001
0010
1000
0010
,  // measure 35
0001
0000
1000
0000
,  // measure 36
0100
0010
0100
0000
,  // measure 37
0001
0010
1000
0010
,  // measure 38
1000
0010
0001
0010
,  // measure 39
1000
0000
0100
0000
,  // measure 40
0010
0001
0100
0010
,  // measure 41
1000
0000
0001
0000
,  // measure 42
0100
0000
0010
0000
,  // measure 43
2002
0000
0000
0000
,  // measure 44
0000
0000
0000
3003
,  // measure 45
0001
0001
0010
1000
,  // measure 46
0010
0010
0001
0100
,  // measure 47
1000
1000
0100
0001
,  // measure 48
0010
0100
1000
1001
,  // measure 49
1000
1000
0010
0001
,  // measure 50
0010
0010
0001
0010
,  // measure 51
1000
1000
0100
0001
,  // measure 52
0100
1000
0001
1001
,  // measure 53
1001
0000
0000
0000
;
