#TITLE:メルト (electro lounge ver.);
#SUBTITLE:;
#ARTIST:ryo remixed by FALL;
#TITLETRANSLIT:melt (electro lounge ver.);
#SUBTITLETRANSLIT:;
#ARTISTTRANSLIT:;
#CREDIT:;
#BANNER:bn.png;
#BACKGROUND:bg.png;
#LYRICSPATH:;
#CDTITLE:;
#MUSIC:melt (electro lounge ver.).mp3;
#OFFSET:-11.440;
#SAMPLESTART:47.430;
#SAMPLELENGTH:12.000;
#SELECTABLE:YES;
#BPMS:0.000=170.000;
#STOPS:;
#BGCHANGES:;

//---------------dance-single - ----------------
#NOTES:
     dance-single:
     :
     Beginner:
     1:
     0.119,0.150,0.011,0.000,0.000:
1000
0000
0000
0000
,
0010
0000
0000
0000
,
0100
0000
0000
0000
,
0001
0000
0000
0000
,
0010
0000
0000
0000
,
0100
0000
0000
0000
,
1000
0000
0000
0000
,
0001
0000
0000
0000
,
0100
0000
0000
0000
,
0010
0000
0000
0000
,
0100
0000
0000
0000
,
0001
0000
0000
0000
,
0010
0000
0000
0000
,
0100
0000
0000
0000
,
1000
0000
0000
0000
,
0001
0000
0000
0000
,
1000
0000
0100
0000
,
1000
0000
0000
0000
,
0001
0000
0010
0000
,
0001
0000
0000
0000
,
0100
0000
0010
0000
,
0100
0000
0000
0000
,
0001
0000
1000
0000
,
0001
0000
0000
0000
,
0010
0000
0000
0000
,
0100
0000
0000
0000
,
1000
0000
0001
0000
,
1000
0000
0001
0000
,
1000
0000
0000
0000
,
0001
0000
0000
0000
,
0100
0000
0010
0000
,
0100
0000
0010
0000
,
0100
0000
0000
0000
,
0010
0000
0000
0000
,
1000
0000
0100
0000
,
0010
0000
0001
0000
,
0010
0000
0100
0000
,
1000
0000
0000
0000
,
1000
0000
0010
0000
,
0001
0000
0100
0000
,
1000
0000
0100
0000
,
0001
0000
0000
0000
,
0010
0000
0000
0000
,
0001
0000
0000
0000
,
0100
0000
0000
0000
,
0010
0000
0000
0000
,
1000
0000
0100
0000
,
1000
0000
0000
0000
,
0001
0000
0010
0000
,
0001
0000
0001
0000
,
0100
0000
0001
0000
,
0100
0000
0000
0000
,
0010
0000
1000
0000
,
0010
0000
0000
0000
,
0110
0000
0000
0000
;

//---------------dance-single - ----------------
#NOTES:
     dance-single:
     :
     Easy:
     3:
     0.273,0.275,0.044,0.089,0.000:
1000
0000
0100
0000
,
0010
0001
0010
0000
,
0001
0000
0100
0000
,
1000
0100
1000
0000
,
0010
0000
1000
0000
,
0100
0000
0001
0000
,
0010
0000
0001
0000
,
0100
0010
0100
0000
,
0001
0000
0010
0000
,
0001
0000
1000
0000
,
0100
1000
0010
0100
,
0001
0010
0001
0100
,
0010
0000
1000
0000
,
0100
0000
0001
0000
,
0100
0010
1000
0001
,
0010
0100
1000
0010
,
0100
0000
0100
0001
,
0010
0000
0010
0001
,
0100
0000
0100
0010
,
1000
0000
1000
0001
,
0010
0000
0010
0001
,
0100
0000
0100
0010
,
1000
0000
0001
0000
,
0100
0010
0100
0001
,
1000
0000
0100
0000
,
0220
0000
0330
0000
,
0001
0100
0001
0100
,
0010
1000
0010
0010
,
1000
0100
0001
0100
,
1000
0000
0010
0000
,
0100
0001
0010
1000
,
0010
0001
0100
1000
,
0010
0010
0100
0100
,
2002
0000
3003
0000
,
0001
0001
0100
0100
,
0010
1000
0100
1000
,
0010
0010
0100
0100
,
0002
0000
0023
0000
,
0031
0100
0010
1000
,
0100
1000
0010
0010
,
0100
0000
0001
0000
,
0010
0000
0100
0000
,
1000
0000
0010
0000
,
0001
1000
0100
0010
,
0100
0000
1001
0000
,
0110
0000
0000
0000
,
0010
1000
0010
1000
,
0001
0100
0001
0100
,
0001
0010
0001
0010
,
0100
1000
0200
0000
,
1300
0010
1000
0010
,
0100
0001
0100
0001
,
0010
0000
0001
0000
,
0100
0000
0010
0000
,
2000
0000
0000
0000
,
3000
0000
0000
0000
;

//---------------dance-single - ----------------
#NOTES:
     dance-single:
     :
     Medium:
     5:
     0.368,0.366,0.033,0.044,0.000:
0010
1000
0100
1000
,
0001
0100
0001
0000
0010
0000
0001
0100
,
0001
0100
0010
1000
,
0100
0010
0100
1000
,
0010
0000
0000
0100
0100
0000
0000
0000
,
0001
0000
0000
0000
0010
0000
0000
0100
,
0100
0000
1000
0000
0010
1000
0000
0010
,
0000
0100
0000
0001
0010
0000
0001
0000
,
0100
0010
1000
0001
,
0010
0000
0100
0000
0010
0000
0001
0100
,
0010
1000
0100
0010
,
0100
1000
0001
0100
,
0010
0000
0000
1000
1000
0000
0000
0000
,
0100
0000
0000
0000
0010
0000
0000
0001
,
0001
0000
0000
0000
0100
0000
0000
0010
,
0000
0100
0000
0001
1000
0000
0100
0000
,
0010
0001
0100
0010
,
1000
0000
0001
0000
0010
0100
1000
0100
,
0010
0001
0100
0010
,
1000
0000
0001
0000
0010
0100
0010
0001
,
0100
0010
1000
0100
,
0010
0000
0001
0000
0100
0010
1000
0001
,
0010
0100
1000
0100
,
0010
0001
0100
0000
0010
1000
0100
0000
,
0010
0100
1000
0001
,
0100
0110
0110
0110
,
0010
0000
1000
0000
0100
0010
0100
0000
,
1000
0000
0001
0010
0001
0000
0010
0000
,
1000
0000
0001
0010
0001
0000
0100
0000
,
0010
0000
1000
0100
0010
0000
0100
0000
,
1000
0000
0001
0100
0010
0000
1000
0000
,
0100
0000
0010
0100
0010
0000
0001
0000
,
0100
0000
0010
1000
0001
0000
0001
1000
,
0010
0100
0001
0010
,
0100
0000
1000
0010
1000
0000
0010
0000
,
0100
0001
0010
0100
,
0010
0000
0001
0100
0000
0000
0100
0000
,
0010
1000
0100
1000
,
0001
0000
0100
0010
0100
0000
0001
0000
,
0010
0100
1000
0001
,
0100
0010
1000
0001
,
0010
0100
1000
0010
,
0100
0000
0001
0100
0000
0100
0010
0000
,
1000
0001
0010
0100
,
1000
0000
0000
0001
0000
0000
0100
0000
,
0020
0000
0000
0030
,
1000
0000
0000
0100
1000
0000
0010
0000
,
0100
0001
0010
0000
,
0010
0000
0000
0010
0001
0000
0100
0000
,
0010
1000
0001
0010
,
0100
0000
0000
0100
1000
0000
0010
0000
,
0100
0000
0001
0000
0010
0000
0001
1000
,
0002
0000
0000
0000
,
2003
0000
0000
0000
,
3020
0000
0000
0000
,
0030
0000
0000
0000
;

//---------------dance-single - ----------------
#NOTES:
     dance-single:
     :
     Hard:
     7:
     0.408,0.458,0.189,0.067,0.000: // measure 1
1000
0000
0010
0000
0100
0000
0001
0010
,  // measure 2
0100
0010
0001
0000
0000
0000
0100
0010
,  // measure 3
1000
0000
0100
1000
0001
0000
0100
0000
,  // measure 4
0010
1000
0100
0010
,  // measure 5
0001
0000
0000
0001
0100
0000
0000
0100
,  // measure 6
0010
0000
0000
0010
1000
0000
0000
1000
,  // measure 7
0001
0000
1000
0000
0010
0100
0000
0001
,  // measure 8
0000
0100
0000
0010
1000
0000
0001
0000
,  // measure 9
0010
0100
1000
0010
,  // measure 10
0100
0000
0001
0000
0000
0000
0001
0100
,  // measure 11
0010
0000
1000
0100
1000
0000
0001
0000
,  // measure 12
0100
0010
1000
0100
,  // measure 13
0010
0000
0000
0010
0001
0000
0000
0001
,  // measure 14
0100
0000
0000
0100
0010
0000
0000
0010
,  // measure 15
1000
0000
0100
1000
0001
0100
0000
0010
,  // measure 16
0000
0100
0000
0001
1000
0000
0100
0000
,  // measure 17
0010
0001
0100
0010
,  // measure 18
1000
0000
0001
0000
0010
0000
0100
1000
,  // measure 19
0100
0010
0001
1000
,  // measure 20
0010
0000
0000
0100
0100
0000
0010
1000
,  // measure 21
0100
1000
0001
0010
,  // measure 22
0100
0000
1000
0000
0010
0000
0100
0010
,  // measure 23
0100
0000
0001
0000
0010
0000
0100
1000
,  // measure 24
0000
0001
0000
0100
0010
0000
1000
0000
,  // measure 25
0010
0100
0001
0010
,  // measure 26
0100
0100
0100
0100
,  // measure 27
0010
0000
0001
0100
0010
0000
1000
0000
,  // measure 28
1100
0101
1100
0101
,  // measure 29
0010
0000
1000
0100
1000
0000
0001
0100
,  // measure 30
0010
0100
0001
0010
,  // measure 31
0100
0000
1000
0010
0100
0000
0101
0000
,  // measure 32
1010
1100
0011
1001
,  // measure 33
0001
0000
0100
0010
0100
0000
0001
0010
,  // measure 34
0001
0010
0100
1000
,  // measure 35
0010
0000
0000
0100
0100
0000
0010
0000
,  // measure 36
1100
0101
1100
0101
,  // measure 37
1100
0000
1000
0010
0000
0100
0001
0000
,  // measure 38
0010
0100
1000
0010
,  // measure 39
0100
0000
0001
0010
0001
0000
0010
0000
,  // measure 40
0110
1100
1001
0001
,  // measure 41
0100
0000
0010
1000
0100
0000
0010
0001
,  // measure 42
1000
0000
0010
0100
0001
0000
0100
0000
,  // measure 43
0010
0000
1000
0100
0000
0100
1000
0000
,  // measure 44
0010
0000
0100
0001
0000
0001
0100
0000
,  // measure 45
0010
0000
1000
0100
0000
0010
0001
1000
,  // measure 46
0020
0000
0000
0000
,  // measure 47
1030
0000
0000
1000
0100
0000
1000
0000
,  // measure 48
0010
0100
0001
0010
,  // measure 49
0100
0000
0000
0100
0010
0000
0001
0000
,  // measure 50
0100
0010
2000
3000
,  // measure 51
0001
0000
0000
0010
0010
0000
0001
0000
,  // measure 52
0100
0010
1000
0001
,  // measure 53
0020
0000
0000
0000
,  // measure 54
0230
0000
2300
0000
,  // measure 55
0002
0000
0000
0000
,  // measure 56
3003
0000
0000
0000
;
