#TITLE:Timepiece phase II;
#SUBTITLE:;
#ARTIST:Jimmy Weckl;
#TITLETRANSLIT:;
#SUBTITLETRANSLIT:;
#ARTISTTRANSLIT:;
#CREDIT:DigiMindAxel;
#BANNER:Timepiece phase II.png;
#BACKGROUND:Timepiece phase II-bg.png;
#LYRICSPATH:;
#CDTITLE:Konami original REMIX.png;
#MUSIC:Timepiece phase II.mp3;
#OFFSET:-7.160;
#SAMPLESTART:14.280;
#SAMPLELENGTH:12.000;
#SELECTABLE:YES;
#BPMS:0.000=135.050;
#STOPS:;
#BGCHANGES:;

//---------------dance-single - ----------------
#NOTES:
     dance-single:
     :
     Beginner:
     2:
     0.080,0.119,0.041,0.000,0.000:
1000
0000
0000
0000
,
1000
0000
0000
0000
,
1000
0000
0000
0000
,
0001
0000
0000
0000
,
1001
0000
0000
0000
,
0001
0000
0000
0000
,
1000
0000
0000
0000
,
0001
0000
0000
0000
,
0100
0000
0000
0000
,
0010
0000
0000
0000
,
0100
0000
0000
0000
,
0100
0000
0000
0000
,
1001
0000
0001
0000
,
0001
0000
0000
0000
,
1000
0000
0000
0000
,
0100
0000
0000
0000
,
0000
0000
0000
0000
,
0000
0000
0000
1001
,
0000
0000
0000
1000
,
0000
0000
0000
0001
,
0000
0000
0000
1000
,
0000
0000
0000
0010
,
0000
0000
0000
0010
,
0000
0000
0000
0100
,
0000
0000
0000
0100
,
0000
0000
0000
0001
,
0000
0000
0000
1000
,
0000
0000
0000
0001
,
0000
0000
0000
0010
,
0000
0000
0000
0100
,
0000
0000
0000
0010
,
0000
0000
0000
0100
,
0000
0000
1000
0000
,
0000
0000
0000
0001
,
0000
0000
0000
1000
,
0000
0000
0000
0010
,
0000
0000
0000
0100
,
0000
0000
0000
0001
,
0000
0000
0000
1000
,
0000
0000
0000
0001
,
0000
0000
0000
0100
,
0000
0000
0000
0100
,
0000
0010
0000
0100
,
0000
0010
0000
0100
,
0000
0000
0000
0001
,
0000
1000
0000
0001
,
0000
1000
0000
1001
;

//---------------dance-single - ----------------
#NOTES:
     dance-single:
     :
     Easy:
     3:
     0.222,0.222,0.102,0.296,0.000:
1000
0000
0000
0001
,
1000
0000
0001
1000
,
0010
0000
0100
0010
,
0100
0000
0000
0000
,
2002
0000
3003
1000
,
0002
0000
0203
0000
,
0300
0010
1000
0010
,
0100
0000
0010
0000
,
2000
0000
0000
3001
,
0200
0000
0320
0000
,
0130
0001
0010
0100
,
1000
0000
0001
0000
,
1001
0000
1000
0000
,
2002
0000
0000
3003
,
0100
0001
1000
0100
,
0020
0000
0000
0230
,
0000
0000
0310
0000
,
0000
0000
0000
1001
,
0000
0000
0000
0001
,
1000
0001
0000
1000
,
0001
1000
0000
0010
,
0000
0000
0000
0220
,
0000
0330
0010
0200
,
0000
0302
0000
0003
,
1000
0100
0010
0002
,
0000
2003
0000
3010
,
0000
0000
0100
0020
,
0000
0230
0000
0300
,
0001
0010
0100
2000
,
0000
3002
0000
0103
,
0010
0100
0001
1000
,
0001
1000
0100
1000
,
0100
0010
0001
2000
,
0000
3002
0000
0103
,
0010
0100
0001
1000
,
0001
1000
0100
0010
,
0001
0100
0010
2000
,
0000
3002
0000
1003
,
0000
0000
0000
1001
,
0000
0000
0000
0110
,
0000
0000
0000
1001
,
0000
0000
0000
1000
,
1000
0001
0001
1000
,
1000
0001
0001
0200
,
0000
0320
0000
0130
,
0001
0010
0100
1000
,
0000
0110
0000
2002
,
0000
0000
0000
0000
,
0000
3003
0000
0000
;

//---------------dance-single - ----------------
#NOTES:
     dance-single:
     :
     Medium:
     6:
     0.381,0.419,0.133,0.214,0.066:
1000
0100
1000
0001
,
0100
0001
0100
0001
,
1000
0100
0010
0001
,
0100
0000
0010
0000
0100
0001
1000
0000
,
2001
0000
0100
0000
3100
0000
1000
0001
,
0200
0010
0320
0100
,
0130
0002
2003
3200
,
0320
0100
0230
1000
,
2300
0000
0001
0000
3001
0000
0100
0001
,
0020
0001
0230
0310
,
0110
0020
0032
0203
,
0320
0000
1000
0000
1030
0001
0100
0000
,
0001
0010
0100
1000
0001
0000
0001
1000
,
0010
0000
0000
0010
0000
0000
0010
0000
0000
0010
0000
0000
0010
0000
0000
0000
,
0100
0010
1000
0000
0100
0010
0001
0000
,
0100
0000
0000
0100
0000
0000
0100
0000
0000
0100
0000
0000
0010
0000
0000
0010
,
0000
0000
0010
0000
0000
0010
0000
0000
0100
0000
0000
0010
0000
0000
0000
0000
,
0000
0000
0000
1000
,
0001
0000
1000
0000
0001
0000
1000
0100
,
0010
0001
1000
0000
1000
0000
0001
0000
,
1000
0001
1000
0220
,
0000
0000
0000
0000
0000
0000
0000
0000
0330
0000
0000
0000
0110
0000
0000
0100
,
0000
0000
0010
0000
0000
0000
0000
0000
1000
0000
0100
0000
0010
0000
0000
0001
,
0000
0000
0100
0000
0000
0000
0000
0000
0010
0000
1000
0000
0100
0000
0000
0010
,
0000
0000
0001
0000
0000
0000
0000
0000
0100
0000
0010
0000
0100
0000
0000
0001
,
0000
0000
1000
0000
0000
0000
0000
0000
0010
0000
0100
0000
0001
0000
0000
0010
,
0000
0000
0100
0000
0000
0000
0000
0000
0010
0000
0001
0000
0100
0000
0000
0010
,
0000
1000
0000
0000
0100
0010
0001
0100
,
0001
0000
0100
0010
0100
0000
0010
1000
,
0010
0000
1000
0001
1000
0000
0010
1000
,
0010
1000
0010
1000
0010
0000
0100
0001
,
0100
0001
0100
0001
1000
0000
0100
1000
,
0100
0000
0010
0001
0010
0000
0100
0010
,
0100
0000
0000
0000
2200
0000
0000
0000
0000
3300
0000
0000
0001
0000
0010
0000
,
0001
0010
0001
0010
0001
0000
1000
0100
,
1000
0100
1000
0001
1000
0000
0100
1000
,
0010
0000
0100
0010
0100
0000
0001
0010
,
0100
0000
1000
0100
1000
0000
0110
0000
,
0000
0000
0100
0110
,
0000
0000
0001
1001
,
0000
0000
1000
1100
,
0000
0000
0001
0000
0010
0000
0001
0010
,
0001
0010
0001
1000
0001
1000
0100
0010
,
0001
0010
0100
1000
0010
0100
0010
0000
,
0110
0000
0010
0000
0110
0000
0100
0010
,
0001
0010
0100
1000
0010
0100
0001
0000
,
0000
1001
0000
2002
,
0000
0000
0000
0000
,
0000
3003
0000
0000
;

//---------------dance-single - ----------------
#NOTES:
     dance-single:
     :
     Hard:
     8:
     0.559,0.616,0.255,0.092,0.459: // measure 1
1001
0000
1000
0000
1000
0001
0100
1000
,  // measure 2
0100
0000
0001
0000
0010
0100
0010
0001
,  // measure 3
0100
0000
1000
0000
0100
0001
0010
0100
,  // measure 4
1000
0000
0010
0000
0000
0110
0000
0000
0100
0000
0001
0000
0010
0000
0100
0000
,  // measure 5
1100
0000
0000
1000
0000
0000
0010
0000
0000
0100
0000
0000
0001
0000
0100
0000
,  // measure 6
1000
0000
0000
0100
0000
0000
0001
0000
0000
1000
0000
0000
0100
0000
0010
0000
,  // measure 7
0100
0000
0000
1000
0000
0000
0100
0000
0000
0001
0000
0000
0100
0000
1000
0000
,  // measure 8
0001
0000
0000
0010
0000
0000
0100
0000
0000
0010
0000
0000
0001
0000
0010
0000
,  // measure 9
1000
0000
0000
0010
0000
0000
0001
0000
0000
0100
0000
0000
0010
0000
0100
0000
,  // measure 10
0001
0000
0000
0100
0000
0000
0010
0000
0000
1000
0000
0000
0010
0000
0100
0000
,  // measure 11
0102
0000
0103
0010
2000
0000
3001
0100
,  // measure 12
0010
0000
0100
0001
0000
0100
0001
0000
1000
0100
1000
0100
1000
0000
0000
0000
,  // measure 13
0001
0100
0001
0000
0100
0000
0010
0000
1000
0010
1000
0000
0001
0000
0100
0000
,  // measure 14
0110
0000
0000
0100
0000
0000
0101
0000
0000
0110
0000
0000
1100
0000
0000
0000
,  // measure 15
1000
1000
0100
0001
0100
1000
0010
0100
,  // measure 16
0100
0000
0000
0101
0000
0000
0110
0000
0000
1100
0000
0000
1000
0000
0000
1010
,  // measure 17
0000
0000
0110
0000
0000
0101
0000
0000
0001
0000
1000
0020
0000
0000
0000
0000
,  // measure 18
0000
0000
0030
0101
,  // measure 19
0100
0000
0100
0010
0100
0000
0010
0010
,  // measure 20
0100
0100
0001
0010
0100
0000
1000
0010
,  // measure 21
0010
0000
0000
0000
0100
0000
0001
0000
0010
0000
0000
0000
0001
1000
0000
0100
,  // measure 22
0000
1000
0000
0100
0000
0010
0000
0001
1000
0000
0010
0000
0110
0000
0000
0100
,  // measure 23
0001
0000
0010
0000
0000
0100
0010
0000
0001
0000
1000
0000
0010
0000
0000
0100
,  // measure 24
0010
0000
1000
0000
0000
0100
0010
0000
0100
0000
1000
0000
0001
0000
0000
0100
,  // measure 25
0000
0000
1000
0000
0000
0100
0000
0000
0010
0000
1000
0000
0001
0000
0000
0010
,  // measure 26
0000
0000
1000
0000
0010
0001
0000
0100
0010
0000
0100
0000
0001
0000
0000
0100
,  // measure 27
0010
0000
1000
0000
0000
0100
1000
0000
0010
0000
0100
0000
0010
0000
0000
0100
,  // measure 28
0010
0000
1000
0000
0000
0100
0010
0000
0100
0000
1000
0000
0001
0000
0000
0010
,  // measure 29
0000
0000
1000
0000
0000
0010
0000
0000
0100
0000
1000
0000
0100
0000
0000
0001
,  // measure 30
0000
0000
0100
0000
0010
0000
0001
0000
1000
0001
1000
0001
1000
0000
0100
0000
,  // measure 31
0010
0000
1000
0000
0010
0001
0010
0000
0001
1000
0001
0000
0010
0000
0100
0000
,  // measure 32
0001
0000
0100
0000
1000
0100
1000
0000
0010
0100
0010
0000
1000
0000
0010
0000
,  // measure 33
0100
0000
0001
0000
1000
0000
0100
0000
0001
0000
0100
0000
1000
0001
1000
0000
,  // measure 34
0010
0100
0010
0000
1000
0001
0000
0010
0000
0100
0000
1000
0001
0000
0100
0000
,  // measure 35
1000
0000
0100
0000
0010
1000
0100
0000
0010
0100
0010
0000
0001
0000
0010
0000
,  // measure 36
1000
0000
0010
0000
0001
0100
0001
0000
1000
0100
1000
0001
1000
0000
0010
0000
,  // measure 37
0001
0000
0010
0000
0100
0001
0010
0000
0100
0010
0100
0000
1000
0000
0100
0000
,  // measure 38
0001
0000
0100
0000
1000
0000
0100
1000
0100
1000
0001
0000
1001
0000
0000
0000
,  // measure 39
0000
0000
0000
0000
0000
0000
0000
0000
0100
0001
0100
0001
1000
0000
0000
0000
,  // measure 40
0000
0000
0000
0000
0000
0000
0100
1000
0100
1000
0100
1000
0001
0000
0000
0000
,  // measure 41
0000
0000
0000
0000
1001
0100
0110
0000
,  // measure 42
0000
0000
0000
0000
0010
0100
0010
0100
0001
1000
0001
1000
0001
0000
1000
0100
,  // measure 43
1000
0000
1000
0001
1000
0000
1000
0100
1000
0000
1000
0001
1000
0000
0001
0010
,  // measure 44
0001
0000
0001
1000
0001
0000
0001
0010
0001
0000
0000
0000
0010
0001
0100
0000
,  // measure 45
0001
0100
0010
0000
1000
0100
0010
0000
0100
1000
0001
0100
0010
0000
1000
0000
,  // measure 46
1100
0010
0110
0001
0011
1000
2002
0000
,  // measure 47
3003
0220
0330
2002
,  // measure 48
0000
0000
0000
0000
,  // measure 49
0000
3003
0000
0000
;
