#TITLE:The Night Out (Madeon Remix);
#SUBTITLE:;
#ARTIST:Martin Solveig;
#TITLETRANSLIT:;
#SUBTITLETRANSLIT:;
#ARTISTTRANSLIT:;
#GENRE:;
#CREDIT:;
#BANNER:The Night Out (Madeon Remix)-banner.png;
#BACKGROUND:The Night Out (Madeon Remix)-bg.png;
#LYRICSPATH:;
#CDTITLE:;
#MUSIC:The Night Out (Madeon Remix).ogg;
#OFFSET:0.000;
#SAMPLESTART:91.880;
#SAMPLELENGTH:15.000;
#SELECTABLE:YES;
#DISPLAYBPM:128.000;
#BPMS:0.000=128.000
,35.000=512.000
,36.000=128.000
,99.000=512.000
,100.000=128.000
,195.000=512.000
,196.000=128.000
,227.000=512.000
,228.000=128.000
;
#STOPS:35.000=0.352,
99.000=0.352,
195.000=0.352,
227.000=0.352
;
#BGCHANGES:;
#KEYSOUNDS:;
#ATTACKS:;

//---------------dance-single - Rygon----------------
#NOTES:
     dance-single:
     :
     Challenge:
     9:
     0.512,0.591,0.348,0.294,0.360,380.000,45.000,38.000,0.000,0.000,0.000,0.512,0.591,0.348,0.294,0.360,380.000,45.000,38.000,0.000,0.000,0.000:
0000
0000
0000
0000
,
0000
0000
0000
0000
,
0000
0000
0000
0000
,
0000
0000
0000
0000
,
0000
0000
0000
0000
,
1020
0000
0000
0000
,
0032
0000
0000
0000
,
0203
0000
0000
0000
,
2300
0000
3000
1001
,
0110
0100
0001
0010
1000
0010
0001
0100
,
0010
0000
1000
0000
0100
0000
0010
0000
0001
0010
0000
0010
0100
0000
1000
0000
,
0010
0100
0001
1000
0100
0001
0100
0010
,
0001
0000
1000
0000
0010
0000
0100
0000
0010
1000
0000
1000
0001
0000
0010
0100
,
0010
0000
0011
0001
1000
0010
0001
0010
,
0100
0001
1000
0100
0010
0010
0100
0100
,
2000
0010
0001
0100
,
3001
0000
0010
0000
0100
0000
1000
0000
0001
0000
0010
0001
0100
0000
0000
0000
,
2001
0000
0000
0001
0000
0000
3020
0000
0000
0000
0000
0000
0000
0000
0000
0000
,
0100
0000
0000
0100
0000
0000
0230
0000
0000
0000
0000
0000
0000
0000
0000
0000
,
0001
0000
0000
0001
0000
0000
0320
0000
0000
0000
0000
0000
0000
0000
0000
0000
,
1000
0000
0000
0100
0000
0000
2030
0000
0000
0000
0000
0000
3000
0000
0000
1000
,
0001
0000
0000
0011
0000
0000
2100
0000
0000
0000
0000
0000
0000
0000
3001
0000
,
1000
0000
0000
1010
0000
0000
0102
0000
0000
0000
0000
0000
0000
0000
1003
0000
,
0100
0000
0000
0010
0100
0000
0001
0000
0100
0010
0000
0000
0110
0000
0000
0010
,
0100
0000
1000
0000
0100
0010
0000
0000
0100
1000
0000
2000
3001
0000
0000
0000
,
1001
0000
0000
1000
0200
0000
0010
0000
0000
0000
0310
0000
0001
0000
1000
0010
,
0100
0000
0000
0001
0020
0000
0100
0000
0000
0000
0130
0000
1001
0000
0000
0000
,
1010
0000
0000
0100
0001
0000
2000
0000
0000
0000
3100
0000
0010
0001
0010
0100
,
1000
0000
0000
0010
0100
0000
0102
0000
0000
0000
1003
0000
0001
0000
1000
0000
,
1001
0000
0000
1000
0020
0000
0100
0000
0000
0000
0130
0000
0001
0000
1000
1000
,
0001
0000
0000
0001
0200
0000
0010
0000
0000
0000
0310
0000
1001
0000
0000
0000
,
1100
0000
0000
0010
0001
0000
2000
0000
0000
0000
3010
0000
0100
0001
0100
0010
,
1000
0000
0010
0000
0010
0010
0110
0100
,
1001
0000
0000
0000
1000
0000
0001
0100
0001
0000
0010
0100
1000
0000
0001
0000
,
0100
0010
1000
0010
0100
0001
0010
0100
,
1000
0000
0100
0010
0100
0000
1000
0100
0010
0000
0001
1000
0010
0000
0100
0000
,
0001
0000
0010
0000
0100
0000
1000
0000
0001
0000
0100
0010
0100
0000
0000
0000
,
1002
0000
0000
0000
,
0203
0000
0000
0000
,
0320
0000
0000
0000
,
2030
0000
0000
0000
3002
0000
0000
0003
,
0010
0001
0100
0010
0000
0010
0100
0001
,
0000
0000
0001
0000
1000
0000
0100
0010
0100
0000
0000
1000
0000
0000
0002
0100
,
0000
0000
0000
0203
0000
0000
0010
0000
0000
0320
0000
0000
1000
0000
0000
2030
,
0000
0000
0001
0000
0000
3002
0000
0000
0023
0000
0000
0230
0000
0000
1300
0000
,
0000
1010
0000
0000
0101
0000
0000
0011
0000
0000
1100
0000
0000
1001
0000
0000
,
0110
0000
0000
0010
0100
0000
0001
0000
1000
0100
0000
0000
0011
0000
0000
0100
,
0000
0000
1001
0000
0000
0101
0000
0000
1010
0000
0000
0101
0000
0000
0100
0001
,
1000
0100
0010
0100
1000
0001
0100
0010
1000
0001
1000
0000
1001
0000
0000
0000
,
1010
0000
0000
0010
0100
0000
0001
0000
1000
0100
0000
0100
0010
0000
0001
0000
,
0101
0000
0000
0001
0100
0000
0010
0000
1000
0001
1000
0000
0001
0000
0100
0000
,
0110
0000
0000
0010
0100
0000
0001
0000
1000
0000
0001
0000
1000
0100
0010
0001
,
0100
0000
0000
0010
1000
0000
0002
0000
0000
0000
0013
0000
0110
0000
0100
0000
,
1100
0000
0000
0100
0010
0000
0001
0000
1000
0010
0000
0010
0100
0000
0001
0010
,
0001
0000
0000
0001
0010
0000
0100
0000
1000
0001
0010
0000
0011
0000
0000
0000
,
0110
0000
0000
0100
0010
0000
0001
0000
1000
0000
0001
0000
1000
0010
0100
0001
,
0020
0000
0030
1001
,
0110
0000
0010
0100
0010
0000
1000
0000
0100
0010
0000
0010
0100
0000
1000
0000
,
0001
0000
0010
0100
1000
0000
0001
0000
0100
0001
0000
0100
0010
0000
1000
0001
,
1000
0000
0001
0010
0001
0000
0100
0000
0010
1000
0000
1000
0010
0000
0100
0000
,
0001
0000
1000
0100
1000
0000
0010
0000
0100
0001
0000
1000
0100
0000
0010
0001
,
0100
0000
1010
0102
0000
1003
0100
0010
,
0001
0000
0000
0000
0011
0000
2100
0000
0000
0000
3010
0100
0002
0000
0000
0000
,
0000
0000
0000
0000
,
0000
0000
2003
0000
,
0000
0000
0000
0000
,
0000
0000
3000
0000
;

//---------------dance-single - Rygon----------------
#NOTES:
     dance-single:
     :
     Hard:
     8:
     0.437,0.489,0.302,0.302,0.112,318.000,39.000,39.000,0.000,0.000,0.000,0.437,0.489,0.302,0.302,0.112,318.000,39.000,39.000,0.000,0.000,0.000:
0000
0000
0000
0000
,
0000
0000
0000
0000
,
0000
0000
0000
0000
,
0000
0000
0000
0000
,
0000
0000
0000
0000
,
1020
0000
0000
0000
,
0032
0000
0000
0000
,
0203
0000
0000
0000
,
2300
0000
3000
1001
,
0110
0000
0100
0001
0010
0001
0100
0000
,
0010
1000
0100
0010
0001
0010
0110
0000
,
0100
1000
0001
1000
0100
0010
0001
0100
,
0001
1000
0010
0100
0010
1000
1002
0000
,
0013
0011
1001
1010
,
0100
0001
1000
0100
0010
1000
0001
0100
,
2000
0010
0001
0100
,
3001
0010
0100
1000
0001
0100
0010
0000
,
2001
0000
0000
0001
0000
0000
3020
0000
0000
0000
0000
0000
0000
0000
0000
0000
,
0100
0000
0000
0100
0000
0000
0230
0000
0000
0000
0000
0000
0000
0000
0000
0000
,
0001
0000
0000
0001
0000
0000
0320
0000
0000
0000
0000
0000
0000
0000
0000
0000
,
1000
0000
0000
0100
0000
0000
2030
0000
0000
0000
0000
0000
3000
0000
0000
0000
,
0001
0000
0000
0010
0000
0000
2100
0000
0000
0000
0000
0000
0000
0000
3000
0000
,
0010
0000
0000
0100
0000
0000
0102
0000
0000
0000
0000
0000
0000
0000
1003
0000
,
0100
0000
0100
1000
0100
0001
0100
1000
,
0100
0010
0001
1000
0010
0000
0110
0000
,
1001
0000
2000
0010
0000
3010
0100
0001
,
0010
0000
0020
0100
0000
0130
1001
0000
,
1010
0000
0000
0000
0100
0000
0002
0000
0000
0000
0013
0000
0010
0100
0000
0100
,
1000
0000
0010
0102
0000
1003
0001
1000
,
1001
0000
1000
0020
0000
0130
0001
1000
,
0001
0000
0200
0010
0000
0310
1001
0000
,
1100
0000
0000
0000
0010
0000
0002
0000
0000
0000
0013
0000
0100
1000
0000
1000
,
0010
0000
0010
0000
0100
0010
0110
0000
,
1001
0000
1000
0001
0100
0001
1000
0010
,
0100
0010
1000
0100
0010
0001
0010
0000
,
0100
1000
0010
0001
0010
1000
0001
0100
,
0001
0010
0100
1000
0001
0100
0010
0000
,
1002
0000
0000
0000
,
0203
0000
0000
0000
,
0320
0000
0000
0000
,
2030
0000
0000
0000
3002
0000
0000
0003
,
0010
0001
0100
0010
0000
0010
0100
0001
,
0000
0000
0001
0000
1000
0000
0010
0000
0100
0000
0000
0100
0000
0000
0100
0000
,
0010
0000
0000
1000
0000
0000
0001
0000
0000
1000
0000
0000
0100
0000
0000
0010
,
0000
0000
0001
0000
0000
0100
0000
0000
0010
0000
0000
0100
0000
0000
0001
0000
,
1002
0023
2030
3020
,
0032
0203
2300
3200
,
0310
0100
0001
1000
0100
0010
0100
1000
,
0001
0101
0100
0110
1000
0001
1001
0000
,
1010
0000
0000
0010
0100
0000
0001
0000
1000
0000
0100
0000
0010
0000
0001
0000
,
0101
0000
0000
0001
0100
0000
0010
0000
1000
0000
0001
0000
0100
0000
0000
0000
,
0110
0000
0000
0010
0100
0000
0001
0000
1000
0000
0100
0000
1000
0000
0001
0000
,
0100
0000
0000
0010
1000
0000
0002
0000
0000
0000
0013
0000
0110
0000
0100
0000
,
1100
0000
0000
0100
0010
0000
0001
0000
1000
0000
0010
0000
0100
0000
0001
0000
,
0010
0000
0000
0001
0010
0000
0100
0000
1000
0000
0010
0000
0110
0000
0000
0000
,
0110
0000
0000
0100
0010
0000
1000
0000
0001
0000
0010
0000
0100
0000
1000
0000
,
0020
0000
0030
1001
,
0110
0000
0000
0000
0010
0000
1000
0000
0100
0010
0000
0010
0100
0000
1000
0000
,
0001
0010
1000
0001
0100
1000
0010
0100
,
0001
0000
0010
0000
0100
0000
1000
0000
0010
1000
0000
1000
0010
0000
0100
0000
,
0001
0000
1000
0000
0100
0000
0010
0000
0100
0000
1000
0000
0100
0000
0010
0001
,
1000
0000
1010
0102
0000
1003
0100
0010
,
0001
0000
0000
0000
0011
0000
2100
0000
0000
0000
3010
0100
0002
0000
0000
0000
,
0000
0000
0000
0000
,
0000
0000
2003
0000
,
0000
0000
0000
0000
,
0000
0000
3000
0000
;

//---------------dance-single - Rygon----------------
#NOTES:
     dance-single:
     :
     Medium:
     5:
     0.309,0.334,0.325,0.209,0.000,211.000,42.000,27.000,0.000,0.000,0.000,0.309,0.334,0.325,0.209,0.000,211.000,42.000,27.000,0.000,0.000,0.000:
0000
0000
0000
0000
,
0000
0000
0000
0000
,
0000
0000
0000
0000
,
0000
0000
0000
0000
,
0000
0000
0000
0000
,
1000
0000
0000
0000
,
0010
0000
0000
0000
,
0001
0000
0000
0000
,
0100
0000
0000
1001
,
0000
1000
1000
0001
,
0100
0010
0100
0001
0100
0000
0010
0000
,
1000
1000
0001
0001
,
1000
0100
0010
0100
1000
0000
0002
0000
,
0003
1010
0110
0101
,
1001
0000
1000
0000
0010
0100
0001
0000
,
0020
0001
0032
1000
,
1003
0010
0200
0300
,
2002
0000
3003
0000
,
0200
0000
0300
0000
,
0020
0000
0030
0000
,
2000
0000
3000
0000
,
0002
0000
0013
0000
,
0200
0000
1300
0000
,
0010
1000
0001
0010
,
0100
0000
1000
0000
0001
1000
0001
0000
,
0000
1010
1001
0010
,
0001
0011
1001
1000
,
0001
0101
0110
1000
,
0100
0010
0100
1000
0002
0000
1003
0000
,
0001
0101
1001
0100
,
1000
1100
1001
0001
,
1000
0000
1010
0000
0110
0000
0001
0010
,
0100
0000
0100
1001
,
1000
0001
0011
1100
,
1000
0000
0010
0000
0100
0010
0100
0000
,
0001
1000
0010
0100
,
0101
0000
1001
0000
1000
0001
1000
0000
,
0020
0000
0030
0000
,
2000
0000
3000
0000
,
0200
0000
0300
0000
,
0002
0000
0003
0000
,
0010
0000
1000
0001
0000
0001
1000
0000
,
0010
0000
0100
0001
0000
0001
0100
0000
,
0010
0010
1000
1000
,
0001
0001
1000
1000
,
1001
0001
0100
0010
,
1001
1000
0100
0010
,
0001
1000
0001
0000
1000
0001
1000
0000
,
0010
0100
0010
0100
0001
1000
0001
0000
,
0000
1100
1001
0100
,
0001
0101
1001
1000
,
0001
0011
0110
1000
,
0010
0100
0010
1000
0002
0000
1003
0000
,
0001
0011
1001
0010
,
1000
1010
1001
0001
,
1000
0000
1100
0000
0110
0000
0001
0100
,
0010
0000
0100
1001
,
0000
1020
0230
0301
,
0001
1000
0010
0100
0001
0000
1000
0000
,
0001
0021
0230
1300
,
1000
0001
0010
0100
1000
0000
0001
0000
,
0100
0000
0020
0200
0000
0330
0110
0000
,
1000
0000
0002
2000
0000
3003
2001
0000
,
0000
0000
0000
0000
,
0000
0000
3002
0000
,
0000
0000
0000
0000
,
0000
0000
0003
0000
;

//---------------dance-single - Rygon----------------
#NOTES:
     dance-single:
     :
     Easy:
     3:
     0.196,0.200,0.062,0.147,0.000,150.000,8.000,19.000,0.000,0.000,0.000,0.196,0.200,0.062,0.147,0.000,150.000,8.000,19.000,0.000,0.000,0.000:
0000
0000
0000
0000
,
0000
0000
0000
0000
,
0000
0000
0000
0000
,
0000
0000
0000
0000
,
0000
0000
0000
0000
,
1000
0000
0000
0000
,
0010
0000
0000
0000
,
0001
0000
0000
0000
,
0100
0000
0000
1001
,
0000
0000
1000
0001
,
1000
1000
0010
0000
,
0100
0100
0001
1000
,
0001
0001
0010
0000
,
0100
1000
1000
0010
,
0010
0100
0001
1000
,
0001
0000
1001
0000
,
1000
0001
1000
0000
,
0020
0000
0030
0000
,
2000
0000
3000
0000
,
0002
0000
0003
0000
,
0020
0000
0030
0000
,
0200
0000
1300
0000
,
2000
0000
3001
0000
,
0002
0000
0103
0000
,
0100
0000
0010
0110
,
0000
0000
0100
0001
,
1000
1000
0002
0003
,
1000
0100
1000
1000
,
0010
0010
0200
0300
,
0001
0010
0100
0010
,
0001
0001
2000
3000
,
0010
0010
0100
0001
,
2000
0000
3000
0000
,
1001
0000
0001
1000
,
0001
0001
0010
0000
,
0100
0100
1000
0001
,
1000
1000
0010
0000
,
0200
0000
0300
0000
,
0020
0000
0030
0000
,
2000
0000
3000
0000
,
0002
0000
0003
0000
,
0010
0000
0010
0000
,
0001
0000
0001
0000
,
1000
0000
1000
0000
,
0010
0000
0010
0000
,
0100
0100
0100
0100
,
0010
0010
0010
0010
,
1000
1000
0001
0001
,
0100
0010
1000
1001
,
0000
0000
0100
0001
,
1000
1000
0002
0003
,
1000
0100
1000
1000
,
0010
0010
0200
0300
,
0001
0010
0100
0010
,
0001
0001
2000
3000
,
0010
0010
0100
0001
,
2000
0000
3000
1001
,
0000
0000
1000
0100
,
0010
0001
0010
0000
,
0100
1000
0001
0100
,
0010
1000
0010
0000
,
0100
0000
1001
0000
,
0010
0000
1001
0000
,
0000
0000
0000
0000
,
0000
0000
0100
0000
;

//---------------dance-single - Rygon----------------
#NOTES:
     dance-single:
     :
     Beginner:
     1:
     0.119,0.175,0.015,0.031,0.000,102.000,2.000,4.000,0.000,0.000,0.000,0.119,0.175,0.015,0.031,0.000,102.000,2.000,4.000,0.000,0.000,0.000: // measure 0
0000
0000
0000
0000
,  // measure 1
0000
0000
0000
0000
,  // measure 2
0000
0000
0000
0000
,  // measure 3
0000
0000
0000
0000
,  // measure 4
0000
0000
0000
0000
,  // measure 5
1000
0000
0000
0000
,  // measure 6
0010
0000
0000
0000
,  // measure 7
0001
0000
0000
0000
,  // measure 8
0100
0000
0000
1001
,  // measure 9
0000
0000
1000
0000
,  // measure 10
0001
0000
0001
0000
,  // measure 11
0100
0000
0100
0000
,  // measure 12
0010
0000
0010
0000
,  // measure 13
1000
0000
1000
0000
,  // measure 14
0100
0000
0100
0000
,  // measure 15
0010
0000
0010
0000
,  // measure 16
0001
0000
0001
0000
,  // measure 17
1000
0000
0000
0000
,  // measure 18
0001
0000
0000
0000
,  // measure 19
0100
0000
0000
0000
,  // measure 20
0010
0000
0000
0000
,  // measure 21
1000
0000
0000
0000
,  // measure 22
0001
0000
0000
0000
,  // measure 23
0010
0000
0000
0000
,  // measure 24
0100
0000
0000
1001
,  // measure 25
0000
0000
1000
0000
,  // measure 26
0010
0000
1000
0000
,  // measure 27
0001
0000
0010
0000
,  // measure 28
0001
0000
1000
0000
,  // measure 29
0010
0000
0100
0000
,  // measure 30
0001
0000
0010
0000
,  // measure 31
0100
0000
1000
0000
,  // measure 32
0002
0000
0000
0000
,  // measure 33
0003
0000
0001
0000
,  // measure 34
0100
0000
0100
0000
,  // measure 35
0010
0000
0010
0000
,  // measure 36
1000
0000
1000
0000
,  // measure 37
0001
0000
0010
0000
,  // measure 38
0100
0000
0000
0000
,  // measure 39
0010
0000
0000
0000
,  // measure 40
0001
0000
0000
0000
,  // measure 41
1000
0000
0000
0000
,  // measure 42
0010
0000
0010
0000
,  // measure 43
0100
0000
0100
0000
,  // measure 44
0001
0000
0001
0000
,  // measure 45
0010
0010
0010
0010
,  // measure 46
0010
0010
0010
0000
,  // measure 47
0100
0100
0100
0100
,  // measure 48
0100
0100
0100
0100
,  // measure 49
0000
0000
0100
0000
,  // measure 50
1000
0000
0001
0000
,  // measure 51
1000
0000
0010
0000
,  // measure 52
0100
0000
0001
0000
,  // measure 53
0010
0000
0001
0000
,  // measure 54
0010
0000
0100
0000
,  // measure 55
1000
0000
0001
0000
,  // measure 56
2000
0000
3000
1000
,  // measure 57
0000
0000
0010
0000
,  // measure 58
0100
0000
0001
0000
,  // measure 59
0010
0000
0100
0000
,  // measure 60
1000
0000
0100
0000
,  // measure 61
0020
0000
0000
0030
0000
0000
0000
0000
,  // measure 62
0200
0000
0000
0300
0000
0000
0000
0000
,  // measure 63
0000
0000
0000
0000
,  // measure 64
0000
0000
0010
0000
;
