#TITLE:TOXIC ;
#SUBTITLE:;
#ARTIST:MEG;
#TITLETRANSLIT:;
#SUBTITLETRANSLIT:;
#ARTISTTRANSLIT:;
#GENRE:Electronic;
#CREDIT:AznPunk07/Frozen_Heat/GuardianFrozen;
#MENUCOLOR:#58369e;
#METERTYPE:DDR;
#BANNER:[Remix] - TOXIC THE LOWBROWS GIMME FIVE REMIX.png;
#BACKGROUND:[Remix] - TOXIC THE LOWBROWS GIMME FIVE REMIX-bg.png;
#LYRICSPATH:;
#CDTITLE:!cdtitle.png;
#MUSIC:[Remix] - TOXIC THE LOWBROWS GIMME FIVE REMIX.mp3;
#OFFSET:-0.103;
#SAMPLESTART:12.425;
#SAMPLELENGTH:24.760;
#SELECTABLE:YES;
#LISTSORT:;
#BPMS:0.000=155.000;
#STOPS:;
#BGCHANGES:;
#ATTACKS:;

//---------------dance-single - ----------------
#NOTES:
     dance-single:
     :
     Hard:
     8:
     0.532,0.602,0.091,0.385,0.057:
0000
0000
0000
0000
,
0000
0000
0000
0000
,
0000
0000
0000
0000
,
0000
0000
0000
0000
,
0000
0000
0000
0000
,
0000
0000
0000
0000
,
0000
0000
0000
0000
,
0000
0000
0000
0000
,
1000
0000
0100
0000
0010
0000
0100
0000
1000
0000
0001
0010
0000
0010
0100
0000
,
1000
0000
0010
0000
0100
0000
0010
0000
1000
0000
0001
0100
0000
0100
0010
0000
,
2000
0000
3100
0010
0001
0010
0100
1000
,
0002
0000
0013
0100
1000
0200
0010
0300
,
1000
0000
0010
0000
0100
0000
0010
0000
1000
0000
0010
0000
0200
0001
0000
0000
,
0310
0000
1000
0000
0001
0000
0100
0000
0010
0000
1000
0000
0002
0100
0000
0000
,
0013
0000
0000
0000
0100
0000
0100
0000
1000
0000
0100
0000
0020
0001
0000
0000
,
0130
1000
0001
1000
0020
0000
0230
0000
,
0301
0000
0010
0000
0100
0000
0010
0000
0001
0000
1000
0100
0000
0100
0010
0000
,
0001
0000
0100
0000
0010
0000
0100
0000
0001
0000
1000
0010
0000
0010
0100
0000
,
0002
0000
0013
0100
1000
0100
0010
0001
,
2000
0000
3100
0010
0001
0020
0100
0030
,
0001
0000
0100
0000
0010
0000
0100
0000
0001
0000
0100
0000
0020
1000
0000
0000
,
0130
0000
0001
0000
1000
0000
0010
0000
0100
0000
0001
0000
2000
0010
0000
0000
,
3100
0000
0000
0000
0010
0000
0010
0000
0001
0000
0010
0000
0200
1000
0000
0000
,
0310
0001
1000
0001
0200
0000
0320
0000
,
1030
0100
0010
0001
0000
1000
0001
0000
,
0100
0010
2000
0000
3020
0000
0230
0000
,
0301
1000
0001
0010
0000
0100
1000
0100
,
0000
0010
0002
0000
2003
0000
3010
0000
,
0100
0001
0100
0010
0000
1000
0100
0000
,
0010
0100
2000
0000
3002
0000
0203
0000
,
0310
1000
0010
0100
0000
0001
1000
0001
,
0000
0010
0200
0000
0320
0000
0032
0000
,
0000
0000
0000
0000
,
0000
0000
0000
0000
,
0000
0003
0000
0000
,
0000
0000
0000
0000
,
2000
0000
0000
3200
0000
0000
0320
0000
,
0000
0000
0000
0000
,
0032
0000
0000
0203
0000
0000
0320
0000
,
0000
2030
0000
3001
0200
0000
0320
0000
,
2030
0000
0000
3200
0000
0000
0320
0000
,
0000
0001
0000
0001
,
0032
0000
0000
2003
0000
0000
3020
0000
,
0130
0000
0100
0000
0001
0010
0100
1000
,
0001
0000
0001
0100
0000
0100
0010
0000
,
1000
0100
0010
0100
0000
1000
0100
0010
,
0001
0000
1000
0010
0001
0010
1000
0000
,
1000
0100
0001
0100
1000
0100
0010
0001
,
2000
0000
3010
0200
0000
0301
0020
0000
,
0031
0100
0001
0010
0100
1000
0100
0000
,
0011
0000
0100
0100
1000
1000
0010
0000
,
0100
0100
0001
0001
0010
0100
1000
0001
,
1000
1020
0100
0001
,
0100
0000
1000
0000
0100
0000
1030
0100
,
0010
0001
2000
0000
0010
0000
0100
0000
,
3001
0010
0100
1000
0100
0010
0001
1000
,
0002
0000
0103
0020
0000
1030
0200
0000
,
0310
0001
0100
0010
0000
0010
1000
0010
,
0100
0000
0001
0100
1000
0100
0001
0000
,
1000
0100
0001
0100
1000
1000
0200
0000
,
0310
0001
0000
0001
0100
0000
0000
0010
,
0000
0010
0100
0001
1000
0100
0010
0100
,
0000
1000
0000
1000
0010
0000
0010
0100
,
0000
0100
0000
0001
1000
0001
0010
0100
,
0000
1000
0000
1000
0010
0000
0000
0010
,
0000
0100
0000
0100
0001
0010
1000
0010
,
0000
0001
0000
0001
0100
0000
0100
0010
,
0000
0000
0010
0000
0000
0000
1000
0000
0001
0000
1000
0000
0100
0000
0010
0100
,
1000
0000
0100
0100
1000
0000
1010
0000
,
0100
0001
0010
0010
0001
0000
0101
0000
,
0010
0000
1000
1000
0001
0000
0110
0000
,
0001
0100
1000
0100
0001
0010
1000
0010
,
0001
0000
0100
0100
0001
0000
0011
0000
,
0001
1000
0010
0010
1000
0000
1100
0000
,
1000
0000
0001
0001
0100
0000
0110
0000
,
1000
0100
0001
0100
1000
0100
0010
0001
,
1000
0000
0001
0010
0001
0000
1001
0000
,
0010
1000
0100
1000
0010
0000
1010
0000
,
0100
0000
0100
0001
0010
0001
0100
0000
,
0100
0010
1000
0010
0100
0001
0010
0100
,
1000
0000
0001
0010
0001
0000
1001
0000
,
0010
1000
0001
1000
0010
0000
0110
0000
,
1000
0000
1000
0100
0001
0100
1000
0000
,
1000
0010
0001
0010
1000
0100
0010
0001
;

//---------------dance-single - ----------------
#NOTES:
     dance-single:
     :
     Medium:
     7:
     0.418,0.443,0.030,0.106,0.000: // measure 1
0000
0000
0000
0000
,  // measure 2
0000
0000
0000
0000
,  // measure 3
0000
0000
0000
0000
,  // measure 4
0000
0000
0000
0000
,  // measure 5
0000
0000
0000
0000
,  // measure 6
0000
0000
0000
0000
,  // measure 7
0000
0000
0000
0000
,  // measure 8
0000
0000
0000
0000
,  // measure 9
0001
0000
0001
0000
0010
0001
0010
0000
,  // measure 10
0100
0000
0100
0000
1000
0100
1000
0000
,  // measure 11
0010
0000
0010
0100
0001
0100
0010
0000
,  // measure 12
0010
0000
0010
1000
0100
0010
0100
0000
,  // measure 13
1000
0000
1000
0000
0100
1000
0100
0000
,  // measure 14
0010
0000
0010
0000
0001
0010
0001
0000
,  // measure 15
1000
0000
1000
0100
0010
0100
1000
0000
,  // measure 16
0001
0000
0001
0010
0100
0010
0001
0000
,  // measure 17
0010
0000
0010
0000
0001
0100
0001
0000
,  // measure 18
0010
0000
0010
0000
0100
1000
0100
0000
,  // measure 19
0010
0000
0010
0001
0100
0010
1000
0100
,  // measure 20
0010
0000
0010
0100
1000
0001
1000
0000
,  // measure 21
0100
0000
0100
0000
1000
0010
1000
0000
,  // measure 22
0100
0000
0100
0000
0010
0001
0010
0000
,  // measure 23
0100
0000
0100
1000
0010
0100
0001
0010
,  // measure 24
0100
0000
0100
0010
0001
1000
0001
0000
,  // measure 25
2000
0100
0000
0010
0000
3001
0200
0000
,  // measure 26
0310
1000
0010
0000
0100
0000
0100
0000
,  // measure 27
0002
0010
0000
0100
0000
1003
0020
0000
,  // measure 28
1030
0001
0100
0000
0001
1000
0100
0000
,  // measure 29
0002
0010
0000
0100
0000
1003
0020
0000
,  // measure 30
0130
0001
0100
0000
0010
0000
0010
0000
,  // measure 31
2000
0100
0000
0010
0000
3001
0200
0000
,  // measure 32
0301
1000
0010
0000
1000
0001
0010
0000
,  // measure 33
0000
0000
0000
0000
,  // measure 34
0000
0000
0000
0000
,  // measure 35
0000
0000
0000
0000
,  // measure 36
0000
0000
0000
0000
,  // measure 37
1000
0000
0000
0001
0000
0000
1000
0000
,  // measure 38
0000
0000
0000
0000
,  // measure 39
0001
0000
0000
1000
0000
0000
0001
0000
,  // measure 40
0000
0000
0000
0000
,  // measure 41
2000
0000
3000
2000
0000
3000
2000
0000
,  // measure 42
3000
0000
0000
0000
,  // measure 43
0002
0000
0003
0002
0000
0003
0002
0000
,  // measure 44
0003
0000
0000
0110
,  // measure 45
1001
0000
0001
0100
0000
0100
0010
0000
,  // measure 46
1000
0000
1000
0100
0000
0100
1000
0000
,  // measure 47
0010
0000
0010
0100
0000
0100
0001
0000
,  // measure 48
1000
0100
0010
0000
0001
0100
0010
0000
,  // measure 49
1001
0000
1000
0010
0000
0010
0100
0000
,  // measure 50
0001
0000
0001
0010
0000
0010
0001
0000
,  // measure 51
0100
0000
0100
0010
0000
0010
1000
0000
,  // measure 52
0001
0010
0100
0000
1000
0010
0100
0000
,  // measure 53
0001
0000
0001
0010
0001
0000
0100
0000
,  // measure 54
0010
1000
0100
0000
0100
1000
0010
0000
,  // measure 55
0100
0000
0100
0001
0100
0001
0100
0000
,  // measure 56
0010
1000
0010
1000
0010
0000
0100
0001
,  // measure 57
1000
0000
0100
1000
0001
0000
1000
0100
,  // measure 58
0010
0000
0001
0010
0100
0000
1000
0010
,  // measure 59
1000
0000
0001
1000
0001
1000
0001
0000
,  // measure 60
0010
0100
0010
0100
0010
0000
0110
0000
,  // measure 61
1000
0000
1000
0000
1000
0100
0010
0100
,  // measure 62
1000
0000
1000
0000
1000
0001
1000
0001
,  // measure 63
0100
0000
0100
0000
0010
1000
0010
0000
,  // measure 64
0100
0000
0100
0000
0001
0010
0001
0000
,  // measure 65
0001
0000
0001
0000
0001
0010
0100
0010
,  // measure 66
0001
0000
0001
0000
0001
1000
0001
1000
,  // measure 67
0010
0000
0010
0000
0100
0001
0100
0000
,  // measure 68
0010
0000
0010
0000
1000
0100
1000
0000
,  // measure 69
0001
0000
1000
0100
0010
0000
0001
0000
,  // measure 70
1000
0000
0010
0100
1000
0000
0100
0000
,  // measure 71
0010
0000
1000
0100
0010
0000
0001
0000
,  // measure 72
1000
0010
0100
1000
0100
0010
1000
0001
,  // measure 73
1000
0000
0001
0010
0100
0000
1000
0000
,  // measure 74
0001
0000
0100
0010
0001
0000
0010
0000
,  // measure 75
0100
0000
0001
0010
0100
0000
1000
0000
,  // measure 76
0001
0100
0010
0001
0010
0100
0001
1000
,  // measure 77
0001
0000
0001
0010
0001
0000
0001
0000
,  // measure 78
1000
0000
1000
0010
1000
0000
1000
0000
,  // measure 79
0001
0000
0001
0010
0100
0010
0001
0000
,  // measure 80
1000
0100
0010
0100
1000
0000
0000
0000
,  // measure 81
1000
0000
1000
0100
1000
0000
1000
0000
,  // measure 82
0001
0000
0001
0100
0001
0000
0001
0000
,  // measure 83
1000
0000
1000
0100
0010
0100
1000
0000
,  // measure 84
0001
0010
0100
0010
0001
0000
1000
0001
;

//---------------dance-single - ----------------
#NOTES:
     dance-single:
     :
     Easy:
     4:
     0.261,0.411,0.068,0.136,0.000: // measure 1
0000
0000
0000
0000
,  // measure 2
0000
0000
0000
0000
,  // measure 3
0000
0000
0000
0000
,  // measure 4
0000
0000
0000
0000
,  // measure 5
0000
0000
0000
0000
,  // measure 6
0000
0000
0000
0000
,  // measure 7
0000
0000
0000
0000
,  // measure 8
0000
0000
0000
0000
,  // measure 9
1000
0100
0010
0010
,  // measure 10
0001
0100
0010
0010
,  // measure 11
2000
0000
3000
0000
,  // measure 12
0002
0000
0003
0000
,  // measure 13
1000
0100
0010
0010
,  // measure 14
0001
0100
0010
0010
,  // measure 15
2000
0000
3000
0000
,  // measure 16
0002
0000
0003
0000
,  // measure 17
1000
1000
0100
1000
,  // measure 18
0001
0001
0100
0010
,  // measure 19
2000
0100
3001
0000
,  // measure 20
0002
0100
1003
0000
,  // measure 21
0001
0001
0100
0010
,  // measure 22
1000
1000
0100
0010
,  // measure 23
0002
0010
1003
0000
,  // measure 24
2000
0010
3001
0000
,  // measure 25
0001
0000
0100
0000
,  // measure 26
0010
0010
0100
0100
,  // measure 27
0001
0000
1000
0000
,  // measure 28
0100
0100
0010
0000
,  // measure 29
0001
0000
1000
0000
,  // measure 30
0010
0010
0100
0100
,  // measure 31
0001
0000
1000
0000
,  // measure 32
0100
0100
0010
0000
,  // measure 33
0000
0000
0000
0000
,  // measure 34
0000
0000
0000
0000
,  // measure 35
0000
0000
0000
0000
,  // measure 36
0000
0000
0000
0000
,  // measure 37
1000
0000
0000
0000
,  // measure 38
0000
0000
0000
0000
,  // measure 39
0001
0000
0000
0000
,  // measure 40
0000
0000
0000
0000
,  // measure 41
0000
0100
0000
0100
,  // measure 42
0000
0100
0000
0100
,  // measure 43
0000
0010
0000
0010
,  // measure 44
0010
0010
0110
0100
,  // measure 45
0001
0010
0100
0010
,  // measure 46
0001
1000
0001
0001
,  // measure 47
1000
0010
0100
0010
,  // measure 48
1000
1000
0001
0001
,  // measure 49
1000
0100
0001
0010
,  // measure 50
1000
0100
0001
0010
,  // measure 51
1000
0001
0100
1000
,  // measure 52
0010
0001
0100
0010
,  // measure 53
2000
0100
0000
0100
,  // measure 54
0000
0100
0000
0100
,  // measure 55
3000
0001
0001
0001
,  // measure 56
1000
0001
1000
0010
,  // measure 57
0002
0010
0000
0010
,  // measure 58
0000
0010
0000
0010
,  // measure 59
0003
1000
0001
1000
,  // measure 60
0010
0010
0100
0000
,  // measure 61
0001
0010
0100
0000
,  // measure 62
1000
0010
0100
0000
,  // measure 63
0002
0103
2000
3100
,  // measure 64
0002
0103
2000
3100
,  // measure 65
0001
0001
1000
0000
,  // measure 66
0010
0010
0100
0000
,  // measure 67
0002
0013
2000
3010
,  // measure 68
0002
0013
2000
3010
,  // measure 69
0001
0010
0000
0010
,  // measure 70
0001
0100
0000
0100
,  // measure 71
0010
1000
0000
1000
,  // measure 72
0100
0100
0010
0100
,  // measure 73
1000
0010
0000
0010
,  // measure 74
0100
0001
0000
0001
,  // measure 75
1000
0100
0000
0100
,  // measure 76
0010
0010
0100
0100
,  // measure 77
1000
1100
0000
1001
,  // measure 78
0000
0101
0000
1001
,  // measure 79
0000
0001
1000
0001
,  // measure 80
0010
0010
0100
0010
,  // measure 81
0001
0011
0000
1001
,  // measure 82
0000
1010
0000
1001
,  // measure 83
0000
1000
0100
0010
,  // measure 84
0100
1000
0001
0100
;
