#TITLE:SigSig -Dark Side Remix-;
#SUBTITLE:;
#ARTIST:kors k remixed by DJ TECHNORCH;
#TITLETRANSLIT:;
#SUBTITLETRANSLIT:;
#ARTISTTRANSLIT:;
#GENRE:;
#CREDIT:;
#MENUCOLOR:ddrpurple;
#METERTYPE:DDR;
#BANNER:SigSig -Dark Side Remix-.png;
#BACKGROUND:SigSig -Dark Side Remix--bg.png;
#LYRICSPATH:;
#CDTITLE:;
#MUSIC:SigSig -Dark Side Remix-.mp3;
#OFFSET:-9.360;
#SAMPLESTART:18.800;
#SAMPLELENGTH:12.000;
#SELECTABLE:YES;
#LISTSORT:;
#BPMS:0.000=180.000;
#STOPS:;
#BGCHANGES:;
#ATTACKS:;

//---------------dance-single - ----------------
#NOTES:
     dance-single:
     :
     Hard:
     8:
     0.673,0.732,1.000,0.071,0.004: // measure 1
1000
0001
0100
0010
0100
0001
1000
0010
,  // measure 2
0100
0001
1000
0001
0100
0010
1000
0001
,  // measure 3
0000
1000
0100
0001
0100
1000
0010
0001
,  // measure 4
0010
1000
0010
0100
0010
1000
0001
0100
,  // measure 5
0000
0001
1000
0010
1000
0001
0100
0001
,  // measure 6
1000
0001
0100
0010
1000
0001
1000
0010
,  // measure 7
0000
1000
0100
0001
0100
1000
0010
0001
,  // measure 8
0010
1000
0100
0010
0001
0010
0100
1000
,  // measure 9
1001
0000
0001
0100
0010
0000
0110
0000
,  // measure 10
1001
0000
0110
0000
1001
0000
0100
0001
,  // measure 11
1000
0000
0001
0100
0010
0000
1100
0000
,  // measure 12
0011
0000
0110
0000
1001
0000
0100
0010
,  // measure 13
1000
0000
0001
0100
0010
0000
1100
0000
,  // measure 14
0110
0011
0110
1100
,  // measure 15
0101
0000
0100
0010
1000
0001
1000
0010
,  // measure 16
0100
0110
1001
0110
,  // measure 17
0110
0110
1001
0110
,  // measure 18
1000
0000
0001
0100
0010
0000
0100
0000
,  // measure 19
0101
0000
0011
0000
1010
0000
1000
0010
,  // measure 20
0100
0000
0001
1000
0010
0000
0110
0000
,  // measure 21
1100
0000
0101
0000
0011
0000
1000
0001
,  // measure 22
0100
0000
0001
1000
0010
0000
1001
0000
,  // measure 23
0110
1100
0101
1010
,  // measure 24
0101
0000
1000
0010
0100
0010
1000
0001
,  // measure 25
0100
0101
1010
0101
,  // measure 26
0010
0000
1000
0010
0100
0000
0101
0000
,  // measure 27
1001
0000
1100
0000
0110
0000
0001
1000
,  // measure 28
0010
0000
0100
0001
1000
0000
1010
0000
,  // measure 29
0101
0000
1010
0000
0101
0000
0010
1000
,  // measure 30
0100
0000
0001
0100
0010
0000
0100
0000
,  // measure 31
0101
1100
0101
1001
,  // measure 32
0101
0000
1000
0001
0100
0001
1000
0100
,  // measure 33
0202
0303
0220
0330
2002
3003
0110
0000
,  // measure 34
1000
0000
0001
0100
0010
0000
0110
0000
,  // measure 35
1001
0000
1001
0000
1001
0000
1000
0100
,  // measure 36
0001
0000
0001
0100
1000
0000
1001
0000
,  // measure 37
0110
0000
1001
0000
1001
0000
0100
0001
,  // measure 38
1000
0000
1000
0010
0100
0000
1001
0000
,  // measure 39
0110
1100
0101
1100
,  // measure 40
0101
0000
1000
0100
0001
0100
1000
0010
,  // measure 41
0001
1010
0101
0110
,  // measure 42
1100
0000
0001
0100
0010
0000
1010
0000
,  // measure 43
0011
0000
0110
0000
0101
0000
1000
0001
,  // measure 44
0100
0000
0001
0100
0010
0000
1100
0000
,  // measure 45
0110
0000
0011
0000
0110
0000
1000
0010
,  // measure 46
0100
0000
0001
0100
0010
0000
1010
0000
,  // measure 47
0101
1010
0101
0110
,  // measure 48
0011
0000
1000
0010
0100
0001
0100
0010
,  // measure 49
1000
0110
1001
0110
,  // measure 50
1001
1000
0100
0001
,  // measure 51
0100
0000
1000
0000
0000
0010
0100
0001
,  // measure 52
0000
1000
0010
0100
0010
1000
0000
0002
,  // measure 53
0000
0023
0000
0230
0000
1300
0001
0100
,  // measure 54
0000
0010
1000
0001
1000
0010
0000
0101
,  // measure 55
0000
1010
0000
0101
0000
1000
0010
0100
,  // measure 56
0000
0001
0100
0010
0100
0001
0000
1000
,  // measure 57
0001
1000
0001
1000
0001
1000
0001
0000
,  // measure 58
0001
0100
1000
0100
0001
0010
0000
0100
,  // measure 59
0000
1000
0000
0001
0000
0100
0001
1000
,  // measure 60
0000
0001
0100
0010
0100
0001
0000
1000
,  // measure 61
0000
0010
0000
0100
0000
1000
0001
0010
,  // measure 62
0000
0001
1000
0100
1000
0010
0000
0100
,  // measure 63
0000
0001
0000
1000
0000
0010
0100
0001
,  // measure 64
0000
1000
0010
0100
0010
1000
0000
1010
,  // measure 65
0000
0110
0000
0011
0000
0001
0100
0010
,  // measure 66
0000
0100
0001
1000
0001
0100
0000
0110
,  // measure 67
0000
1001
0000
0110
0000
0001
0100
0010
,  // measure 68
0000
1000
0100
0001
0100
1000
0000
1100
,  // measure 69
0000
0110
0000
0011
0000
0001
0100
0010
,  // measure 70
0000
0100
0001
1000
0001
0100
0000
0110
,  // measure 71
0000
1010
0000
0101
0000
0100
0001
1000
,  // measure 72
0000
0010
1000
0001
1000
0010
0000
0110
,  // measure 73
0000
0000
1100
0000
0000
0000
0011
0000
0000
0000
1100
0000
0000
0110
0000
0000
,  // measure 74
0000
1000
0001
0010
0001
0100
0000
1010
,  // measure 75
0000
0101
0000
1010
0000
0001
1000
0010
,  // measure 76
0000
0000
0100
0001
1000
0001
0000
0110
,  // measure 77
0000
1001
0000
0110
0000
1000
0001
0010
,  // measure 78
0000
0100
1000
0001
1000
0100
0000
1010
,  // measure 79
0000
0110
0000
0101
0000
0001
0100
0010
,  // measure 80
0000
1000
0010
0100
0010
1000
0000
0101
,  // measure 81
0000
0110
0000
0101
0000
1000
0010
0100
,  // measure 82
0000
0001
1000
0010
1000
0001
0000
0000
,  // measure 83
0110
1001
1100
0011
,  // measure 84
0110
1100
0101
0110
,  // measure 85
1100
0000
0000
0000
;

//---------------dance-single - ----------------
#NOTES:
     dance-single:
     :
     Medium:
     6:
     0.460,0.599,0.681,0.000,0.000: // measure 1
1000
0100
0001
0100
,  // measure 2
1000
0010
0001
0010
,  // measure 3
1000
0100
1000
0001
,  // measure 4
0100
0001
1000
0010
,  // measure 5
1000
1001
1001
0000
,  // measure 6
0001
0100
0010
0100
,  // measure 7
1001
0100
0010
1000
,  // measure 8
0010
0100
0001
0100
,  // measure 9
0101
1000
0001
1000
,  // measure 10
0010
1000
1010
0100
,  // measure 11
0001
0100
0010
0100
,  // measure 12
1010
1010
0101
0000
,  // measure 13
1000
0010
0100
0010
,  // measure 14
1001
0110
1001
0010
,  // measure 15
1000
0100
0001
0100
,  // measure 16
1001
1001
0110
1001
,  // measure 17
0110
1000
0100
0001
,  // measure 18
1100
1001
0110
1001
,  // measure 19
0010
0100
1100
1001
,  // measure 20
1100
0001
0100
0010
,  // measure 21
1100
1100
1100
0001
,  // measure 22
0010
0001
0100
0010
,  // measure 23
0110
0110
0110
1000
,  // measure 24
0010
1000
0100
1000
,  // measure 25
0001
0110
0101
0010
,  // measure 26
1010
0110
1001
0110
,  // measure 27
1001
0110
1001
0100
,  // measure 28
1000
0100
0010
0100
,  // measure 29
1001
1001
1001
0110
,  // measure 30
1000
0010
0100
0010
,  // measure 31
1000
0001
0100
0010
,  // measure 32
0100
0001
1000
0010
,  // measure 33
0100
0010
1000
0001
,  // measure 34
0101
0101
1010
0000
,  // measure 35
0101
0100
1000
0000
,  // measure 36
0010
1000
0100
1000
,  // measure 37
0001
0100
0010
0100
,  // measure 38
1001
0010
0100
1000
,  // measure 39
0110
0110
0110
1001
,  // measure 40
0110
1001
0110
1001
,  // measure 41
1100
1100
0101
0101
,  // measure 42
1010
0100
0010
1000
,  // measure 43
0010
0100
1010
0100
,  // measure 44
0001
1000
0001
0100
,  // measure 45
1001
1001
1001
0010
,  // measure 46
0100
1000
0001
0000
,  // measure 47
0100
0000
0010
1000
,  // measure 48
0001
0000
1000
0100
,  // measure 49
1000
0010
0100
0010
,  // measure 50
1000
1001
0010
0100
,  // measure 51
0001
1000
0010
0100
,  // measure 52
0001
1000
0000
0000
,  // measure 53
1000
1000
1000
0000
,  // measure 54
0001
0001
0100
0000
,  // measure 55
0001
1000
0000
0010
,  // measure 56
1000
0000
0100
1000
,  // measure 57
0001
0000
0000
0000
,  // measure 58
1000
0100
0001
0100
,  // measure 59
1000
1100
1100
0100
,  // measure 60
0001
0100
1000
0100
,  // measure 61
1100
1100
0101
0101
,  // measure 62
1000
0010
0100
0010
,  // measure 63
1000
1000
1000
0001
,  // measure 64
1000
0001
0100
0001
,  // measure 65
0100
0010
0100
0010
,  // measure 66
1000
0010
1000
0010
,  // measure 67
0100
0010
1000
0001
,  // measure 68
0100
0001
1000
0001
,  // measure 69
0100
0010
0100
0001
,  // measure 70
1000
0010
0100
0010
,  // measure 71
1010
1010
1010
0100
,  // measure 72
0001
1000
0001
0100
,  // measure 73
1001
1001
0101
1010
,  // measure 74
0100
0010
1000
0010
,  // measure 75
0100
0001
0100
0010
,  // measure 76
0100
0001
1000
0010
,  // measure 77
0100
0010
1010
1010
,  // measure 78
0101
1000
0010
0100
,  // measure 79
0010
1000
0001
0100
,  // measure 80
0010
0100
0001
1000
,  // measure 81
0010
0100
0010
1000
,  // measure 82
0001
0100
0010
0100
,  // measure 83
0010
1000
0010
0100
,  // measure 84
1010
0110
1001
0110
,  // measure 85
1001
0000
0000
0000
;

//---------------dance-single - ----------------
#NOTES:
     dance-single:
     :
     Beginner:
     0:
     0.057,0.100,0.000,0.000,0.000: // measure 1
1000
0000
0000
0000
,  // measure 2
0000
0000
0000
0000
,  // measure 3
0001
0000
0000
0000
,  // measure 4
0000
0000
0000
0000
,  // measure 5
0100
0000
0000
0000
,  // measure 6
0010
0000
0000
0000
,  // measure 7
1000
0000
0000
0000
,  // measure 8
0100
0000
0000
0000
,  // measure 9
1000
0000
0000
0000
,  // measure 10
0000
0000
0001
0000
,  // measure 11
0000
0000
0000
0000
,  // measure 12
0000
0000
0100
0000
,  // measure 13
0000
0000
0000
0000
,  // measure 14
0000
0000
0010
0000
,  // measure 15
0000
0000
0000
0000
,  // measure 16
1000
0000
0000
0000
,  // measure 17
0000
0000
0000
0000
,  // measure 18
0001
0000
0000
0000
,  // measure 19
0100
0000
0000
0000
,  // measure 20
0010
0000
0000
0000
,  // measure 21
0000
0000
0100
0000
,  // measure 22
0000
0000
0000
0000
,  // measure 23
0000
0000
0001
0000
,  // measure 24
0000
0000
0000
0000
,  // measure 25
1000
0000
0000
0000
,  // measure 26
0010
0000
0000
0000
,  // measure 27
1000
0000
0000
0000
,  // measure 28
0001
0000
0000
0000
,  // measure 29
0000
0000
0100
0000
,  // measure 30
0000
0000
0000
0000
,  // measure 31
0010
0000
0000
0000
,  // measure 32
1000
0000
0000
0000
,  // measure 33
0000
0000
0001
0000
,  // measure 34
0000
0000
0000
0000
,  // measure 35
0000
0000
0100
0000
,  // measure 36
0000
0000
0000
0000
,  // measure 37
0000
0000
0001
0000
,  // measure 38
0000
0000
0000
0000
,  // measure 39
0000
0000
1000
0000
,  // measure 40
0000
0000
0000
0000
,  // measure 41
0000
0000
0010
0000
,  // measure 42
0000
0000
0000
0000
,  // measure 43
0000
0000
0100
0000
,  // measure 44
0000
0000
0000
0000
,  // measure 45
0000
0000
0000
0000
,  // measure 46
0001
0000
0000
0000
,  // measure 47
0000
0000
0000
0000
,  // measure 48
0100
0000
0000
0000
,  // measure 49
0000
0000
0000
0000
,  // measure 50
0010
0000
0000
0000
,  // measure 51
0000
0000
0000
0000
,  // measure 52
0000
0000
0000
0000
,  // measure 53
0000
0000
0000
0000
,  // measure 54
0000
0000
0000
0000
,  // measure 55
0100
0000
0000
0000
,  // measure 56
0000
0000
0000
0000
,  // measure 57
0001
0000
0000
0000
,  // measure 58
0000
0000
0000
0000
,  // measure 59
1000
0000
0000
0000
,  // measure 60
0000
0000
0001
0000
,  // measure 61
0000
0000
0000
0000
,  // measure 62
0000
0000
0100
0000
,  // measure 63
0000
0000
0000
0000
,  // measure 64
0000
0000
0000
0000
,  // measure 65
0000
0000
0010
0000
,  // measure 66
0000
0000
0000
0000
,  // measure 67
0000
0000
0000
0100
,  // measure 68
0000
0000
0000
0000
,  // measure 69
0000
0000
0000
0001
,  // measure 70
0000
0000
0000
0000
,  // measure 71
0000
0000
0000
1000
,  // measure 72
0000
0000
0000
0000
,  // measure 73
0000
0000
0000
0000
,  // measure 74
0010
0000
0000
0000
,  // measure 75
0000
0000
0000
0000
,  // measure 76
0100
0000
0000
0000
,  // measure 77
0000
0000
0000
0000
,  // measure 78
0001
0000
0000
0000
,  // measure 79
1000
0000
0000
0000
,  // measure 80
0000
0000
0010
0000
,  // measure 81
0000
0000
0100
0000
,  // measure 82
0000
0000
0000
0000
,  // measure 83
0001
0000
0000
0000
,  // measure 84
1000
0000
0000
0000
,  // measure 85
0010
0000
0000
0000
;

//---------------dance-single - ----------------
#NOTES:
     dance-single:
     :
     Easy:
     4:
     0.271,0.299,0.000,0.000,0.000: // measure 1
1000
0000
0001
0000
,  // measure 2
0100
0000
0001
0000
,  // measure 3
1000
0000
0010
0000
,  // measure 4
0100
0000
0010
0000
,  // measure 5
1000
1000
0000
0000
,  // measure 6
0001
0001
0000
0000
,  // measure 7
0100
0000
0010
0000
,  // measure 8
0100
0000
0001
0000
,  // measure 9
1000
0000
0001
0001
,  // measure 10
0000
0000
1000
0000
,  // measure 11
0010
0000
0100
0100
,  // measure 12
0000
0000
0001
0000
,  // measure 13
1000
0000
0001
0001
,  // measure 14
0000
0000
0100
0000
,  // measure 15
0010
0000
0100
0000
,  // measure 16
0001
0001
0001
0000
,  // measure 17
1000
1000
1000
0000
,  // measure 18
0001
1000
0001
0000
,  // measure 19
0100
0100
0100
0000
,  // measure 20
0010
0000
1000
0000
,  // measure 21
0010
0010
0100
0000
,  // measure 22
0001
0000
0100
0000
,  // measure 23
1000
0000
0100
0000
,  // measure 24
0001
0000
1000
0100
,  // measure 25
0001
0100
1000
0000
,  // measure 26
0001
0100
1000
0100
,  // measure 27
0001
0000
1000
1000
,  // measure 28
0001
0000
0001
0001
,  // measure 29
1000
0000
0100
0100
,  // measure 30
0010
0000
0010
0010
,  // measure 31
0100
0000
0001
0001
,  // measure 32
1000
0000
1000
1000
,  // measure 33
0100
0000
0000
0000
,  // measure 34
0010
1000
0010
0000
,  // measure 35
0100
0001
0100
0000
,  // measure 36
0001
1000
0001
0000
,  // measure 37
0010
0100
0010
0000
,  // measure 38
1000
0001
1000
0000
,  // measure 39
0100
0100
0010
0000
,  // measure 40
0001
0001
1000
1000
,  // measure 41
0001
0001
0100
0100
,  // measure 42
0010
0000
1000
1000
,  // measure 43
0001
0001
0100
0000
,  // measure 44
0010
0010
1000
1000
,  // measure 45
0100
0100
1000
1000
,  // measure 46
0001
0000
0100
0000
,  // measure 47
0010
0000
1000
0000
,  // measure 48
0001
0000
0100
0010
,  // measure 49
0100
0010
0100
0010
,  // measure 50
0100
0000
0000
0000
,  // measure 51
1000
0001
1000
0000
,  // measure 52
0000
0000
0000
0000
,  // measure 53
0001
1000
0001
0000
,  // measure 54
0000
0000
0100
0000
,  // measure 55
0010
0000
1000
0000
,  // measure 56
0001
0000
1000
0000
,  // measure 57
0001
0000
0100
0000
,  // measure 58
0001
1000
0010
1000
,  // measure 59
0001
0000
0100
0010
,  // measure 60
1000
0000
0001
0100
,  // measure 61
0010
0000
0100
0001
,  // measure 62
0000
1000
0010
0000
,  // measure 63
0100
1000
0100
1000
,  // measure 64
0001
0000
0001
0100
,  // measure 65
0010
0100
0001
0000
,  // measure 66
1000
0010
0100
0010
,  // measure 67
1000
0001
0100
0010
,  // measure 68
0100
0001
1000
0010
,  // measure 69
0100
0010
1000
0000
,  // measure 70
0001
0100
0010
0100
,  // measure 71
0001
0000
1000
0010
,  // measure 72
0000
0000
0001
0100
,  // measure 73
0010
0100
0001
1000
,  // measure 74
0010
0100
0010
1000
,  // measure 75
0001
0100
0010
0100
,  // measure 76
0001
0000
1000
0010
,  // measure 77
0100
0010
1000
0000
,  // measure 78
0001
0100
0010
0100
,  // measure 79
0001
1000
0010
0100
,  // measure 80
0010
1000
0001
0100
,  // measure 81
0010
0100
0001
0000
,  // measure 82
1000
1000
0001
0001
,  // measure 83
0100
0100
0010
0010
,  // measure 84
1000
1000
0100
0100
,  // measure 85
1000
0000
0000
0000
;
