#TITLE:Futatsuiwa from Sado;
#SUBTITLE:-TakaTDM Remix-;
#ARTIST:TakaTDM;
#TITLETRANSLIT:;
#SUBTITLETRANSLIT:;
#ARTISTTRANSLIT:;
#CREDIT:;
#BANNER:mamizou.png;
#BACKGROUND:mamizou-bg.png;
#LYRICSPATH:;
#CDTITLE:;
#MUSIC:mamizou.ogg;
#OFFSET:-0.030;
#SAMPLESTART:22.604;
#SAMPLELENGTH:12.000;
#SELECTABLE:YES;
#DISPLAYBPM:85.000:170.000;
#BPMS:0.000=170.000,96.000=85.000,128.000=170.000,135.000=100.000,135.250=150.000,135.500=250.000,135.750=350.000,136.000=170.000,143.000=100.000,143.250=150.000,143.500=250.000,143.750=350.000,144.000=170.000,151.000=100.000,151.250=150.000,151.500=250.000,151.750=350.000,152.000=170.000,159.000=100.000,159.250=150.000,159.500=250.000,159.750=350.000,160.000=85.000,160.000=85.000,192.000=170.000;
#STOPS:;
#BGCHANGES:;

//---------------dance-single - TaroNuke----------------
#NOTES:
     dance-single:
     TaroNuke:
     Hard:
     9:
     0.600,0.785,0.238,0.492,0.276: // measure 1
0000
0000
0000
0000
,  // measure 2
0000
0000
0000
0000
,  // measure 3
0000
0000
0000
0000
,  // measure 4
0000
0000
0000
0000
,  // measure 5
0000
0000
0000
0000
,  // measure 6
0000
0000
0000
0000
,  // measure 7
0000
0000
0000
0000
,  // measure 8
0000
0000
0000
0000
,  // measure 9
1000
0100
1000
0100
0010
0001
0010
0001
,  // measure 10
1000
0100
1000
0100
0010
0001
0010
0001
,  // measure 11
1000
0010
1000
0010
0100
0001
0100
0001
,  // measure 12
1000
0010
1000
0010
0100
0001
0010
0100
,  // measure 13
1000
0010
1000
0010
0100
0001
0100
0001
,  // measure 14
1000
0010
1000
0010
0100
0001
0100
0001
,  // measure 15
0010
0100
0010
0100
1000
0001
1000
0001
,  // measure 16
0100
0000
0010
0000
0100
0000
0010
0000
0000
0000
1000
0010
0100
0001
1000
0000
,  // measure 17
0001
0000
0010
0100
0010
0000
0001
0000
0100
0000
1000
0000
0100
0000
0001
0000
,  // measure 18
1000
0000
0100
0010
0100
0000
1000
0000
1000
0000
0100
0000
0020
0000
0000
0000
,  // measure 19
0031
0000
0100
0010
0100
0000
0001
0000
0010
0000
1000
0000
0010
0000
0001
0000
,  // measure 20
1000
0000
0010
0100
0010
0000
1000
0000
1000
0000
0100
0000
0020
0000
0000
0000
,  // measure 21
0031
0000
0010
0001
0010
0000
0100
0000
1000
0000
0010
0000
0001
0000
0010
0000
,  // measure 22
1000
0000
0010
1000
0010
0000
0100
0000
0100
0000
0001
0000
0020
0000
0000
0000
,  // measure 23
0031
0000
0100
0001
0100
0000
0010
0000
1000
0000
0100
0000
0001
0000
0100
0000
,  // measure 24
1000
0000
0100
1000
0100
0000
0010
0000
0000
0000
0001
0100
0010
1000
0001
0000
,  // measure 25
1000
0000
0000
0010
1010
0000
0000
0000
0100
0000
0001
0000
0101
0000
0000
0000
,  // measure 26
1000
0000
0000
0100
1100
0000
0000
0000
0010
0000
0001
0000
0011
0000
0010
0001
,  // measure 27
1000
0000
0000
0100
1100
0000
0000
0000
0001
0000
0100
0000
0101
0000
0000
0000
,  // measure 28
0001
0000
0000
0010
0011
0000
0001
0000
0100
0000
0010
0000
1010
0000
1000
0001
,  // measure 29
1000
0100
0010
0100
2000
0000
3020
0000
0230
0000
0000
0000
0301
0000
0100
0001
,  // measure 30
0010
0200
0000
0320
0000
0000
0130
2000
0000
3010
1000
0010
0200
0000
0301
0000
,  // measure 31
1000
0000
0100
0000
0001
0000
0100
0000
2000
0000
0000
0000
3200
0000
0000
0000
0320
0000
0000
0000
0000
0001
0000
0000
0000
0000
0031
0000
0100
0000
0010
0000
,  // measure 32
2000
0000
0000
3002
0000
0003
0100
0020
0000
0000
0000
0000
1000
0000
1030
0000
,  // measure 33
1010
0000
1100
0000
1000
0100
0001
0100
,  // measure 34
1000
0011
0101
0020
,  // measure 35
1030
0000
0101
0000
0001
0010
0100
1000
,  // measure 36
0000
1000
0010
0000
0101
0100
0020
0000
,  // measure 37
1030
0000
1100
0000
1000
0010
0001
0010
,  // measure 38
1000
0011
0101
0002
,  // measure 39
1003
0000
1001
0000
1000
0010
0100
0001
,  // measure 40
0000
0001
0010
0000
1001
1000
0020
0000
,  // measure 41
1030
0001
0010
0001
0200
0000
0320
0000
2030
0000
0100
0000
0001
0000
3010
0000
,  // measure 42
0001
0100
0000
0020
0000
0030
1000
0002
0000
1003
0100
0010
0002
0000
1003
0000
,  // measure 43
0001
0100
1000
0100
0002
0000
0203
0000
0320
0000
0000
0032
0000
0000
0013
0100
,  // measure 44
1000
0000
0000
0100
0000
0000
0001
0000
1000
0000
0000
0100
0000
0000
0001
0000
0200
0000
0000
0000
0010
0000
0000
0000
1000
0000
0000
0000
0310
0000
0000
0000
,  // measure 45
1000
0001
0100
0001
2000
0000
3002
0000
0203
0000
0010
0000
1000
0000
0310
0000
,  // measure 46
0001
0100
0000
2000
0000
3000
0100
0001
0000
1000
0100
0010
0002
0000
1003
0000
,  // measure 47
0001
0010
1000
0010
0002
0000
0203
0000
2300
0000
0000
3000
0000
0100
0010
1000
,  // measure 48
0200
0000
0000
2300
0000
0000
3001
0020
0000
0000
0000
0000
0001
0000
0031
0000
,  // measure 49
0011
0000
1000
0100
1000
0000
0100
0000
0020
0000
0000
0000
0032
0000
0000
0000
,  // measure 50
0203
0000
0000
0300
0000
0001
0001
0010
,  // measure 51
0200
0000
0320
0000
,  // measure 52
0032
0000
0203
0000
0310
1000
0000
1010
,  // measure 53
0000
0000
1000
0010
1000
0000
0100
0000
0020
0000
0000
0000
0032
0000
0000
0000
,  // measure 54
0203
0000
0000
0000
0300
0010
0100
0001
,  // measure 55
0012
0103
0120
1030
,  // measure 56
1000
0010
1000
0010
0100
0001
0010
0100
,  // measure 57
1000
0000
0100
0010
0100
0000
1000
0000
0001
0000
0100
0000
0010
0000
1000
0000
,  // measure 58
0001
0100
1000
0100
0010
1000
0100
0000
,  // measure 59
1000
0001
0100
0001
0010
0010
0010
0001
,  // measure 60
0100
0000
0000
1010
0000
0000
0101
0000
,  // measure 61
0000
0000
1000
0010
1000
0000
0001
0000
0010
0000
0100
0000
0001
0000
0100
0000
,  // measure 62
1000
0000
0001
0100
0000
0010
1000
0100
,  // measure 63
2100
3010
0210
0301
,  // measure 64
0012
1000
0010
0100
,  // measure 65
2000
0000
0000
0000
,  // measure 66
0000
0000
0000
0000
,  // measure 67
3003
0000
0000
0000
;

//---------------dance-single - Taro----------------
#NOTES:
     dance-single:
     Taro:
     Beginner:
     1:
     0.104,0.224,0.204,0.017,0.000:
0000
0000
0000
0000
,
0000
0000
0000
0000
,
0000
0000
0000
0000
,
0000
0000
0000
0000
,
1000
0000
0000
0000
,
1000
0000
0000
0000
,
0001
0000
0000
0000
,
0001
0000
0000
0000
,
1000
0000
0000
0000
,
1000
0000
0000
0000
,
0001
0000
0000
0000
,
0001
0000
0000
0000
,
0100
0000
0000
0000
,
0100
0000
0000
0000
,
0010
0000
0000
0000
,
0010
0000
0000
0000
,
1001
0000
0000
0000
,
0000
0000
0000
0000
,
1001
0000
0000
0000
,
0000
0000
0000
0000
,
0110
0000
0000
0000
,
0000
0000
0000
0000
,
0110
0000
0000
0000
,
0000
0000
0000
0000
,
1000
0000
0000
0000
,
1000
0000
0000
0000
,
0001
0000
0000
0000
,
0001
0000
0000
0000
,
0100
0000
0000
0000
,
0100
0000
0000
0000
,
0010
0000
0000
0000
,
0010
0000
0000
0000
,
1001
0000
0000
0000
,
0000
0000
0000
0000
,
1001
0000
0000
0000
,
0000
0000
0000
0000
,
0110
0000
0000
0000
,
0000
0000
0000
0000
,
0110
0000
0000
0000
,
0000
0000
0000
0000
,
1000
0000
1000
0000
,
0100
0000
0100
0000
,
0010
0000
0010
0000
,
0001
0000
0001
0000
,
1000
0000
0100
0000
,
0001
0000
0010
0000
,
1000
0000
0010
0000
,
0001
0000
0100
0000
,
1001
0000
0000
0000
,
0000
0000
0000
0000
,
1001
0000
0000
0000
,
0000
0000
0000
0000
,
0110
0000
0000
0000
,
0000
0000
0000
0000
,
0110
0000
0110
0000
,
0110
0000
0000
0000
,
1001
0000
0000
0000
,
1100
0000
0000
0000
,
1001
0000
0000
0000
,
0101
0000
0000
0000
,
0000
1001
0000
0000
,
1001
0000
0000
0000
,
0110
0000
0110
0000
,
0110
0000
0000
0000
,
2002
0000
0000
0000
,
0000
0000
0000
0000
,
3003
0000
0000
0000
;

//---------------dance-single - Taro----------------
#NOTES:
     dance-single:
     Taro:
     Easy:
     4:
     0.274,0.364,0.263,0.017,0.000:
0000
0000
0000
0000
,
0000
0000
0000
0000
,
0000
0000
0000
0000
,
0000
0000
0000
0000
,
1000
0000
1000
0000
,
1000
0000
1000
0000
,
0001
0000
0010
0000
,
0001
0000
0001
0000
,
1000
1000
1000
0000
,
0001
0001
0001
0000
,
0100
0100
0010
0000
,
0100
0100
0010
0000
,
1000
1000
1000
0000
,
0001
0001
0001
0000
,
0100
0100
0010
0000
,
0100
0100
0000
0000
,
1000
0100
1000
0100
,
0010
0010
0010
0000
,
0001
0100
0001
0000
,
0110
0110
0110
0000
,
1000
0010
1000
0010
,
0100
0100
0100
0000
,
0001
0100
0001
0100
,
0010
0010
0010
0010
,
1000
1010
0001
0011
,
1000
1000
0001
0001
,
0100
1010
0100
0011
,
1000
0100
0010
0000
,
0001
0101
1000
1100
,
1000
1000
0001
0001
,
0010
1100
0010
0101
,
0010
0010
0010
0000
,
1000
0100
0001
0100
,
1000
0010
0001
0000
,
0100
1000
0010
0100
,
0001
0010
0100
0000
,
1000
0010
0001
0010
,
1000
0100
0001
0000
,
0010
1000
0100
0010
,
0001
0100
0010
0000
,
1000
1010
0001
0011
,
1000
1001
0001
1001
,
0100
1010
0100
0011
,
1000
0100
0010
0000
,
0001
0101
1000
1100
,
1000
0110
0001
0110
,
0001
1100
1000
0101
,
0010
0010
0010
0000
,
1000
0100
1000
0100
,
0010
0001
0010
0001
,
1000
0001
1000
0000
,
1001
0000
0000
0000
,
0001
0100
0001
0100
,
0010
1000
0010
0000
,
0110
0000
1001
0000
,
0110
0000
0000
0000
,
1000
0100
0001
0100
,
1000
0010
0001
0000
,
0100
1000
0010
0000
,
0001
0100
1000
0000
,
0001
0100
1000
0100
,
0001
0010
1000
0000
,
0110
0000
1001
0000
,
0110
0000
0000
0000
,
2002
0000
0000
0000
,
0000
0000
0000
0000
,
3003
0000
0000
0000
;

//---------------dance-single - Taro----------------
#NOTES:
     dance-single:
     Taro:
     Medium:
     6:
     0.412,0.476,0.297,0.144,0.000:
0000
0000
0000
0000
,
0000
0000
0000
0000
,
0000
0000
0000
0000
,
0000
0000
0000
0000
,
1000
0000
1000
0000
1000
0100
1000
0000
,
0001
0000
0001
0000
0001
0100
0001
0000
,
0010
0000
0010
0000
0010
0100
0010
0000
,
0010
0010
0100
0001
,
1000
0100
1000
0000
0010
0100
0010
0000
,
1000
0100
1000
0000
0100
0010
0100
0000
,
0010
0100
0010
0000
0001
1000
0001
0000
,
0100
0010
0100
0000
0001
1000
0100
1000
,
0001
0010
0001
0000
0100
0010
0100
0000
,
0001
0010
0001
0000
0010
0100
0010
0000
,
0100
0010
0100
0000
0001
1000
0001
0000
,
0100
0010
0100
0000
1000
0001
1000
0010
,
1000
1100
1000
1100
,
0010
0000
0110
0000
0010
0100
0001
0000
,
0001
0101
0001
0101
,
0100
0010
0000
0110
0000
0000
1010
0000
,
1000
1010
1000
1010
,
0100
0000
0110
0000
0010
0100
0001
0000
,
0001
0011
0001
0011
,
0010
0100
0010
0100
0010
0100
0010
0000
,
1000
0001
1001
0000
0100
0010
0110
0000
,
0001
1000
1001
0000
0010
0100
0110
0000
,
1000
0100
0010
0100
1000
0100
0010
0000
,
0001
0100
1000
0100
0001
0000
0000
0000
,
0001
1000
1001
0000
0100
0010
0110
0000
,
1000
0001
1001
0000
0010
0100
0110
0000
,
0001
0100
0010
0100
0001
0100
0010
0000
,
1000
0100
0001
0100
1000
0000
0000
0000
,
1000
0000
0001
0000
0100
0010
0100
0010
,
1000
0001
0100
0020
,
1030
0000
0001
0000
0010
0100
0010
0100
,
0000
1000
0001
0000
1001
0000
0020
0000
,
1030
0000
0001
0000
0100
0010
0100
0010
,
1000
0100
0001
0200
,
1300
0000
0001
0000
0010
0100
0010
0100
,
0000
1000
0001
0000
1000
0001
0020
0000
,
0031
1001
0200
0301
,
1000
0000
1001
0000
0200
0010
0310
0000
,
1000
1001
0020
1030
,
1000
0010
0001
0010
1000
0000
0000
0000
,
1000
1001
0200
1300
,
0001
0000
1001
0000
0200
0010
0310
0000
,
0001
1001
0020
0031
,
0001
0010
1000
0010
0001
0000
0000
0000
,
1000
1000
0100
0100
,
0010
0010
0001
0001
,
0100
0000
0100
0000
0010
1000
0010
0000
,
1010
0000
0000
0101
0000
0000
1010
0000
,
0000
1000
1000
0000
0010
0000
0010
0000
,
0101
0000
0001
0100
0000
0001
0100
0000
,
2000
0000
3020
0000
,
0032
0000
0003
0000
,
1000
1000
0010
0010
,
0100
0100
0001
0001
,
0010
0000
0010
0000
0100
1000
0100
0000
,
0011
0000
0000
1100
0000
0000
0011
0000
,
0000
1000
1000
0000
0100
0000
0100
0000
,
0011
0000
0001
0010
0000
0001
0010
0000
,
2000
0000
3200
0000
,
0302
0000
0000
0000
,
2000
0000
0000
0000
,
0000
0000
0000
0000
,
3003
0000
0000
0000
;
