#TITLE:Rope;
#SUBTITLE:(Deadmau5 Mix);
#ARTIST:Deadmau5;
#TITLETRANSLIT:;
#SUBTITLETRANSLIT:;
#ARTISTTRANSLIT:;
#GENRE:;
#CREDIT:;
#BANNER:;
#BACKGROUND:;
#LYRICSPATH:;
#CDTITLE:;
#MUSIC:Foo Fighters - Rope (Deadmau5 Remix).ogg;
#OFFSET:-1.698;
#SAMPLESTART:9.198;
#SAMPLELENGTH:12.000;
#SELECTABLE:YES;
#BPMS:0.000=128.000
;
#STOPS:
;
#BGCHANGES:;
#KEYSOUNDS:;
#ATTACKS:;

//---------------dance-single - Blank----------------
#NOTES:
     dance-single:
     :
     Hard:
     8:
     0.454,0.396,0.145,0.083,0.223,284.000,14.000,8.000,0.000,0.000,0.000,0.454,0.396,0.145,0.083,0.223,284.000,14.000,8.000,0.000,0.000,0.000:
0000
0000
0000
0000
,
0000
0000
0000
0000
,
0000
0000
0000
0000
,
0000
0000
0000
0000
,
2001
0000
0000
0000
3100
0000
0000
0000
0010
0000
0000
0010
0000
0000
0100
0000
,
1000
0000
0001
0000
0100
0000
0000
0000
0010
0000
0000
0010
0000
0000
0100
0000
,
0102
0000
0000
0003
1000
0000
0000
0000
0100
0000
0000
0100
0000
0000
1000
0000
,
0010
0000
0100
0000
0001
0000
0000
0000
1000
0000
0000
1000
0000
0000
0100
0000
,
0120
0000
0000
0000
0031
0000
0000
0000
1000
0000
0000
1000
0000
0000
0010
0000
,
0100
0000
0010
0000
1000
0000
0000
0000
0001
0000
0000
0001
0000
0000
0010
0000
,
0210
0000
0000
0000
1300
0000
0000
0000
0010
0000
0000
0010
0000
0000
0100
0000
,
0001
0000
1000
0000
0100
0000
0000
0000
0010
0000
0000
0010
0000
0000
0100
0000
,
2100
0000
0000
0000
3010
0000
0000
0000
0100
0000
0000
0100
0001
0000
0010
0000
,
0100
0000
1000
0000
0010
0000
0000
0000
0100
0001
0000
0010
0000
0000
0100
0000
,
0120
0000
0000
0000
0031
0000
0000
0000
0100
0000
0000
0100
0010
0000
1000
0000
,
0001
0000
0100
0000
0010
0000
0000
0000
1000
0100
0000
0010
0000
0000
0100
0000
,
2100
0000
0000
0000
3001
0000
0000
0000
0100
0000
0000
0100
0001
0000
0010
0000
,
0001
0000
0100
0000
0010
0000
0000
0000
0100
0001
0000
0010
0000
0000
0001
0000
,
0201
0000
0000
0000
0310
0000
0000
0000
1000
0000
0000
1000
0100
0000
0010
0000
,
0001
0000
1000
0000
0100
0000
0000
0000
1000
0001
0000
0010
0000
0000
0100
0000
,
1000
0010
0100
0010
1000
0010
0100
0010
,
1000
0001
0100
0001
1000
0001
0100
0001
,
0010
0100
1000
0100
0010
0100
1000
0100
,
0010
0001
0100
0001
0010
0001
0100
0000
,
0001
0100
0010
0100
0001
0100
0010
0100
,
0001
1000
0010
1000
0001
1000
0010
1000
,
0100
0010
0001
0010
0100
0010
0001
0010
,
0100
1000
0010
1000
0100
1000
0010
0000
,
1000
0010
0001
0010
0100
0010
0001
0010
,
1000
0010
0001
0010
0100
0010
0001
0010
,
1000
0100
0001
0100
0010
0100
0001
0100
,
1000
0100
0001
0100
0010
0100
1000
0000
,
0001
0010
1000
0010
0100
0010
1000
0010
,
0001
0010
1000
0010
0100
0010
1000
0010
,
0001
0100
1000
0100
0010
0100
1000
0100
,
0001
0100
1000
0100
0010
0100
0001
0000
,
1000
0000
0000
0010
0000
0000
0100
0000
0000
0010
0000
0000
1000
0000
0000
0100
,
0000
0000
0010
0000
0000
0001
0000
0000
0100
0000
0000
0010
0000
0000
0100
0000
,
0000
0001
0000
0000
0010
0000
0000
0100
0000
0000
1000
0000
0000
0010
0000
0000
,
0100
0000
0000
0010
0000
0000
1000
0000
0000
0001
0000
0000
0100
0000
0000
0010
,
0100
0000
0000
0001
0000
0000
1000
0000
0000
0010
0000
0000
0100
0000
0000
0001
,
0000
0000
0010
0000
0000
0100
0000
0000
1000
0000
0000
0010
0000
0000
0100
0000
,
0000
0010
0000
0000
1000
0000
0000
0001
0000
0000
0010
0000
0000
0100
0000
0000
,
1000
0000
0000
0010
0000
0000
0100
0000
0000
0001
0000
0000
1000
0000
0000
0010
,
1000
0000
0101
0000
1000
0100
0011
0000
,
0001
0000
1010
0000
0001
0010
1100
0000
,
1000
0000
0011
0000
1000
0010
0101
0000
,
0001
0000
0000
0000
0010
0000
0000
0000
0100
0000
0000
0100
1000
0000
0000
0000
;

//---------------dance-single - Blank----------------
#NOTES:
     dance-single:
     :
     Beginner:
     1:
     0.138,0.173,0.125,0.083,0.000,73.000,12.000,8.000,0.000,0.000,0.000,0.138,0.173,0.125,0.083,0.000,73.000,12.000,8.000,0.000,0.000,0.000:
0000
0000
0000
0000
,
0000
0000
0000
0000
,
0000
0000
0000
0000
,
0000
0000
0000
0000
,
1000
0000
0010
0000
,
0100
0000
0010
0000
,
2000
0000
3000
0000
,
0002
0000
0003
0000
,
0010
0000
0100
0000
,
1000
0000
0100
0000
,
0020
0000
0030
0000
,
0002
0000
0003
0000
,
0100
0000
0010
0000
,
1000
0000
0001
0000
,
0200
0000
0300
0000
,
0020
0000
0030
0000
,
1000
0000
0100
0000
,
0010
0000
0001
0000
,
0200
0000
0300
0000
,
0002
0000
0003
0000
,
0010
0000
0010
0000
,
0100
0000
0100
0000
,
1001
0000
0000
0000
,
1001
0000
0000
0000
,
0100
0000
0100
0000
,
0010
0000
0010
0000
,
1001
0000
0000
0000
,
1001
0000
0000
0000
,
0001
0000
0001
0000
,
1000
0000
1000
0000
,
0110
0000
0000
0000
,
0110
0000
0000
0000
,
1000
0000
1000
0000
,
0001
0000
0001
0000
,
0110
0000
0000
0000
,
0110
0000
0000
0000
,
1000
0000
0100
0000
,
0001
0000
0010
0000
,
1000
0000
0010
0000
,
0001
0000
0100
0000
,
1000
0000
0100
0000
,
0001
0000
0010
0000
,
1000
0000
0010
0000
,
0001
0000
0100
0000
,
1001
0000
0100
0000
,
0110
0000
0001
0000
,
1001
0000
0010
0000
,
0110
0000
1000
1000
;

//---------------dance-single - Blank----------------
#NOTES:
     dance-single:
     :
     Easy:
     3:
     0.227,0.198,0.208,0.135,0.000,120.000,20.000,13.000,0.000,0.000,0.000,0.227,0.198,0.208,0.135,0.000,120.000,20.000,13.000,0.000,0.000,0.000:
0000
0000
0000
0000
,
0000
0000
0000
0000
,
0000
0000
0000
0000
,
0000
0000
0000
0000
,
0000
1000
0010
0100
,
0001
0010
0100
1000
,
0002
0000
2003
0000
,
3020
0000
0130
0000
,
0000
0001
0010
0100
,
1000
0010
0100
0001
,
2000
0000
3002
0000
,
0023
0000
0130
0000
,
0000
1000
0100
0010
,
0001
0100
0010
1000
,
0002
0000
2003
0000
,
3200
0000
0310
0000
,
0000
0001
0100
0010
,
1000
0100
0010
0001
,
2000
0000
3002
0000
,
0203
0000
0320
0000
,
1030
0100
1000
0000
,
0001
0100
0001
0000
,
0110
0000
0110
0000
,
1001
0000
1001
0000
,
0001
0010
0001
0000
,
1000
0010
1000
0000
,
0110
0000
0110
0000
,
1001
0000
1001
0000
,
1000
0010
1000
0000
,
0001
0100
0001
0000
,
1001
0000
1001
0000
,
0110
0000
0110
0000
,
0001
0010
0001
0000
,
1000
0100
1000
0000
,
1001
0000
1001
0000
,
0110
0000
0110
0000
,
1000
0100
0100
0000
,
0001
0010
0010
0000
,
0001
0100
0100
0000
,
1000
0010
0010
0000
,
0001
1000
0100
0000
,
0001
0100
1000
0000
,
0001
1000
0010
0000
,
0001
0010
1000
0000
,
0100
0000
1000
1010
,
0010
0000
0100
0101
,
0001
0000
0001
0011
,
0010
0000
0100
1001
;

//---------------dance-single - Blank----------------
#NOTES:
     dance-single:
     :
     Medium:
     5:
     0.406,0.372,0.612,0.114,0.000,204.000,59.000,11.000,0.000,0.000,0.000,0.406,0.372,0.612,0.114,0.000,204.000,59.000,11.000,0.000,0.000,0.000: // measure 0
0000
0000
0000
0000
,  // measure 1
0000
0000
0000
0000
,  // measure 2
0000
0000
0000
0000
,  // measure 3
0000
0000
0000
0000
,  // measure 4
1000
0110
1001
0011
,  // measure 5
1100
0110
1001
0011
,  // measure 6
2000
0000
0000
3010
0100
0001
2000
0000
,  // measure 7
3010
0100
0001
1010
,  // measure 8
0100
0011
1100
0110
,  // measure 9
1001
0101
0011
0110
,  // measure 10
2001
0000
0000
3010
0200
0000
0301
0000
,  // measure 11
1100
0011
0110
1001
,  // measure 12
0001
0000
0100
1000
0001
0000
0110
0000
,  // measure 13
2000
0000
0000
3010
0200
0000
0301
0000
,  // measure 14
1000
0100
0001
0010
1000
0000
0110
0000
,  // measure 15
0002
0013
0110
1001
,  // measure 16
0100
1010
0110
1001
,  // measure 17
0011
0110
1001
0110
,  // measure 18
2000
3100
0002
0013
,  // measure 19
0200
0301
0020
1030
,  // measure 20
0001
0100
1000
0000
1000
0100
0001
0000
,  // measure 21
0001
0100
1000
0000
1000
0100
0001
0000
,  // measure 22
0001
0000
0011
0000
0100
0000
1000
0010
,  // measure 23
0100
0101
0011
1100
,  // measure 24
1000
0100
0001
0000
0001
0100
1000
0000
,  // measure 25
1000
0100
0001
0000
0001
0100
1000
0000
,  // measure 26
1000
0000
1010
0000
0100
0000
0001
0010
,  // measure 27
0100
1100
1010
0101
,  // measure 28
0001
0010
1000
0000
1000
0010
0001
0000
,  // measure 29
0001
0010
1000
0000
1000
0010
0001
0000
,  // measure 30
0001
0000
0101
0000
0010
0000
1000
0100
,  // measure 31
0010
0011
0101
1010
,  // measure 32
1000
0010
0001
0000
0001
0010
1000
0000
,  // measure 33
1000
0010
0001
0000
0001
0010
1000
0000
,  // measure 34
1000
0000
1100
0000
0010
0000
0001
0100
,  // measure 35
0010
1010
1100
0011
,  // measure 36
1000
0010
0100
1001
,  // measure 37
0001
0100
0010
1001
,  // measure 38
1000
0100
0010
0011
,  // measure 39
0001
0100
0010
1010
,  // measure 40
1000
0100
0001
0011
,  // measure 41
0001
0100
1000
1010
,  // measure 42
1000
0010
0001
0101
,  // measure 43
0001
0010
1000
1100
,  // measure 44
0010
0000
0110
0000
1000
0100
0001
0000
,  // measure 45
0100
0000
0110
0000
0001
0010
1000
0000
,  // measure 46
0010
0000
0110
0000
1000
0100
0001
0000
,  // measure 47
0100
0000
0110
0000
0001
0010
1000
0000
;
