#TITLE:Naturally (Ralphi Rosario Remix);
#SUBTITLE:;
#ARTIST:Selena Gomez & The Scene;
#TITLETRANSLIT:;
#SUBTITLETRANSLIT:;
#ARTISTTRANSLIT:;
#GENRE:;
#CREDIT:hooky;
#BANNER:Naturally (Ralphi Rosario Remix).png;
#BACKGROUND:Naturally (Ralphi Rosario Remix)-bg.png;
#LYRICSPATH:;
#CDTITLE:cdtitle.png;
#MUSIC:Naturally (Ralphi Rosario Remix).ogg;
#OFFSET:-0.261;
#SAMPLESTART:59.320;
#SAMPLELENGTH:17.120;
#SELECTABLE:YES;
#DISPLAYBPM:130.000;
#BPMS:0.000=130.000
;
#STOPS:
;
#BGCHANGES:-4.000=cdtitle.png=1.000=0=0=0=StretchNoLoop====,
-1.000=[Remix] - Naturally (Ralphi Rosario Remix).avi=1.000=0=0=0=StretchNoLoop====,
99999=-nosongbg-=1.000=0=0=0 // don't automatically add -songbackground-
;
#KEYSOUNDS:;
#ATTACKS:;

//---------------dance-single - hooky----------------
#NOTES:
     dance-single:
     :
     Beginner:
     1:
     0.079,0.103,0.028,0.018,0.000,55.000,3.000,2.000,0.000,0.000,0.000,0.079,0.103,0.028,0.018,0.000,55.000,3.000,2.000,0.000,0.000,0.000: // measure 0
0000
0000
0000
0000
,  // measure 1
0000
0000
0000
0000
,  // measure 2
0000
0000
0000
0000
,  // measure 3
0000
0000
0000
0000
,  // measure 4
0000
0000
0000
0000
,  // measure 5
0000
0000
0000
0000
,  // measure 6
0000
0000
0000
0000
,  // measure 7
0000
0000
0000
0000
,  // measure 8
1000
0000
0000
0000
,  // measure 9
0000
0000
0000
0000
,  // measure 10
1000
0000
0000
0000
,  // measure 11
0000
0000
0000
0000
,  // measure 12
0001
0000
0000
0000
,  // measure 13
0010
0000
0000
0000
,  // measure 14
0100
0000
0000
0000
,  // measure 15
0000
0000
0000
0000
,  // measure 16
0001
0000
0000
0000
,  // measure 17
0000
0000
0000
0000
,  // measure 18
0001
0000
0000
0000
,  // measure 19
0000
0000
0000
0000
,  // measure 20
0001
0000
0000
0000
,  // measure 21
1000
0000
0000
0000
,  // measure 22
0010
0000
0000
0000
,  // measure 23
0100
0000
0000
0000
,  // measure 24
0001
0000
0000
0000
,  // measure 25
0000
0000
0000
0000
,  // measure 26
1000
0000
0000
0000
,  // measure 27
0000
0000
0000
0000
,  // measure 28
0010
0000
0000
0000
,  // measure 29
0100
0000
0000
0000
,  // measure 30
2002
0000
0000
0000
,  // measure 31
0000
0000
0000
3003
,  // measure 32
1000
0000
0000
0000
,  // measure 33
1000
1000
1000
0000
,  // measure 34
0001
0000
0000
0000
,  // measure 35
0001
0001
0001
0000
,  // measure 36
0100
0000
0000
0000
,  // measure 37
0100
0100
0100
0000
,  // measure 38
0010
0000
0000
0000
,  // measure 39
0010
0010
0010
0000
,  // measure 40
0100
0000
0000
0000
,  // measure 41
0001
0000
0000
0000
,  // measure 42
1000
0000
0000
0000
,  // measure 43
0010
0010
0010
0000
,  // measure 44
1000
0000
0000
0000
,  // measure 45
0001
0000
0000
0000
,  // measure 46
0100
0000
0000
0000
,  // measure 47
1000
0000
1000
0000
,  // measure 48
1001
0000
0000
0000
,  // measure 49
0001
0000
0000
0000
,  // measure 50
1000
0000
0000
0000
,  // measure 51
0010
0000
0100
0000
,  // measure 52
0001
0000
0000
0000
,  // measure 53
1000
0000
0000
0000
,  // measure 54
0010
0000
0000
0000
,  // measure 55
0100
0000
0001
1000
,  // measure 56
1001
0000
0000
0000
;

//---------------dance-single - hooky----------------
#NOTES:
     dance-single:
     :
     Easy:
     3:
     0.235,0.234,0.064,0.184,0.000,152.000,7.000,20.000,0.000,0.000,0.000,0.235,0.234,0.064,0.184,0.000,152.000,7.000,20.000,0.000,0.000,0.000:
0000
0000
0000
0000
,
0000
0000
0000
0000
,
0000
0000
0000
0000
,
0000
0000
0000
0000
,
1000
0100
1000
0000
,
0010
0001
0010
0000
,
0200
0000
0000
0300
,
0020
0000
0000
0030
,
0001
1000
0100
0000
,
0010
0001
0100
0000
,
0010
1000
0100
0100
,
1000
0010
0100
0000
,
0001
0001
2000
3000
,
0010
0010
0200
0300
,
1000
0100
2000
3000
,
0010
0001
0020
0030
,
0001
0100
0010
0010
,
1000
0100
0010
0000
,
0001
0100
0010
1000
,
0100
0100
1000
0000
,
0020
0000
0000
0030
,
0200
0000
0000
0300
,
0002
0000
0000
0003
,
2000
0000
0000
3000
,
0100
0010
1000
0000
,
0001
0100
0010
0000
,
1000
0100
0010
0000
,
0001
0100
0010
0000
,
1000
0100
0010
0000
,
0001
0100
0010
1000
,
2002
0000
0000
0000
,
0000
0000
0000
3003
,
0100
0010
1000
0100
,
1010
1000
0001
0100
,
0010
0001
0100
0010
,
1000
0100
1000
0010
,
0100
0100
0110
0000
,
0001
0001
1001
0000
,
1000
1000
1100
0000
,
0001
0001
0011
0000
,
0100
0010
1000
0100
,
1000
1000
0100
0000
,
0010
0001
0010
0000
,
0001
0100
0010
0010
,
1000
0100
1000
0010
,
0100
0001
0100
0000
,
0010
1000
0100
0000
,
1000
0000
1000
0000
,
0002
0000
1000
1003
,
2000
0000
0001
3001
,
0020
0000
0100
0130
,
1000
0100
0010
0001
,
0200
0000
0010
0310
,
0002
0000
0010
0013
,
2000
0000
0010
3010
,
0100
0001
0010
0001
,
2002
0000
3003
0000
;

//---------------dance-single - hooky----------------
#NOTES:
     dance-single:
     :
     Hard:
     7:
     0.396,0.416,0.028,0.055,0.000,292.000,3.000,6.000,0.000,0.000,0.000,0.396,0.416,0.028,0.055,0.000,292.000,3.000,6.000,0.000,0.000,0.000:
0000
0000
0000
0000
,
0000
0000
0000
0000
,
0000
0000
0000
0000
,
0000
0000
0000
0000
,
1000
0100
1000
1000
,
0010
0100
0010
0010
,
1000
0001
0010
0010
,
2002
0000
0000
3003
,
1000
0100
1000
0000
0010
0000
0010
0000
,
0100
0001
0100
0000
0001
0000
0001
0000
,
0010
0001
0100
0000
0010
0000
0010
0000
,
1000
0100
1000
0000
0010
0000
0010
0000
,
0100
0001
0010
0001
0100
0000
0100
0000
,
0010
1000
0100
1000
0010
0000
0010
0000
,
0100
0001
0100
0000
0100
0010
0100
0000
,
0010
1000
0010
0000
0100
0001
0100
0000
,
0001
0000
0010
0000
0001
0100
0001
0000
,
1000
0010
0100
0001
0010
0000
0010
0000
,
0001
0100
0010
0000
0010
1000
0100
0000
,
0100
1000
0010
0100
0001
0010
0001
0000
,
0100
0100
0010
0000
0010
0010
1000
0000
,
1000
1000
0100
0000
0100
0100
0010
0000
,
0010
0010
0001
0000
0001
0000
1000
0000
,
0001
0100
0010
0000
0010
0000
1000
0000
,
1000
0100
1000
0100
1000
0100
1000
0100
,
0010
0001
0010
0001
0010
0001
0010
0001
,
0100
0001
0100
0001
0100
0001
0100
0001
,
0100
0001
0100
0001
0100
0001
0100
0001
,
0100
0010
1000
0010
1000
0010
1000
0010
,
0100
0001
0100
0001
0100
0001
0010
0000
,
2002
0000
0000
0000
,
0000
0000
0000
3003
,
1000
0100
1000
0000
0010
0000
0010
0000
,
1000
0100
1000
0010
0100
0000
0100
0000
,
0001
0010
0001
0000
0100
0000
0100
0000
,
0010
1000
0100
0000
0100
1000
0010
0000
,
0100
0000
0100
0000
0001
0010
0001
0000
,
0100
0000
0100
0000
0010
1000
0100
0000
,
1000
0010
0100
0000
0001
0010
0001
0000
,
0100
0000
0100
0000
0010
1000
0100
0000
,
1000
0010
0100
0001
0010
0000
0010
0000
,
0001
0100
0010
1000
0100
0000
0100
0000
,
1000
0010
0100
0001
0010
0000
0010
0000
,
0001
0100
0010
0000
1000
0100
1000
0000
,
0010
0100
0001
0010
0001
0000
0001
0000
,
0100
0010
1000
0100
1000
0000
1000
0000
,
0010
0100
0001
0000
0001
0010
0001
0000
,
0100
0000
0010
0000
1000
0100
1000
0010
,
0100
0000
0100
0000
0001
0010
0001
0100
,
0010
0000
0010
0000
1000
0100
1000
0010
,
0100
0000
0100
0000
0001
0010
0001
0100
,
0010
1000
0100
1000
0010
0100
0001
0010
,
0001
0000
0001
0000
0100
0010
1000
0100
,
0010
0000
0010
0000
0001
0100
0010
1000
,
0100
0000
0100
0000
0010
0001
0100
0010
,
1000
0000
1000
0000
0001
1000
0001
0000
,
2002
0000
3003
0000
;

//---------------dance-single - hooky----------------
#NOTES:
     dance-single:
     :
     Medium:
     5:
     0.304,0.286,0.018,0.202,0.000,207.000,2.000,22.000,0.000,0.000,0.000,0.304,0.286,0.018,0.202,0.000,207.000,2.000,22.000,0.000,0.000,0.000:
0000
0000
0000
0000
,
0000
0000
0000
0000
,
0000
0000
0000
0000
,
0000
0000
0000
0000
,
1000
0001
1000
0001
,
1000
0010
1000
0010
,
0100
0010
0100
0010
,
0200
0000
0002
0303
,
0100
0010
1000
0100
,
1000
0000
0010
0000
0100
0001
0100
0000
,
0001
0010
0001
0100
,
0010
1000
0100
1000
,
0020
0000
0100
0130
,
0002
0000
1000
1003
,
2000
0000
0100
3100
,
0020
0000
0001
0031
,
0100
0010
1000
0000
0100
0000
0100
0000
,
1000
0010
0100
0100
,
0001
0010
0001
0000
0100
0000
0100
0000
,
0010
1000
0100
0100
,
2000
0000
0001
3001
,
0200
0000
0000
0000
0010
0000
0010
0300
,
2000
0000
0010
3010
,
2000
0000
0100
3100
,
0010
0001
0100
0000
0010
0000
0100
0000
,
0010
0100
0010
0000
0100
0000
0100
0000
,
0001
0010
0001
0000
0001
0000
0001
0000
,
0100
0001
0100
0000
0100
0000
0100
0000
,
0010
1000
0100
0000
0100
0000
0100
0000
,
1000
0010
0100
0000
0100
0000
0001
0000
,
2002
0000
0000
0000
,
0000
0000
0000
3003
,
1000
0100
1000
0000
0010
0000
0010
0000
,
0100
0001
0010
0001
,
0100
0010
1000
0100
,
1000
0100
1000
0000
0010
0100
0010
0000
,
1000
0001
0100
0010
,
1000
1000
0100
0100
,
0010
0001
0100
0000
0010
0000
0010
0000
,
2000
3100
0020
0031
,
0100
0010
1000
0000
0100
0000
0100
0000
,
1000
0010
0100
0000
0100
0000
0001
0000
,
0010
0001
0010
0000
0001
0000
0001
0000
,
0200
0000
0010
0000
0020
0000
0000
0330
,
1000
0000
0100
0000
1000
0010
0100
0000
,
0001
0001
0010
0010
,
0002
0000
2000
3003
,
0200
0000
0020
0330
,
1000
0100
1000
0100
,
0010
0001
0010
0001
,
0100
0001
0100
0001
,
1000
0010
0100
0000
0100
0001
0010
0000
,
0001
0001
1000
0010
,
0100
0100
0001
0010
,
0001
0001
0100
0100
,
0010
1000
0100
0000
0010
0000
0010
0000
,
2002
0000
3003
0000
;

//---------------dance-single - hooky----------------
#NOTES:
     dance-single:
     :
     Challenge:
     8:
     0.505,0.522,0.028,0.092,0.497,371.000,3.000,10.000,0.000,0.000,0.000,0.505,0.522,0.028,0.092,0.497,371.000,3.000,10.000,0.000,0.000,0.000:
0000
0000
0000
0000
,
0000
0000
0000
0000
,
0000
0000
0000
0000
,
0000
0000
0000
0000
,
1000
0100
0000
0100
1000
0000
0000
1000
0000
0000
0010
0000
0000
0000
0100
0000
,
0001
0010
0000
0010
0001
0000
0000
0001
0000
0000
0100
0000
0000
0000
0010
0000
,
1000
0010
0000
0010
1000
0000
0000
1000
0000
0000
1000
0000
0000
0000
0100
0000
,
0020
0200
0000
0000
0000
0000
0000
0000
0000
0000
0000
0000
0330
0000
0000
0000
,
1000
0100
0000
1000
0100
0000
0000
1000
0000
0000
0100
0000
1000
0000
0000
0000
,
0010
1000
0000
0010
1000
0000
0000
1000
0000
0000
0100
0000
0010
0000
0000
0000
,
0001
0010
0000
0001
0010
0000
0000
0001
0000
0000
0010
0000
0100
0000
0000
0000
,
0010
0001
0000
0010
0001
0000
0000
0010
0000
0000
0100
0000
1000
0000
0000
0000
,
0010
1000
0000
0010
1000
0000
0000
0100
0000
0000
0010
0000
0001
0000
0000
0000
,
0100
0010
0000
0100
0010
0000
0000
0100
0000
0000
0001
0000
0010
0000
0000
0000
,
0100
0010
0000
0100
0010
0000
0000
0100
0000
0000
1000
0000
0010
0000
0000
0000
,
0100
0001
0000
0100
0001
0000
0000
0010
0000
0000
0100
0000
1000
0000
0000
0000
,
0001
0010
0000
0001
0010
0000
0000
0001
0000
0000
0010
0000
0001
0000
0000
0000
,
0100
0001
0000
0100
0001
0000
0000
0001
0000
0000
0010
0000
0100
0000
0000
0000
,
1000
0100
0000
1000
0100
0000
0000
1000
0000
0000
0100
0000
0010
0000
0000
0000
,
0100
1000
0000
0100
1000
0000
0000
0100
0000
0000
0010
0000
0001
0000
0000
0000
,
0100
0001
0000
0100
0001
0000
0000
0010
0000
0000
0100
0000
1000
0000
0000
0000
,
0010
0100
0000
0010
0100
0000
0000
0010
0000
0000
1000
0000
0100
0000
0000
0000
,
0010
0100
0000
0010
0100
0000
0000
0010
0000
0000
0001
0000
0100
0000
0000
0000
,
0010
1000
0000
0010
1000
0000
0000
0100
0000
0000
0010
0000
0001
0000
0000
0000
,
1000
0100
1000
0100
1000
0100
1000
0100
,
1000
0001
1000
0001
1000
0001
1000
0001
,
1000
0010
1000
0010
1000
0010
1000
0010
,
1000
0010
1000
0010
1000
0010
1000
0010
,
0100
0001
0100
0001
0100
0001
0100
0001
,
0100
0010
0100
0010
0100
0010
0100
0010
,
0220
0000
0000
0000
,
0000
0000
0000
0330
,
1000
0100
0000
1000
0100
0000
0000
1000
0000
0000
0100
0000
1000
0000
0100
0010
,
0100
0000
0010
0000
0001
0000
0100
0000
0010
0000
1000
0000
0001
0000
0010
0100
,
0010
0001
0100
0010
1000
0100
0010
0100
,
0020
0130
0200
0310
,
0001
0010
0000
0001
0010
0000
0000
0001
0000
0000
0010
0000
0001
0000
0010
0100
,
0010
0000
0100
0000
1000
0000
0010
0000
0100
0000
0001
0000
1000
0000
0100
0010
,
0100
1000
0010
0100
0001
0010
0100
0010
,
0200
0310
0020
0130
,
1000
0100
0000
1000
0100
0000
0000
1000
0000
0000
0100
0000
0000
0000
0100
0000
,
0010
0001
0000
0010
0001
0000
0000
0100
0000
0000
0010
0000
0000
0000
1000
0000
,
0100
0010
0000
0100
0010
0000
0000
0001
0000
0000
0100
0000
0000
0000
0100
0000
,
0010
1000
0000
0010
1000
0000
0000
0100
0000
0000
0010
0000
0000
0000
0010
0000
,
0001
0010
0000
0001
0010
0000
0000
0001
0000
0000
0010
0000
0000
0000
0010
0000
,
0100
1000
0000
0100
1000
0000
0000
0010
0000
0000
0100
0000
0000
0000
0001
0000
,
0010
0100
0000
0010
0100
0000
0000
1000
0000
0000
0010
0000
0000
0000
0010
0000
,
0100
0001
0000
0100
0001
0000
0010
0000
0100
0000
0010
0000
0100
0000
0000
0000
,
1001
0000
1000
0000
0100
0000
0010
0000
0100
0000
1000
0000
0100
0000
1000
0100
,
1000
0000
0100
0000
0010
0000
0001
0100
0001
0000
0010
0000
0100
0000
1000
0100
,
1000
0000
0100
0000
0010
0000
0001
0100
0001
0000
0010
0000
0100
0000
1000
0000
,
1000
0100
0000
0100
1000
0000
0000
0100
0000
0000
0010
0000
0000
0000
0010
0000
,
0001
0010
0000
0010
0001
0000
0000
0001
0000
0000
0001
0000
0000
0000
0001
0010
,
0001
0000
0010
0000
0100
0000
1000
0010
1000
0000
0100
0000
0010
0000
0001
0010
,
0001
0000
0010
0000
0100
0000
1000
0010
1000
0000
0100
0000
0010
0000
0001
0000
,
0001
0010
0000
0010
0001
0000
0000
0010
0000
0000
0100
0000
0000
0000
0100
0000
,
2002
0000
0000
3003
;
