#TITLE:Mind Mapping;
#SUBTITLE:(kors k mix);
#ARTIST:Ryu☆;
#TITLETRANSLIT:;
#SUBTITLETRANSLIT:;
#ARTISTTRANSLIT:;
#CREDIT:;
#BANNER:bn.png;
#BACKGROUND:bg.png;
#LYRICSPATH:;
#CDTITLE:;
#MUSIC:15.Ryu - Mind Mapping (kors k mix).mp3;
#OFFSET:-10.868;
#SAMPLESTART:55.440;
#SAMPLELENGTH:12.000;
#SELECTABLE:YES;
#BPMS:0.000=183.000;
#STOPS:32.000=2.295
;
#BGCHANGES:;

//---------------dance-single - ----------------
#NOTES:
     dance-single:
     :
     Hard:
     9:
     0.551,0.554,0.067,0.470,0.000:
0010
0100
0001
0100
0000
1000
0000
0100
,
0000
0010
0100
0010
1000
0010
0100
0010
,
1000
0001
0010
0100
0000
0100
0000
0010
,
0000
0010
0000
0100
1000
0001
1000
0001
,
0100
0001
0100
0010
0000
1000
0000
0001
,
0000
0010
0100
0010
0001
1000
0001
0100
,
0010
1000
0010
0100
0000
0100
0010
1000
,
0001
0010
0100
1000
0001
0010
0100
1000
,
1001
1000
0001
0100
,
0001
1000
0001
1000
,
1000
0001
1000
0100
,
1000
0001
0001
0100
,
0100
0001
0100
0010
,
0100
0001
1000
0100
,
0100
1000
0001
0100
,
0001
0010
0010
0010
,
0010
0000
0100
1000
0010
0100
0001
0000
,
0001
0010
0100
0010
0001
1000
0010
0000
,
0100
0000
0010
1000
0001
0010
0100
0000
,
0100
1000
0000
0010
0000
0010
0100
0000
,
0001
0100
1000
0010
1000
0001
0100
0000
,
0001
0100
1000
0100
0010
1000
0001
0000
,
0100
0000
0001
0010
0100
1000
0010
0000
,
1000
0100
0000
0100
0000
0010
0000
0001
,
1000
0001
0100
0001
0000
0001
0000
1000
,
0000
1000
0000
0010
0000
0010
0000
0100
,
0000
0100
0000
0010
0000
0010
0000
1000
,
0000
1000
0000
0001
0000
0001
0000
1000
,
0000
1000
0001
0100
0001
0000
0100
0010
,
0100
0000
0010
1000
0010
0000
0100
0010
,
0100
0000
0010
1000
0010
0001
0010
0100
,
0010
1000
0001
0010
0100
1000
0001
0010
,
2200
3300
0100
0001
0100
0010
0001
0000
,
0001
0100
1000
0100
0010
1000
0010
0000
,
1010
0000
1000
0001
0010
0100
0010
0000
,
0001
0100
0000
0010
0000
1000
0001
0000
,
2000
0000
3100
0010
0100
1000
0010
0000
,
1000
0001
0010
1000
0010
0001
0100
0000
,
0101
0000
0001
0100
0010
0100
0001
0000
,
1000
0100
0000
1000
0000
0010
0100
0010
,
1000
0001
0010
1000
0010
0001
0010
0000
,
0100
1000
0100
1000
0001
1000
0100
0000
,
1100
0000
1000
0010
0001
0010
0100
0000
,
0010
1000
0000
0100
0000
0010
0001
0000
,
2000
0000
3001
0100
0010
0100
0001
0000
,
0010
0100
1000
0100
0010
0100
1000
0000
,
0011
0000
0010
0100
1000
0001
1000
0000
,
1000
0000
0100
0000
0010
0000
0001
0100
,
0220
0330
0010
1000
0001
2000
0000
3002
,
0000
2003
0000
3002
0000
2003
0000
3002
,
0000
2003
0000
3001
0100
0020
0000
2030
,
0000
3020
0000
0000
0000
0200
0000
0000
,
0330
0000
0010
1000
0010
2000
0000
3200
,
0000
2300
0000
3200
0000
2300
0000
3200
,
0000
0310
0001
1000
0001
1000
0000
2000
,
0000
3200
0000
0320
0000
0002
0000
0000
,
0033
0000
0010
0100
1000
0200
0000
2300
,
0000
3020
0000
0032
0000
0023
0000
0230
,
0000
0302
0000
1003
0001
0020
0000
0230
,
0000
2300
0000
0000
0000
0002
0000
0000
,
3003
0000
1000
0001
1000
0200
0000
0320
,
0000
0230
0000
0320
0000
0032
0000
2003
,
0000
3001
1000
0100
0010
0002
0000
0023
,
0000
0032
0000
2003
0000
0002
0000
0000
,
0000
3003
0000
0000
;

//---------------dance-single - ----------------
#NOTES:
     dance-single:
     :
     Medium:
     7:
     0.431,0.431,0.163,0.067,0.000:
0001
0000
1000
0001
0000
1000
0000
0010
,
0000
0100
0000
0010
1000
0000
0010
0000
,
0100
0000
0001
0010
0000
0100
0000
0010
,
0000
0001
0000
1000
0001
0000
0100
0000
,
0010
0000
1000
0010
0000
0100
0000
0010
,
0000
1000
0000
0001
0010
0000
0100
0000
,
1000
0000
0100
0010
0001
0000
1000
0000
,
0001
0100
0001
0100
0001
0100
0001
0100
,
0001
0100
0001
1000
,
0001
0100
1000
0100
,
0100
0010
1000
0001
,
0010
0100
0000
0010
,
0000
0100
1000
0010
,
0100
0001
1000
0010
,
0010
1000
0001
0010
,
0100
1000
0000
0100
,
0000
1000
0100
0010
,
0001
0010
0100
1100
,
0110
0100
1000
0010
,
0100
0000
0000
0101
0000
0001
0100
0000
,
0001
1000
0001
0000
0100
0000
0110
0000
,
0010
1000
0100
0110
,
0011
0001
0100
0110
,
0010
1000
0000
0001
0000
1000
0000
0100
,
0000
1000
0000
0100
0000
0100
0000
0100
,
0000
0100
0000
0100
0000
0100
0000
0100
,
0000
0100
0000
0010
0000
0010
0000
0010
,
0000
0010
0000
0010
0000
0010
0000
0010
,
0000
0010
0001
0000
1000
0000
0001
0000
,
1000
0001
0100
0001
,
0100
0001
0010
0100
,
1000
0000
1000
0100
0010
0001
1000
0100
,
0010
0000
0100
1000
0010
0100
0001
0000
,
1000
0001
0100
1010
,
1010
0000
0001
0010
0100
1000
0100
0000
,
1000
0100
0000
0010
0000
0010
0001
0000
,
0100
0000
0010
0100
0010
1000
0010
0000
,
1000
0001
0010
0011
,
0011
0000
0001
0010
0100
0010
0001
0000
,
1000
0001
0000
0100
0000
0001
0100
0000
,
0010
0000
0100
0010
0100
0010
0100
0000
,
0010
1000
0001
0000
0010
0000
1100
0000
,
1100
0000
1000
0100
0010
0100
1000
0000
,
0100
1000
0000
0010
0000
0100
0010
0000
,
1000
0000
0001
1000
0001
0000
1001
0000
,
0001
0100
0010
0000
1000
0000
1010
0000
,
1100
0000
0100
1000
0010
0100
0001
0000
,
0001
0100
0010
0000
1000
0000
0001
0000
,
1001
0000
0001
0100
0010
1000
0000
0010
,
0000
0001
0000
0010
0000
0100
0000
1000
,
0000
0100
0000
0010
1000
0001
0000
1000
,
0000
0002
0000
0000
0000
0200
0000
0000
,
0303
0000
0001
0100
0001
0100
0000
0100
,
0000
1000
0000
0100
0000
0010
0000
1000
,
0000
1000
0001
0010
0100
1000
0000
0100
,
0000
1000
0000
0100
0000
0020
0000
0000
,
0000
0000
0130
0010
0100
0010
0000
0001
,
0000
0010
0000
0100
0000
1000
0000
0100
,
0000
1000
0000
0010
0100
0001
0000
1000
,
0000
0002
0000
0000
0000
0200
0000
0000
,
0303
0000
0001
0100
0010
1000
0000
0100
,
0000
0001
0000
0100
0000
0010
0000
0001
,
0000
0100
0001
0010
0100
1000
0000
0100
,
0000
1000
0000
0020
0000
0200
0000
0000
,
0000
0330
0000
0000
;

//---------------dance-single - ----------------
#NOTES:
     dance-single:
     :
     Easy:
     5:
     0.368,0.400,0.211,0.038,0.000:
0001
1000
0001
1000
,
0010
1000
0100
0100
,
1000
0010
0100
0001
,
0010
0010
0001
0001
,
1000
0001
0100
0001
,
1000
0100
1000
0001
,
0100
0100
0001
0001
,
0002
0000
0000
0000
,
0003
1000
0001
0100
,
0000
0001
1000
0100
,
0100
1000
0001
0010
,
0100
1000
0000
1000
,
0000
1000
0010
0100
,
0000
0010
1000
0001
,
0001
1000
0100
1000
,
0100
1000
0000
0010
,
0000
0010
0100
0010
,
0100
0001
1000
0010
,
0010
0100
0001
0010
,
0001
0100
0100
0100
,
0002
1003
0001
0001
,
1000
0010
0010
0100
,
0001
0100
1000
0100
,
0010
1000
1000
0001
,
0001
1000
0001
1000
,
0001
1000
0001
1000
,
0001
1000
0001
1000
,
0001
1000
0001
1000
,
0001
1001
0010
1001
,
0010
1001
0100
1001
,
0100
0101
1100
0011
,
1010
2000
0000
0000
,
3100
1000
0100
0110
,
0010
0001
0100
0101
,
0011
0001
0010
0100
,
1000
0100
0100
1000
,
1000
0001
1000
1010
,
0010
0001
0010
0110
,
1001
0001
0100
1000
,
0100
0010
0010
0100
,
0100
0010
1000
1001
,
0001
0010
0100
1100
,
0101
0001
0100
0110
,
0010
1000
1000
0001
,
0001
1000
0100
0110
,
0100
1000
0010
0110
,
0101
0001
0010
0100
,
1000
0001
1000
0010
,
0110
0010
1000
0010
,
0001
0010
1000
0010
,
0001
0010
1000
0010
,
0001
0010
0010
0010
,
0000
0100
0001
0100
,
1000
0100
0001
0100
,
1000
0100
0001
0100
,
1000
0100
0010
1000
,
0001
1000
0100
0010
,
0001
0010
0001
0010
,
0001
0010
0100
1000
,
0100
1000
0010
0100
,
0001
1000
1000
0001
,
0001
0100
0100
0010
,
0010
1000
0100
0010
,
0001
0010
0100
2000
,
0000
3000
0000
0000
;

//---------------dance-single - ----------------
#NOTES:
     dance-single:
     :
     Beginner:
     1:
     0.136,0.246,0.048,0.000,0.000: // measure 1
1000
0000
0000
0000
,  // measure 2
0001
0000
0000
0000
,  // measure 3
0100
0000
0000
0000
,  // measure 4
0001
0000
0001
0000
,  // measure 5
1000
0000
0000
0000
,  // measure 6
0100
0000
0000
0000
,  // measure 7
1000
0000
0000
0000
,  // measure 8
0010
0000
0100
0000
,  // measure 9
1001
0001
0000
0000
,  // measure 10
0000
0000
0000
0000
,  // measure 11
0000
1000
0000
0000
,  // measure 12
0000
0000
0000
0000
,  // measure 13
0000
0010
0000
0000
,  // measure 14
0000
0000
0000
0000
,  // measure 15
0000
0100
0000
0000
,  // measure 16
0000
0000
0000
0000
,  // measure 17
0000
0010
0000
0000
,  // measure 18
0000
1000
0000
1000
,  // measure 19
0000
0001
0000
0000
,  // measure 20
0000
0100
0000
0100
,  // measure 21
0000
0010
0000
0000
,  // measure 22
0000
1000
0000
0000
,  // measure 23
0000
0001
0000
0000
,  // measure 24
0000
1000
0000
0000
,  // measure 25
0000
1001
0000
0000
,  // measure 26
0000
0000
0000
0000
,  // measure 27
0000
0000
0000
0000
,  // measure 28
0000
0010
0000
0000
,  // measure 29
0000
0100
0000
0000
,  // measure 30
0000
0010
0000
0000
,  // measure 31
0000
1000
0000
0001
,  // measure 32
0000
0100
0000
0000
,  // measure 33
1001
1001
0000
0001
,  // measure 34
0000
1000
1000
1000
,  // measure 35
0000
0001
0000
0000
,  // measure 36
0000
0100
0000
0010
,  // measure 37
0000
0100
0100
0100
,  // measure 38
0000
0010
0010
0010
,  // measure 39
0000
1000
0000
0000
,  // measure 40
0000
0001
0000
0000
,  // measure 41
0000
0100
0100
0100
,  // measure 42
0000
0001
0001
0001
,  // measure 43
0000
1000
1000
1000
,  // measure 44
0000
0100
0000
1000
,  // measure 45
0000
0010
0010
0010
,  // measure 46
0000
0100
0100
0100
,  // measure 47
0000
0001
0001
0001
,  // measure 48
0000
1000
0000
1000
,  // measure 49
0000
0100
0000
0000
,  // measure 50
0000
1000
0000
0000
,  // measure 51
0000
0010
0000
0000
,  // measure 52
0000
0100
0000
0100
,  // measure 53
0000
0010
0000
0000
,  // measure 54
0000
0100
0000
0000
,  // measure 55
0000
0001
0000
0000
,  // measure 56
0000
1000
0000
1000
,  // measure 57
0000
0001
0000
0000
,  // measure 58
0000
0100
0000
0000
,  // measure 59
0000
0001
0000
0000
,  // measure 60
0000
1000
0000
1000
,  // measure 61
0000
0100
0000
0000
,  // measure 62
0000
1000
0000
0000
,  // measure 63
0000
0010
0000
0100
,  // measure 64
0000
0001
0001
1000
,  // measure 65
0000
1001
0000
0000
;
