#TITLE:MIRROR;
#SUBTITLE:;
#ARTIST:Sally;
#TITLETRANSLIT:;
#SUBTITLETRANSLIT:;
#ARTISTTRANSLIT:;
#GENRE:Touhou Remix;
#CREDIT:Frozen_Heat/Azn_Punk_07/GuardianFrozen;
#MENUCOLOR:#5f1186;
#METERTYPE:DDR;
#BANNER:[Remix] - MIRROR.png;
#BACKGROUND:[Remix] - MIRROR-bg.png;
#LYRICSPATH:;
#CDTITLE:!cdtitle.png;
#MUSIC:MIRROR.mp3;
#OFFSET:0.724;
#SAMPLESTART:13.686;
#SAMPLELENGTH:25.246;
#SELECTABLE:YES;
#LISTSORT:;
#BPMS:0.000=152.000;
#STOPS:37.750=-3.158
,54.250=-3.158
,67.750=-3.158
,77.750=-3.157
,91.750=-3.158
,101.750=-3.158
,114.250=-3.158
,124.250=-3.157
,132.750=-3.158
,141.250=-3.158
,149.750=-3.158
,158.250=-3.157
,166.750=-3.158
,175.250=-3.158
,184.250=-3.157
,196.250=-3.158
,204.750=-3.158
,213.250=-3.157
,221.750=-3.158
,230.250=-3.158
,238.750=-3.157
,247.250=-3.158
,256.250=-3.158
,268.250=-3.157
,276.750=-3.158
,285.250=-3.158
,293.750=-3.157
,302.250=-3.158
,310.750=-3.158
,319.250=-3.157
,328.250=-3.158
,340.250=-3.158
,348.750=-3.157
,357.250=-3.158
,365.750=-3.158
,374.250=-3.157
,382.750=-3.158
,391.250=-3.158
,400.250=-3.157
,416.250=-3.158
,425.250=-3.158
,434.250=-3.157
,443.250=-3.158
,456.250=-3.158
,465.250=-3.157
,474.250=-3.158
,483.250=-3.158
,496.250=-3.157
,505.250=-3.158
,514.250=-3.158
,523.250=-3.157
,536.250=-3.158
,545.250=-3.158
,554.250=-3.157
,563.250=-3.158
,580.250=-3.158
,592.250=-3.157
,612.250=-3.158
,620.750=-3.158
,629.250=-3.157
,637.750=-3.158
,646.250=-3.158
,655.250=-3.157
,663.250=-3.158
,679.750=-3.158
,695.750=-3.157
,711.750=-3.158
,735.750=-3.158
,744.750=-3.157
,753.750=-3.158
,762.750=-3.158
,771.750=-3.157
,783.750=-3.158
,792.750=-3.158
,801.750=-3.157
,810.750=-3.158
,819.750=-3.157
,831.750=-3.157
,840.750=-3.158
,849.750=-3.158
,858.750=-3.157
,867.750=-3.158
,887.750=-3.158
,896.750=-3.157
,905.750=-3.157
,914.750=-3.157
,923.750=-3.158
,936.250=-3.158
,951.750=-3.157
,960.750=-3.157
,969.750=-3.158
,978.750=-3.157
,987.750=-3.157
,999.750=-3.157
;
#BGCHANGES:;
#ATTACKS:;

//---------------dance-single - ----------------
#NOTES:
     dance-single:
     :
     Hard:
     10:
     1.000,1.000,1.000,0.258,0.608:
0000
0000
0000
0000
,
1000
0100
0000
1100
0000
1001
0000
0001
,
0100
0101
0010
1010
,
0001
0010
0000
0011
0000
1001
0000
0100
,
0010
0100
0000
0110
0000
1001
0000
1000
,
0001
0010
0000
0011
0000
1001
0000
1000
,
0010
1010
0100
0101
,
1000
0100
0000
1100
0000
1001
0000
0001
,
0100
0110
1000
1001
,
0001
0000
1000
0000
0001
0100
0001
0000
00L0
0000
0L00
0000
000L
00L0
0L00
0000
,
0001
0100
0001
0000
1000
0000
0001
0000
0010
0000
0010
0000
0100
0000
0100
0000
,
1000
0000
0000
0000
0000
0000
0000
0000
0100
0000
0010
0000
1000
0100
0010
0000
,
0001
0100
0001
0000
1000
0000
0001
0000
0010
0000
0010
0000
0100
0000
0100
0000
,
1000
0000
0001
0000
1000
0000
0010
0000
0000
0000
0L00
0000
00L0
L000
00L0
0000
,
0L00
1000
L000
0010
0100
0000
0110
0000
,
L000
0000
0000
0000
0000
0000
0000
0000
0000
0000
0010
0000
0100
0001
0100
0000
,
0010
1000
0001
0010
0100
0000
0110
0000
,
000L
0000
L000
0000
1000
0010
1000
0000
000L
0000
0L00
0000
000L
00L0
0L00
0000
,
1000
0100
1000
0000
0001
0000
1000
0000
0000
0000
0000
0000
0000
0000
0000
0000
,
1000
0000
0001
0000
1000
0010
1000
0000
L000
0000
00L0
0000
L000
0L00
00L0
0000
,
1000
0100
1000
0000
0001
0000
1000
0000
0010
0000
0010
0000
0100
0000
0100
0000
,
0000
0000
0000
0000
0000
0000
0000
0000
0001
0000
0100
0000
0001
0010
0100
0000
,
1000
0100
1000
0000
0001
0000
1000
0000
0010
0000
0010
0000
0100
0000
0100
0000
,
L000
0000
000L
0000
0000
0000
00LL
0000
0000
0000
0100
0000
L000
0L00
00L0
0000
,
000L
0100
0100
0010
0000
0000
0000
0000
,
0001
0000
1000
0000
0000
0000
1100
0000
0000
0000
0100
0000
000L
00L0
0L00
0000
,
L000
0100
0100
0010
0000
L000
L000
0L00
,
0000
0000
0000
0000
0000
0000
0000
0000
0000
0000
0100
0000
1000
0100
0010
0000
,
0001
0100
0100
0010
0000
000L
000L
00L0
,
0000
00L0
0001
00L0
0001
L000
0010
0L00
,
0000
1000
0000
0000
0000
1000
1000
0100
,
0000
0L00
0001
0L00
0001
000L
0010
00L0
,
0000
000L
00L0
0L00
L000
0100
0000
0000
,
0000
0010
0001
00L0
0001
L000
0010
0L00
,
0000
L000
0L00
00L0
000L
0100
0010
0000
,
0000
0000
0001
0L00
0001
000L
0010
00L0
,
0000
000L
00L0
0L00
L000
0100
0010
0001
,
0000
0000
0000
0010
0001
L000
0010
0L00
,
0000
L000
0L00
00L0
000L
0100
0010
0001
,
0000
0000
0000
0000
0001
000L
0010
00L0
,
0000
000L
00L0
0L00
L000
0100
0010
0001
,
0000
0001
0000
0000
0000
1000
0010
0L00
,
0000
L000
0L00
00L0
000L
0100
0010
0001
,
0000
0001
1000
0000
0000
0000
0010
00L0
,
0000
000L
00L0
0L00
L000
0100
0010
0001
,
0000
0001
1000
0001
0000
0000
0000
0100
,
0000
L000
0L00
00L0
000L
0100
0010
0001
,
0000
0001
1000
0001
1000
0010
0000
0000
,
0000
0001
0010
0100
1000
0100
0010
0001
,
0000
L000
1000
L000
1000
0L00
0100
0L00
,
0000
L000
0L00
00L0
000L
0010
0000
0000
,
0000
0001
1000
000L
1000
00L0
0100
00L0
,
0000
000L
00L0
0L00
L000
0010
0100
0000
,
0000
0000
1000
L000
1000
0L00
0100
0L00
,
0000
L000
0L00
00L0
000L
0010
0100
1000
,
0000
0000
0000
0001
1000
00L0
0100
00L0
,
0000
000L
00L0
0L00
L000
0010
0100
1000
,
0000
0000
0000
0000
1000
0L00
0100
0L00
,
0000
L000
0L00
00L0
000L
0010
0100
1000
,
0000
00L0
0000
0000
0000
0010
0100
00L0
,
0000
000L
00L0
0L00
L000
0010
0100
1000
,
0000
0L00
1000
0000
0000
0000
0100
0L00
,
0000
L000
0L00
00L0
000L
0010
0100
1000
,
0000
00L0
1000
00L0
0000
0000
0000
0010
,
0000
000L
00L0
0L00
L000
0010
0100
1000
,
0000
0L00
1000
0L00
1000
0000
0000
0000
,
0000
1000
0100
0010
0001
0010
0100
1000
,
0000
00L0
1000
00L0
1000
L000
0100
0L00
,
0000
L000
0L00
00L0
000L
0010
0000
0000
,
0000
0100
1000
0L00
1000
000L
0100
00L0
,
0000
000L
00L0
0L00
L000
0010
0100
0000
,
0000
0000
1000
00L0
1000
L000
0100
0L00
,
0000
L000
0L00
00L0
000L
0010
0100
1000
,
0000
0000
0000
0100
1000
000L
0100
00L0
,
0000
000L
00L0
0L00
L000
0010
0100
1000
,
0000
0000
0000
0000
1000
L000
0100
0L00
,
0000
L000
0L00
00L0
000L
0010
0100
1000
,
0000
L000
0000
0000
0000
0001
0100
00L0
,
0000
000L
00L0
0L00
L000
0010
0100
1000
,
0000
L000
0001
0000
0000
0000
0100
0L00
,
0000
L000
0L00
00L0
000L
0010
0100
1000
,
0000
L000
0001
L000
0000
0000
0000
0010
,
0000
000L
00L0
0L00
L000
0010
0100
1000
,
0000
L000
0001
L000
0001
0L00
0000
0000
,
0000
1000
0100
0010
0001
0010
0100
1000
,
0000
000L
0001
000L
0001
00L0
0010
00L0
,
0000
000L
00L0
0L00
L000
0100
0000
0000
,
0000
1000
0001
L000
0001
0L00
0010
0L00
,
0000
L000
0L00
00L0
000L
0100
0010
0000
,
0000
0000
0001
000L
0001
00L0
0010
00L0
,
0000
000L
00L0
0L00
L000
0100
0010
0001
,
0000
0000
0000
1000
0001
0L00
0010
0L00
,
0000
L000
0L00
00L0
000L
0100
0010
0001
,
0000
0000
0000
0000
0001
00L0
0010
00L0
,
0000
000L
00L0
0L00
L000
0100
0010
0001
,
0000
0000
0000
0000
0000
0100
0010
0L00
,
0000
L000
0L00
00L0
000L
0100
0010
0001
,
0000
1000
0000
0000
0000
0000
0010
00L0
,
0000
000L
00L0
0L00
L000
0100
0010
0001
,
0000
1000
0001
0000
0000
0000
0000
0100
,
0000
L000
0L00
00L0
000L
0100
0010
0001
,
0000
1000
0001
0100
0001
0000
0000
0000
,
0000
0001
0010
0100
1000
0100
0010
0001
,
0000
1000
0001
0100
0001
0010
0100
0000
,
0000
000L
0000
000L
0000
000L
0000
0L00
,
0100
0000
0001
1000
0100
0000
0000
0000
,
0000
1000
0000
1000
0000
L000
0000
0010
,
0100
0000
0001
1000
0100
0010
0100
0000
,
0000
0000
0000
1000
0000
000L
0000
0010
,
0100
0000
0001
1000
0100
0010
0100
0000
,
0000
0000
0000
0000
0000
1000
0000
0010
,
0100
0000
0001
1000
0100
0010
0100
0000
,
0000
LL00
0000
0000
0000
0000
0000
0010
,
0100
0000
0001
1000
0100
0010
0100
0000
,
0000
00LL
0000
L0L0
0000
L0L0
0000
000L
,
1000
0000
1000
0010
1000
0000
0000
0000
,
0000
1100
0000
0101
0000
0L0L
0000
L000
,
1000
0000
1000
0010
1000
0100
0010
0000
,
0000
0000
0000
0101
0000
1010
0000
000L
,
1000
0000
1000
0010
1000
0100
0010
0000
,
0000
0000
0000
0000
0000
1010
0000
L000
,
1000
0000
1000
0010
1000
0100
0010
0000
,
0000
000L
0000
0000
0000
0000
0000
0001
,
1000
0000
1000
0010
1000
0100
0010
0000
,
0000
L000
0000
L000
0000
L000
0000
00L0
,
0010
0000
1000
0001
0010
0000
0000
0000
,
0000
0001
0000
000L
0000
000L
0000
0L00
,
0010
0000
1000
0001
0010
0100
0010
0000
,
0000
0000
0000
1000
0000
L000
0000
00L0
,
0010
0000
1000
0001
0010
0100
0010
0000
,
0000
0000
0000
0000
0000
0001
0000
0100
,
0010
0000
1000
0001
0010
0100
0010
0000
,
0000
00LL
0000
0000
0000
0000
0000
0100
,
0010
0000
1000
0001
0010
0100
0010
0000
,
0000
LL00
0000
L0L0
0000
0L0L
0000
L000
,
0001
0000
1000
0100
1000
0000
0001
0000
0100
0000
0000
0000
0000
0000
0000
0000
,
0000
0011
0000
0L0L
0000
L0L0
0000
000L
,
0001
0000
1000
0100
1000
0000
0001
0000
0100
0000
0010
1000
0010
0000
0000
0000
,
0000
0000
0000
1010
0000
0101
0000
L000
,
0001
0000
1000
0100
1000
0000
0001
0000
0100
0000
0010
1000
0010
0000
0100
0000
,
0001
0000
0000
0000
0000
0101
0000
000L
,
0001
0000
1000
0100
1000
0000
0001
0000
0100
0000
0010
1000
0010
0000
0100
0000
,
0001
0000
0010
0001
0010
0000
0000
0000
0000
0000
0000
0000
0000
0000
1000
0000
,
0001
0000
1000
0100
1000
0000
0001
0000
0100
0000
0010
1000
0010
0000
0100
0000
,
0001
0000
0010
0001
0010
0000
0100
0000
1000
0000
0001
1000
0001
0000
0100
0000
,
0000
0L00
1000
00L0
0010
L000
1000
L000
,
0000
0010
0L00
1000
000L
1000
0000
0000
,
0000
0010
1000
0100
0010
0001
1000
0001
,
0000
0010
00L0
1000
L000
1000
0L00
0100
,
0002
0000
0000
0000
0000
0000
0000
0000
0013
0000
0000
0000
0100
0000
0000
0000
0020
0000
0000
0030
0000
0000
0000
0000
0000
0000
0000
0000
0000
0000
0000
0000
,
0000
0010
0100
1000
0001
1000
0010
0100
,
0002
0000
0013
0100
0020
0000
0130
1000
,
0200
0000
1300
0001
2000
0000
3010
0100
,
0020
000L
000L
000L
000L
000L
000L
000L
,
0000
0L00
0L00
0L00
1000
0000
0000
0000
,
0000
1000
1000
1000
L000
L000
1000
L000
,
0000
0L00
0L00
0L00
1000
000L
0000
0000
,
0000
0000
1000
1000
000L
000L
1000
000L
,
0000
0L00
0L00
0L00
1000
L000
000L
0000
,
0000
0000
0000
1000
1000
1000
1000
L000
,
0000
0L00
0L00
0L00
1000
000L
L000
1000
,
0000
0000
0000
0000
1000
1000
1000
000L
,
0000
0L00
0L00
0L00
1000
L000
000L
1000
,
L000
0000
0000
0000
0000
1000
1000
L000
,
0000
0L00
0L00
0L00
1000
000L
L000
1000
,
000L
0100
0000
0000
0000
0000
1000
000L
,
0000
0L00
0L00
0L00
1000
L000
0001
0100
,
0000
0000
0000
0000
0000
0000
0000
1000
,
0030
0010
0010
0010
1000
0001
1000
1000
,
0001
0100
0000
0101
0000
1001
0000
1000
,
00L0
10L0
0L00
L010
,
0001
1000
0000
1010
0000
0000
0000
0000
,
0100
1100
0010
0011
,
0001
1000
0000
1010
0000
0100
0000
0001
,
000L
00L0
L000
0100
0000
0L00
L000
0L00
,
0100
1000
0000
0010
0000
0000
0000
0000
,
1000
0100
0001
0100
0000
0010
0001
0010
,
0100
1000
0000
0010
0000
1010
0000
0100
,
L000
L100
0L0L
LL00
,
1000
00L0
0000
1100
0000
0000
0000
0000
,
0001
0101
1010
0011
,
1000
0100
0000
1100
0000
1000
0001
0100
,
0000
0010
1000
0001
1000
0100
0010
0000
,
0001
1000
0001
0100
0010
1000
0100
0010
,
L000
0010
L000
0010
L000
0100
L000
0100
,
0L00
1000
0100
1000
0000
0000
0000
0000
,
0001
0010
000L
0010
000L
0100
000L
0100
,
00L0
1000
0100
1000
0010
0100
0000
0000
,
0000
0000
1000
0010
L000
0100
L000
0100
,
0L00
1000
0100
1000
0010
0100
0001
0010
,
0L00
0000
0000
0000
0001
0100
000L
0100
,
00L0
1000
0100
1000
0010
0100
0001
0010
,
00L0
1000
0000
0000
0000
0000
1000
0100
,
0L00
1000
0100
1000
0010
0100
0001
0010
,
0L00
1000
0L00
1000
0000
0000
0000
0000
,
0010
1000
0100
1000
0010
0100
0001
0010
,
00L0
1000
00L0
1000
00L0
0010
L000
0100
,
0L00
0001
0010
1000
0000
0000
0000
0000
,
0100
1000
0L00
1000
0L00
0010
000L
0100
,
00L0
0001
0010
1000
0100
0010
0000
0000
,
0000
0000
0010
1000
00L0
0010
L000
0100
,
0L00
0001
0010
1000
0100
0010
0001
1000
,
0000
0000
0000
0000
0100
0010
0001
0100
,
00L0
0001
0010
1000
0100
0010
0001
1000
,
L000
0001
0000
0000
0000
0000
0001
0100
,
0L00
0001
0010
1000
0100
0010
0001
1000
,
000L
0001
000L
1000
0000
0000
0000
0000
,
0010
0001
0010
1000
0100
0010
0001
1000
,
L000
0001
L000
1000
0L00
0010
0L00
0100
,
L000
L000
L000
L000
L000
L000
L000
L000
L200
0000
0000
0000
0000
0000
0300
0000
0000
0000
0000
0000
0000
0000
0000
0000
0000
0000
0000
0000
0000
0000
0000
0000
,
0001
0001
000L
1000
00L0
0010
00L0
0100
,
000L
000L
000L
000L
000L
000L
000L
000L
010L
0000
0000
0000
0010
0000
0000
0000
0200
0000
0000
0000
0000
0000
0000
0300
0000
0000
0000
0000
0000
0000
0000
0000
,
0000
0000
1000
1000
0L00
0010
0L00
0100
,
L000
L000
L000
L000
L000
L000
L000
L000
L100
0000
0000
0000
0010
0000
0000
0000
0200
0000
0000
0000
0000
0000
0000
0000
0310
0000
0000
0000
1000
0000
0000
0000
,
0000
0000
0000
0000
0010
0010
00L0
0100
,
000L
000L
000L
000L
000L
000L
000L
000L
010L
0000
0000
0000
0010
0000
0000
0000
0200
0000
0000
0000
0000
0000
0000
0000
0310
0000
0000
0000
1000
0000
0000
0000
,
0020
0000
0000
0000
0000
0000
0000
0030
0000
0000
0000
0000
0000
0000
0000
0000
0000
0000
0000
0000
0000
0000
0000
0000
0100
0000
0000
0000
0100
0000
0000
0000
,
L000
L000
L000
L000
L000
L000
L000
L000
L100
0000
0000
0000
0010
0000
0000
0000
0200
0000
0000
0000
0000
0000
0000
0000
0310
0000
0000
0000
1000
0000
0000
0000
,
0020
0000
1030
0100
0000
0000
0000
0000
,
0002
0000
0103
0010
0200
0000
0310
1000
,
0020
0000
1030
0100
2000
0000
3001
0010
,
0001
1000
0100
0010
0000
1100
0000
0010
,
L000
L000
L000
L000
L100
0000
0000
0000
00L0
00L0
00L0
00L0
10L0
0000
0000
0000
00L0
00L0
00L0
00L0
0010
0000
0000
0000
000L
000L
000L
000L
100L
0000
0000
0000
,
0L00
0100
0010
1000
0000
0000
0000
0000
,
0002
0000
0000
0000
0103
0000
0000
0000
0L00
0L00
0L00
0L00
1L00
0000
0000
0000
0L00
0L00
0L00
0L00
0L10
0000
0000
0000
L000
L000
L000
L000
1000
0000
0000
0000
,
00L0
0100
0010
1000
0000
0101
0000
0000
,
0000
0000
0000
0000
0000
0000
0000
0000
0020
0000
0000
0000
1030
0000
0000
0000
00L0
00L0
00L0
00L0
0010
0000
0000
0000
000L
000L
000L
000L
100L
0000
0000
0000
,
0L00
0100
0010
1000
0000
0101
0000
0010
,
1000
0000
0000
0000
0000
0000
0000
0000
0000
0000
0000
0000
0000
0000
0000
0000
0200
0000
0000
0000
0310
0000
0000
0000
L000
L000
L000
L000
1000
0000
0000
0000
,
00L0
0100
0010
1000
0000
0101
0000
0010
,
1000
0000
0000
0000
0000
0000
0002
1003
,
0L00
0100
0010
1000
0000
0101
0000
0010
,
1000
0L00
0000
00LL
0000
0000
0000
0000
,
0010
0100
0010
1000
0000
0101
0000
0010
,
1000
00L0
0000
LL00
0000
0L0L
0000
00L0
,
1000
L000
0010
0100
0000
0011
0000
0000
,
0000
0100
0000
0011
0000
1010
0000
0100
,
1000
0001
0010
0100
0000
0011
0000
0100
,
000L
000L
000L
000L
001L
0000
0000
0000
0L00
0L00
0L00
0L00
0L01
0000
0000
0000
0L00
0L00
0L00
0L00
0100
0000
0000
0000
L000
L000
L000
L000
L001
0000
0000
0000
,
00L0
0010
0100
0001
0000
0000
0000
0000
,
2000
0000
0000
0000
3010
0000
0000
0000
00L0
00L0
00L0
00L0
00L1
0000
0000
0000
00L0
00L0
00L0
00L0
01L0
0000
0000
0000
000L
000L
000L
000L
0001
0000
0000
0000
,
0L00
0010
0100
0001
0000
1010
0000
0000
,
0000
0000
0000
0000
0000
0000
0000
0000
0200
0000
0000
0000
0301
0000
0000
0000
0L00
0L00
0L00
0L00
0100
0000
0000
0000
L000
L000
L000
L000
L001
0000
0000
0000
,
00L0
0010
0100
0001
0000
1010
0000
0100
,
0000
0000
0000
0000
0000
0000
0000
0000
0000
0000
0000
0000
0000
0000
0000
0000
0020
0000
0000
0000
0130
0000
0000
0000
000L
000L
000L
000L
0001
0000
0000
0000
,
0L00
0010
0100
0001
0000
1010
0000
0100
,
000L
00L0
0000
0000
0000
0000
2000
3001
,
00L0
0010
0100
0001
0000
1010
0000
0100
,
000L
0001
L000
0L00
0000
0000
0000
0000
,
0100
0010
0100
0001
0000
1010
0000
0100
,
L000
0001
000L
00L0
0L00
0010
0100
000L
,
L0L0
L0L0
L0L0
L0L0
L0L0
L0L0
L0L0
L0L0
L0L0
L0L0
L0L0
L0L0
L0L0
L0L0
L0L0
L0L0
0000
0000
0000
0000
0000
0000
0000
0000
0000
0000
0000
0000
0000
0000
0000
0000
,
0001
0001
1000
0100
0010
0010
0100
1000
,
0202
0000
0000
0000
,
0000
0000
0000
0000
,
0000
0000
0000
0000
,
0303
0000
0000
0000
;

//---------------dance-single - ----------------
#NOTES:
     dance-single:
     :
     Medium:
     9:
     1.000,1.000,0.276,1.000,0.055: // measure 1
0000
0000
0000
0000
,  // measure 2
0001
1000
0000
1100
0000
0011
0000
0001
,  // measure 3
1000
0110
0001
0110
,  // measure 4
1000
0010
0000
1010
0000
0101
0000
0100
,  // measure 5
0001
0100
0000
0010
1000
0010
0000
1000
,  // measure 6
0100
0010
0000
0011
0000
1100
0000
0100
,  // measure 7
0010
0001
1000
0000
1000
0001
0010
0000
,  // measure 8
0001
0100
0000
1010
0000
0101
0000
0010
,  // measure 9
1000
0010
0100
0000
0100
0010
0001
0010
,  // measure 10
1000
0100
0010
0001
1000
0000
L000
0L00
,  // measure 11
00L0
0L00
L000
1000
0000
0010
0000
0100
,  // measure 12
0000
0000
0000
0000
1000
0000
0001
0010
,  // measure 13
0100
0010
0001
1000
0000
0010
0000
0100
,  // measure 14
0000
0001
1000
0001
0010
0L00
00L0
00L0
,  // measure 15
0000
1000
0000
0001
0000
1000
0001
0000
,  // measure 16
L000
0L00
0000
0000
0000
0010
0100
0100
,  // measure 17
0000
1000
0000
0001
0000
1000
0001
0000
,  // measure 18
000L
00L0
0L00
00L0
000L
0000
0001
1000
,  // measure 19
0001
0100
0010
1000
0000
0000
0000
0000
,  // measure 20
1000
0100
0010
0100
1000
0000
0001
1000
,  // measure 21
0001
0100
0010
1000
0000
0001
0000
0100
,  // measure 22
0000
0000
0000
0000
1000
0000
0001
1000
,  // measure 23
0001
0100
0010
1000
0000
0001
0000
0100
,  // measure 24
0000
0L00
000L
0L00
00L0
L000
1000
0100
,  // measure 25
0000
0010
0000
0001
0000
0000
0000
0000
,  // measure 26
0000
0010
1000
0010
0100
0001
1000
0100
,  // measure 27
0000
0010
0000
0001
0000
1000
0000
0001
,  // measure 28
0000
0000
0000
0000
0100
0001
1000
0100
,  // measure 29
0000
0010
0000
0001
0000
1000
0000
0001
,  // measure 30
1000
0001
0010
0100
1000
0001
0010
0100
,  // measure 31
0000
0000
0000
0000
0000
1000
0000
0001
,  // measure 32
1000
0001
0010
0100
1000
0001
0010
0100
,  // measure 33
0000
000L
0L00
00L0
L000
0000
0000
0000
,  // measure 34
0000
0000
0000
0000
0000
0000
0000
0000
0002
0003
0000
0000
0000
0000
0000
0000
0020
0030
0000
0000
0000
0000
0000
0000
0200
0300
0000
0000
0000
0000
0000
0000
2000
3000
0000
0000
0000
0000
0000
0000
0002
0003
0000
0000
0000
0000
0000
0000
0020
0030
0000
0000
0000
0000
0000
0000
0200
0300
0000
0000
0000
0000
0000
0000
,  // measure 35
0000
000L
0L00
00L0
L000
000L
0000
0000
,  // measure 36
0000
0000
0000
0000
0000
0000
0000
0000
0020
0030
0000
0000
0200
0300
0000
0000
2000
3000
0000
0000
0002
0003
0000
0000
0020
0030
0000
0000
0200
0300
0000
0000
,  // measure 37
0000
000L
0L00
00L0
L000
000L
0L00
0000
,  // measure 38
0000
0000
0000
0000
0000
0000
0000
0000
0000
0000
0000
0000
0000
0000
0000
0000
0000
0000
0000
0000
0000
0000
0000
0000
0200
0000
0000
0300
0000
0000
0000
0000
2000
0000
0000
3000
0000
0000
0000
0000
0002
0000
0000
0003
0000
0000
0000
0000
0020
0000
0000
0030
0000
0000
0000
0000
0200
0000
0000
0300
0000
0000
0000
0000
,  // measure 39
0000
000L
0L00
00L0
L000
000L
0L00
00L0
,  // measure 40
0000
0000
0000
0000
0000
0000
0000
0000
2000
3000
0002
0003
0020
0030
0200
0300
,  // measure 41
0000
000L
0L00
00L0
L000
000L
0L00
00L0
,  // measure 42
0000
0000
0000
0000
0000
0000
0000
0000
0000
0000
0000
0000
0000
0000
0000
0000
0000
0000
0000
0000
0000
0000
0000
0000
0000
0000
0000
0000
0000
0000
0000
0000
0000
0000
0000
0000
0000
0000
0000
0000
0002
0000
0000
0000
0000
0003
0000
0000
0020
0000
0000
0000
0000
0030
0000
0000
0200
0000
0000
0000
0000
0300
0000
0000
,  // measure 43
0000
000L
0L00
00L0
L000
000L
0L00
00L0
,  // measure 44
0000
0000
0000
0000
0001
0000
0000
0000
0000
0000
0000
0000
0000
0000
0000
0000
0000
0000
0000
0000
0000
0000
0000
0000
0020
0000
0000
0030
0200
0000
0000
0300
,  // measure 45
0000
000L
0L00
00L0
L000
000L
0L00
00L0
,  // measure 46
0000
0000
0000
0000
0000
0000
0000
0000
0001
0000
0000
0000
0000
0000
0000
0000
1000
0000
0000
0000
0000
0000
0000
0000
0000
0000
0000
0000
0000
0000
0000
0000
0000
0000
0000
0000
0000
0000
0000
0000
0000
0000
0000
0000
0000
0000
0000
0000
0000
0000
0000
0000
0000
0000
0000
0000
0200
0000
0000
0000
0000
0000
0000
0300
,  // measure 47
0000
000L
0L00
00L0
L000
000L
0L00
00L0
,  // measure 48
0000
0001
1000
0100
1000
0000
0000
0000
,  // measure 49
0000
1000
0010
0100
0001
1000
0010
0100
,  // measure 50
0000
0001
1000
0100
1000
0001
0100
0010
,  // measure 51
0000
000L
L000
0L00
L000
0000
0000
0000
,  // measure 52
0000
0000
0000
0000
0000
0000
0000
0000
0002
0003
0000
0000
0000
0000
0000
0000
2000
3000
0000
0000
0000
0000
0000
0000
0200
0300
0000
0000
0000
0000
0000
0000
2000
3000
0000
0000
0000
0000
0000
0000
0002
0003
0000
0000
0000
0000
0000
0000
0200
0300
0000
0000
0000
0000
0000
0000
0020
0030
0000
0000
0000
0000
0000
0000
,  // measure 53
0000
000L
L000
0L00
L000
000L
0000
0000
,  // measure 54
0000
0000
0000
0000
0000
0000
0000
0000
2000
3000
0000
0000
0200
0300
0000
0000
2000
3000
0000
0000
0002
0003
0000
0000
0200
0300
0000
0000
0020
0030
0000
0000
,  // measure 55
0000
000L
L000
0L00
L000
000L
0L00
0000
,  // measure 56
0000
0000
0000
0000
0000
0000
0000
0000
0000
0000
0000
0000
0000
0000
0000
0000
0000
0000
0000
0000
0000
0000
0000
0000
0200
0000
0000
0300
0000
0000
0000
0000
2000
0000
0000
3000
0000
0000
0000
0000
0002
0000
0000
0003
0000
0000
0000
0000
0200
0000
0000
0300
0000
0000
0000
0000
0020
0000
0000
0030
0000
0000
0000
0000
,  // measure 57
0000
000L
L000
0L00
L000
000L
0L00
00L0
,  // measure 58
0000
0000
0000
0000
0000
0000
0000
0000
2000
3000
0002
0003
0200
0300
0020
0030
,  // measure 59
0000
000L
L000
0L00
L000
000L
0L00
00L0
,  // measure 60
0000
0000
0000
0000
0000
0000
0000
0000
0000
0000
0000
0000
0000
0000
0000
0000
0000
0000
0000
0000
0000
0000
0000
0000
0000
0000
0000
0000
0000
0000
0000
0000
0000
0000
0000
0000
0000
0000
0000
0000
0002
0000
0000
0000
0000
0003
0000
0000
0200
0000
0000
0000
0000
0300
0000
0000
0020
0000
0000
0000
0000
0030
0000
0000
,  // measure 61
0000
000L
L000
0L00
L000
000L
0L00
00L0
,  // measure 62
0000
0000
0000
0000
0000
0000
0000
0000
0000
0000
0000
0000
0000
0000
0000
0000
0000
0000
0000
0000
0000
0000
0000
0000
0200
0000
0000
0300
0020
0000
0000
0030
,  // measure 63
0000
000L
L000
0L00
L000
000L
0L00
00L0
,  // measure 64
0000
0000
0000
0000
0000
0000
0000
0000
1000
0000
0000
0000
0000
0000
0000
0000
0100
0000
0000
0000
0000
0000
0000
0000
0010
0000
0000
0000
0000
0000
0000
0000
0000
0000
0000
0000
0000
0000
0000
0000
0000
0000
0000
0000
0000
0000
0000
0000
0000
0000
0000
0000
0000
0000
0000
0000
0020
0000
0000
0000
0000
0000
0000
0030
,  // measure 65
0000
000L
L000
0L00
L000
000L
0L00
00L0
,  // measure 66
0000
1000
0100
0010
0001
0000
0000
0000
,  // measure 67
0000
1000
0001
0010
0001
1000
0010
0100
,  // measure 68
0000
1000
0100
0010
0001
1000
0100
0010
,  // measure 69
0000
L000
00L0
0L00
000L
0000
0000
0000
,  // measure 70
0000
0000
0000
0000
0000
0000
0000
0000
2000
3000
0000
0000
0000
0000
0000
0000
0200
0300
0000
0000
0000
0000
0000
0000
0020
0030
0000
0000
0000
0000
0000
0000
0002
0003
0000
0000
0000
0000
0000
0000
2000
3000
0000
0000
0000
0000
0000
0000
0200
0300
0000
0000
0000
0000
0000
0000
0020
0030
0000
0000
0000
0000
0000
0000
,  // measure 71
0000
L000
00L0
0L00
000L
L000
0000
0000
,  // measure 72
0000
0000
0000
0000
0000
0000
0000
0000
0200
0300
0000
0000
0020
0030
0000
0000
0002
0003
0000
0000
2000
3000
0000
0000
0200
0300
0000
0000
0020
0030
0000
0000
,  // measure 73
0000
L000
00L0
0L00
000L
L000
00L0
0000
,  // measure 74
0000
0000
0000
0000
0000
0000
0000
0000
0000
0000
0000
0000
0000
0000
0000
0000
0000
0000
0000
0000
0000
0000
0000
0000
0020
0000
0000
0030
0000
0000
0000
0000
0002
0000
0000
0003
0000
0000
0000
0000
2000
0000
0000
3000
0000
0000
0000
0000
0200
0000
0000
0300
0000
0000
0000
0000
0020
0000
0000
0030
0000
0000
0000
0000
,  // measure 75
0000
L000
00L0
0L00
000L
L000
00L0
0L00
,  // measure 76
0000
0000
0000
0000
0000
0000
0000
0000
0002
0003
2000
3000
0200
0300
0020
0030
,  // measure 77
0000
L000
00L0
0L00
000L
L000
00L0
0L00
,  // measure 78
0000
0000
0000
0000
0000
0000
0000
0000
0000
0000
0000
0000
0000
0000
0000
0000
0000
0000
0000
0000
0000
0000
0000
0000
0000
0000
0000
0000
0000
0000
0000
0000
0000
0000
0000
0000
0000
0000
0000
0000
2000
0000
0000
0000
0000
3000
0000
0000
0200
0000
0000
0000
0000
0300
0000
0000
0020
0000
0000
0000
0000
0030
0000
0000
,  // measure 79
0000
L000
00L0
0L00
000L
L000
00L0
0L00
,  // measure 80
0000
0000
0000
0000
1000
0000
0000
0000
0000
0000
0000
0000
0000
0000
0000
0000
0000
0000
0000
0000
0000
0000
0000
0000
0200
0000
0000
0300
0020
0000
0000
0030
,  // measure 81
0000
L000
00L0
0L00
000L
L000
00L0
0L00
,  // measure 82
0000
0000
0000
0000
0000
0000
0000
0000
1000
0000
0000
0000
0000
0000
0000
0000
0001
0000
0000
0000
0000
0000
0000
0000
0000
0000
0000
0000
0000
0000
0000
0000
0000
0000
0000
0000
0000
0000
0000
0000
0000
0000
0000
0000
0000
0000
0000
0000
0000
0000
0000
0000
0000
0000
0000
0000
0020
0000
0000
0000
0000
0000
0000
0030
,  // measure 83
0000
L000
00L0
0L00
000L
L000
00L0
0L00
,  // measure 84
0000
1000
0001
0010
0001
0000
0000
0000
,  // measure 85
0000
0001
0100
0010
1000
0001
0100
0010
,  // measure 86
0000
1000
0001
0010
0001
1000
0010
0100
,  // measure 87
0000
L000
000L
00L0
000L
0000
0000
0000
,  // measure 88
0000
0000
0000
0000
0000
0000
0000
0000
2000
3000
0000
0000
0000
0000
0000
0000
0002
0003
0000
0000
0000
0000
0000
0000
0020
0030
0000
0000
0000
0000
0000
0000
0002
0003
0000
0000
0000
0000
0000
0000
2000
3000
0000
0000
0000
0000
0000
0000
0020
0030
0000
0000
0000
0000
0000
0000
0200
0300
0000
0000
0000
0000
0000
0000
,  // measure 89
0000
L000
000L
00L0
000L
L000
0000
0000
,  // measure 90
0000
0000
0000
0000
0000
0000
0000
0000
0002
0003
0000
0000
0020
0030
0000
0000
0002
0003
0000
0000
2000
3000
0000
0000
0020
0030
0000
0000
0200
0300
0000
0000
,  // measure 91
0000
L000
000L
00L0
000L
L000
00L0
0000
,  // measure 92
0000
0000
0000
0000
0000
0000
0000
0000
0000
0000
0000
0000
0000
0000
0000
0000
0000
0000
0000
0000
0000
0000
0000
0000
0020
0000
0000
0030
0000
0000
0000
0000
0002
0000
0000
0003
0000
0000
0000
0000
2000
0000
0000
3000
0000
0000
0000
0000
0020
0000
0000
0030
0000
0000
0000
0000
0200
0000
0000
0300
0000
0000
0000
0000
,  // measure 93
0000
L000
000L
00L0
000L
L000
00L0
0L00
,  // measure 94
0000
0000
0000
0000
0000
0000
0000
0000
0002
0003
2000
3000
0020
0030
0200
0300
,  // measure 95
0000
L000
000L
00L0
000L
L000
00L0
0L00
,  // measure 96
0000
0000
0000
0000
0000
0000
0000
0000
0000
0000
0000
0000
0000
0000
0000
0000
0000
0000
0000
0000
0000
0000
0000
0000
0000
0000
0000
0000
0000
0000
0000
0000
0000
0000
0000
0000
0000
0000
0000
0000
2000
0000
0000
0000
0000
3000
0000
0000
0020
0000
0000
0000
0000
0030
0000
0000
0200
0000
0000
0000
0000
0300
0000
0000
,  // measure 97
0000
L000
000L
00L0
000L
L000
00L0
0L00
,  // measure 98
0000
0000
0000
0000
1000
0000
0000
0000
0000
0000
0000
0000
0000
0000
0000
0000
0000
0000
0000
0000
0000
0000
0000
0000
0020
0000
0000
0030
0200
0000
0000
0300
,  // measure 99
0000
L000
000L
00L0
000L
L000
00L0
0L00
,  // measure 100
0000
0000
0000
0000
0000
0000
0000
0000
1000
0000
0000
0000
0000
0000
0000
0000
0100
0000
0000
0000
0000
0000
0000
0000
0000
0000
0000
0000
0000
0000
0000
0000
0000
0000
0000
0000
0000
0000
0000
0000
0000
0000
0000
0000
0000
0000
0000
0000
0000
0000
0000
0000
0000
0000
0000
0000
0200
0000
0000
0000
0000
0000
0000
0300
,  // measure 101
0000
L000
000L
00L0
000L
L000
00L0
0L00
,  // measure 102
0000
1000
0100
0000
0100
0000
0000
0000
,  // measure 103
0000
0001
1000
0100
1000
0001
0100
0010
,  // measure 104
0000
1000
0100
0000
0100
1000
0100
0000
,  // measure 105
0000
0001
0000
0000
,  // measure 106
0000
0000
0000
0000
,  // measure 107
0000
0000
0001
0000
,  // measure 108
0000
0000
0000
0000
,  // measure 109
0000
0000
0000
0001
,  // measure 110
0000
0000
0000
0000
,  // measure 111
0000
0000
0000
0000
,  // measure 112
0001
0000
0000
0000
,  // measure 113
0000
0000
0000
0000
,  // measure 114
0001
0000
0100
0010
0001
0010
1000
0000
,  // measure 115
0000
0100
0000
0000
,  // measure 116
0000
0000
0000
0000
,  // measure 117
0000
0000
0100
0000
,  // measure 118
0000
0000
0000
0000
,  // measure 119
0000
0000
0000
0100
,  // measure 120
0000
0000
0000
0000
,  // measure 121
0000
0000
0000
0000
,  // measure 122
0100
0000
0000
0000
,  // measure 123
0000
0000
0000
0000
,  // measure 124
0100
0000
0010
0001
1000
0010
0100
0000
,  // measure 125
0000
0010
0000
0000
,  // measure 126
0000
0000
0000
0000
,  // measure 127
0000
0000
0010
0000
,  // measure 128
0000
0000
0000
0000
,  // measure 129
0000
0000
0000
0010
,  // measure 130
0000
0000
0000
0000
,  // measure 131
0000
0000
0000
0000
,  // measure 132
0010
0000
0000
0000
,  // measure 133
0000
0000
0000
0000
,  // measure 134
0010
0000
1000
0100
0001
0100
0010
0000
,  // measure 135
0000
0000
0000
0000
,  // measure 136
0000
0000
0000
0000
,  // measure 137
0000
0000
0000
0000
0000
0000
0001
1000
,  // measure 138
0001
0000
0000
0000
,  // measure 139
0000
0000
0000
0000
,  // measure 140
0001
1000
0001
0100
0010
0000
0000
0000
,  // measure 141
0000
0000
0000
0000
,  // measure 142
0000
0000
0001
1000
0001
0100
0010
0100
,  // measure 143
0001
0000
0000
0000
,  // measure 144
0001
1000
0001
0100
0010
0100
0001
0000
,  // measure 145
1000
0010
0100
0010
1000
0001
1000
0000
,  // measure 146
0000
L000
1000
L000
1000
00L0
0010
00L0
,  // measure 147
0000
0010
000L
0010
000L
0000
0000
0000
,  // measure 148
0000
0001
1000
0001
1000
0100
0010
0100
,  // measure 149
0000
0010
L000
0010
L000
1000
00L0
1000
,  // measure 150
00L0
0000
0010
0001
0100
0000
0000
0000
,  // measure 151
0000
0010
0001
0010
0001
1000
0100
1000
,  // measure 152
0100
0000
0010
0001
0100
0000
0010
1000
,  // measure 153
0001
0000
0100
0010
1000
0000
0100
0000
,  // measure 154
0000
0010
0100
000L
L000
0L00
00L0
000L
,  // measure 155
0000
0001
0100
0010
1000
0000
0000
0000
,  // measure 156
0000
0010
0100
1000
L000
0L00
00L0
000L
,  // measure 157
0000
0001
0100
0010
1000
0001
0000
0000
,  // measure 158
0000
0000
0100
1000
0001
0L00
00L0
000L
,  // measure 159
0000
0001
0100
0010
1000
0001
0100
0000
,  // measure 160
0000
0000
0000
1000
0001
0010
00L0
000L
,  // measure 161
0000
0001
0100
0010
1000
0001
0100
0010
,  // measure 162
0000
0000
0000
0000
0001
0010
0100
000L
,  // measure 163
0000
0001
0100
0010
1000
0001
0100
0010
,  // measure 164
1000
0000
0000
0000
0000
0010
0100
1000
,  // measure 165
0000
0001
0100
0010
1000
0001
0100
0010
,  // measure 166
1000
0100
0000
0000
0000
0000
0100
1000
,  // measure 167
0000
0001
0100
0010
1000
0001
0100
0010
,  // measure 168
1000
0100
0000
0000
0000
0000
0000
1000
,  // measure 169
0000
0001
0100
0010
1000
0001
0100
0010
,  // measure 170
1000
0100
0000
0010
0000
0001
0000
1000
,  // measure 171
0001
L0L0
1000
00LL
,  // measure 172
0001
1000
0000
0010
0000
0000
0000
0000
,  // measure 173
0001
0101
1000
1100
,  // measure 174
0001
1000
0000
0010
0000
0100
0000
0001
,  // measure 175
1000
00LL
0001
L0L0
,  // measure 176
1000
0010
0000
0101
0000
0000
0000
0000
,  // measure 177
1000
1100
0001
0101
,  // measure 178
1000
0010
0000
0101
0000
1001
0000
1000
,  // measure 179
L000
00L1
001L
100L
,  // measure 180
LL00
0000
0000
0000
,  // measure 181
0001
0101
1010
1001
,  // measure 182
0011
0000
0000
0100
0000
0010
0000
0001
,  // measure 183
0000
1000
0001
0000
0100
0010
0100
0000
,  // measure 184
0001
0100
0010
1000
0000
0100
0000
0010
,  // measure 185
0001
0010
0100
0000
0000
0000
0000
0000
,  // measure 186
0000
0000
0000
0000
,  // measure 187
0001
0010
0100
0000
1000
0100
0010
0000
,  // measure 188
0000
0000
0000
0000
,  // measure 189
0000
0000
0100
0000
1000
0100
0010
0000
,  // measure 190
0000
0000
0000
0000
,  // measure 191
0000
0000
0000
0000
1000
0100
0010
0000
,  // measure 192
0001
1000
0001
0100
0000
0000
0000
0000
,  // measure 193
0000
0000
0000
0010
,  // measure 194
0001
1000
0001
0100
0000
0000
0000
0000
,  // measure 195
0000
0000
0000
0000
,  // measure 196
0001
1000
0001
0100
0000
0010
0000
1000
,  // measure 197
0100
0000
0010
0100
0000
0000
0000
0000
,  // measure 198
0000
0000
0000
0000
,  // measure 199
0100
0000
0010
0100
1000
0000
0001
0000
,  // measure 200
0000
0000
0000
0000
,  // measure 201
0000
0000
0010
0100
1000
0000
0001
1000
,  // measure 202
0010
0000
0000
0000
,  // measure 203
0000
0000
0000
0000
1000
0000
0001
1000
,  // measure 204
0010
0100
0001
0000
0000
0000
0000
0000
,  // measure 205
0000
0000
0000
0000
0000
0000
0001
1000
,  // measure 206
0010
0100
0001
0100
0000
0000
0000
0000
,  // measure 207
0000
0000
0000
0000
,  // measure 208
0010
0100
0001
0100
0000
0110
0000
1000
,  // measure 209
0100
0010
0001
0000
0000
0000
0000
0000
,  // measure 210
0000
0000
0000
0000
,  // measure 211
0000
0010
0001
0000
1000
0001
0000
0000
,  // measure 212
0000
0000
0000
0000
,  // measure 213
0000
0000
0001
0000
1000
0001
0100
0010
,  // measure 214
0000
0000
0000
0000
,  // measure 215
0000
0000
0000
0000
1000
0001
0100
0010
,  // measure 216
1000
0100
0010
0000
0000
0000
0000
0000
,  // measure 217
0000
0000
0000
0000
0000
0000
0100
0010
,  // measure 218
1000
0100
0010
0000
0000
0000
0000
0000
,  // measure 219
0000
0000
0000
0000
,  // measure 220
1000
0100
0010
0000
0001
0010
0100
0000
,  // measure 221
1000
0001
0100
0000
0001
1000
0010
0000
,  // measure 222
1000
0002
0000
0100
0000
0010
0000
1003
,  // measure 223
0100
L000
000L
L000
,  // measure 224
0010
0001
0000
0000
0000
0000
0000
0000
,  // measure 225
0200
L000
000L
L000
,  // measure 226
0010
0001
0000
1000
0000
0010
0000
0000
,  // measure 227
0000
0001
000L
L000
,  // measure 228
0010
0001
0000
1000
0000
0010
0000
1000
,  // measure 229
0000
0000
1000
L000
,  // measure 230
0010
0001
0000
1000
0000
0010
0000
1000
,  // measure 231
0000
0000
0000
0301
,  // measure 232
0010
0001
0000
1000
0000
0010
0000
1000
,  // measure 233
0200
1000
0000
0310
0000
0000
0000
0000
,  // measure 234
0010
0002
0000
1000
0000
0010
0000
1003
,  // measure 235
0200
1000
0000
0010
0000
0010
0000
0000
,  // measure 236
0001
0000
0000
0000
2000
0000
0000
0000
0000
0000
0000
0000
0000
0000
0000
0000
0000
0000
0000
3000
0000
0000
0000
0000
0000
0000
0000
0000
0000
0000
0000
0000
,  // measure 237
0300
2000
0000
0010
0000
3010
0000
0100
,  // measure 238
0001
2000
0000
0010
0000
0001
0000
3100
,  // measure 239
0010
000L
L000
000L
,  // measure 240
0100
1000
0000
0000
0000
0000
0000
0000
,  // measure 241
0020
000L
L000
000L
,  // measure 242
0100
1000
0000
0001
0000
0100
0000
0000
,  // measure 243
0000
1000
L000
000L
,  // measure 244
0100
1000
0000
0001
0000
0100
0000
0001
,  // measure 245
0000
0000
0001
000L
,  // measure 246
0100
1000
0000
0001
0000
0100
0000
0001
,  // measure 247
0000
0000
0000
1030
,  // measure 248
0100
1000
0000
0001
0000
0100
0000
0001
,  // measure 249
0010
0000
0000
0000
,  // measure 250
0100
2000
0000
0001
0000
0100
0000
3001
,  // measure 251
0L00
L000
000L
0001
00L0
0L00
1000
0001
,  // measure 252
0L00
0L00
0L00
0L00
0L00
0L00
0L00
0L00
0L00
0L00
0L00
0L00
0L00
0L00
0L00
0L00
0000
0000
0000
0000
0000
0000
0000
0000
0000
0000
0000
0000
0000
0000
0000
0000
,  // measure 253
0010
0001
1000
0001
0100
0010
1000
0001
,  // measure 254
0020
0000
0000
0000
,  // measure 255
0000
0000
0000
0000
,  // measure 256
0000
0000
0000
0000
,  // measure 257
0030
0000
0000
0000
;

//---------------dance-single - ----------------
#NOTES:
     dance-single:
     :
     Easy:
     6:
     0.697,1.000,0.893,0.313,0.175: // measure 1
0000
0000
0000
0000
,  // measure 2
0001
0010
0100
1000
,  // measure 3
0002
0203
0320
2030
,  // measure 4
3010
0100
0001
1000
,  // measure 5
0200
0000
0000
0300
,  // measure 6
0010
0001
1000
0010
,  // measure 7
0200
0302
2003
3020
,  // measure 8
0130
0001
1000
0100
,  // measure 9
0020
0130
0200
0310
,  // measure 10
0000
0001
00LL
0001
,  // measure 11
1000
0001
0100
0010
,  // measure 12
0000
0000
1100
0001
,  // measure 13
1000
0001
0100
0010
,  // measure 14
1000
1000
0010
L0L0
,  // measure 15
1000
0100
0010
0001
,  // measure 16
0000
0000
0000
0101
,  // measure 17
1000
0100
0010
0001
,  // measure 18
0L0L
0100
0010
1000
,  // measure 19
0001
1000
0000
0000
,  // measure 20
1010
0100
0010
1000
,  // measure 21
0001
1000
0100
0100
,  // measure 22
0011
0000
0010
1000
,  // measure 23
0001
1000
0100
0100
,  // measure 24
0L00
0001
000L
000L
,  // measure 25
0010
0110
0000
0000
,  // measure 26
0010
0001
000L
000L
,  // measure 27
0010
0110
1000
10L0
,  // measure 28
0000
0000
1000
1000
,  // measure 29
0010
0110
1000
10L0
,  // measure 30
0020
0000
0000
0000
,  // measure 31
0030
0000
0000
1100
,  // measure 32
0020
M000
0000
0000
0000
0000
0000
0000
,  // measure 33
0000
0000
0000
0000
,  // measure 34
0000
000M
0000
0000
,  // measure 35
0000
0000
0000
0000
,  // measure 36
0000
0000
M000
0000
,  // measure 37
0000
0000
0000
0000
,  // measure 38
0000
0000
0M00
0000
,  // measure 39
0000
0000
0000
0000
,  // measure 40
0000
0000
0000
0M0M
,  // measure 41
0000
0000
0000
0000
,  // measure 42
0000
0000
0000
0000
0000
0000
0000
M00M
,  // measure 43
0000
0000
0000
0000
,  // measure 44
0000
0000
0000
0000
0000
0000
0000
0M00
,  // measure 45
M000
0000
0000
0000
,  // measure 46
0000
0000
0000
0000
,  // measure 47
0000
M000
0M00
0000
0000
0000
0000
0000
,  // measure 48
0000
0000
0000
0000
,  // measure 49
0000
000M
0M00
M000
0M00
000M
M000
0M0M
,  // measure 50
0000
0000
0000
0000
,  // measure 51
0000
0000
0000
0000
,  // measure 52
0000
M000
0000
0000
,  // measure 53
0000
0000
0000
0000
,  // measure 54
0000
0000
0M0M
0000
,  // measure 55
0000
0000
0000
0000
,  // measure 56
0000
0000
0M00
0000
,  // measure 57
0000
0000
0000
0000
,  // measure 58
0000
0000
0000
0000
0000
0000
0000
M00M
,  // measure 59
0000
0M00
0000
0000
0000
0000
0000
0000
,  // measure 60
0000
0000
0000
0000
,  // measure 61
0M00
M000
000M
0000
0000
0000
0000
0000
,  // measure 62
0000
0000
0000
0000
,  // measure 63
0M00
M000
0000
0M00
M000
0M00
0000
0000
,  // measure 64
0000
0000
0000
0000
,  // measure 65
0000
0000
000M
0000
M00M
0M0M
000M
000M
,  // measure 66
0M00
0000
0000
0000
,  // measure 67
0000
0M00
M000
M000
000M
0M00
000M
M000
,  // measure 68
0000
0000
0000
0000
,  // measure 69
0000
0000
0000
0000
,  // measure 70
0000
0000
MM00
M00M
,  // measure 71
0M0M
0000
0000
0000
,  // measure 72
0000
0000
0000
0M00
0000
0000
0M0M
0000
,  // measure 73
0000
0000
0000
0000
,  // measure 74
0000
0000
0000
0000
0000
0000
0000
0000
0000
0000
0M0M
0000
0000
M00M
0000
0000
,  // measure 75
000M
0000
0M00
0000
000M
0000
M000
0M00
000M
0M00
0000
0000
0000
0000
0000
0000
,  // measure 76
0000
0000
0000
0000
0000
0000
0000
0000
0000
0000
0000
000M
0M00
0000
0000
0000
,  // measure 77
0000
M000
0000
0000
0000
000M
0000
000M
0000
0000
0000
0000
0000
0000
0000
0000
,  // measure 78
0000
0000
0000
0000
0000
0000
0000
0000
0000
0000
0000
0000
0M00
0000
M000
0M00
,  // measure 79
0000
000M
0000
0000
0000
0000
0000
0000
0000
0000
0000
0000
0000
0000
0000
0000
,  // measure 80
0000
0000
0000
0000
0000
0000
0000
0000
0000
0000
0000
0000
0000
0000
0000
M000
,  // measure 81
0M00
0000
000M
0000
0000
0M00
0000
0000
0000
000M
0000
000M
0000
000M
0000
0000
,  // measure 82
0000
0000
0000
0000
,  // measure 83
0000
0000
M000
0M00
MM00
0M00
0000
0000
0000
000M
0000
0M00
0000
0000
0000
0000
,  // measure 84
0000
0000
0000
0000
,  // measure 85
0000
M000
0M00
000M
0M00
000M
000M
000M
,  // measure 86
0000
0000
0000
0000
,  // measure 87
0000
0000
0000
0000
,  // measure 88
0000
MM00
0000
0000
,  // measure 89
0000
0000
0000
0000
,  // measure 90
0000
0000
0000
0000
0000
0000
0000
0M00
000M
0000
0000
0000
0M00
0000
0M00
M000
,  // measure 91
0M00
0000
0M00
0M00
0M00
0000
0000
0000
0000
0000
0000
0000
0000
0000
0000
0000
,  // measure 92
0000
0000
0000
0000
0000
0000
0000
0000
000M
0M00
000M
0000
0000
0000
000M
0000
,  // measure 93
M000
0M0M
0000
0000
0000
0000
0000
0000
,  // measure 94
0000
0000
0000
0000
0000
0M0M
M000
0M00
,  // measure 95
MM00
0000
MM00
0000
MM00
0000
000M
000M
0000
000M
0000
0000
0000
0000
0000
0000
,  // measure 96
0000
0000
0000
0000
0000
0000
0000
0000
0000
0000
0000
0000
0M00
0M00
0000
0000
,  // measure 97
0000
0M00
0M00
0000
000M
000M
0000
0000
0000
0000
0000
0000
0000
0000
0000
0000
,  // measure 98
0000
0000
0000
0000
0000
0000
0000
0000
0000
0000
0000
0000
0000
0000
000M
000M
,  // measure 99
0000
M000
0000
M000
0000
0M00
0M00
0000
0000
0000
0000
0000
0000
0000
0000
0000
,  // measure 100
0000
0000
0000
0000
,  // measure 101
0000
MM0M
0000
0000
0000
0000
0000
0000
,  // measure 102
0000
0000
0000
0000
,  // measure 103
0000
M000
000M
0M00
000M
000M
M030
0000
,  // measure 104
0001
0110
0001
1000
,  // measure 105
0010
0100
0000
0000
,  // measure 106
0000
0000
0000
0000
,  // measure 107
0000
0100
0001
0000
,  // measure 108
0000
0000
0000
0000
,  // measure 109
0000
0000
0001
1000
,  // measure 110
0000
0000
0000
0000
,  // measure 111
0000
0000
0000
1000
,  // measure 112
0100
0000
0000
0000
,  // measure 113
0000
0000
0000
0000
,  // measure 114
0100
0010
0001
1000
,  // measure 115
0001
0100
0000
0000
,  // measure 116
0000
0000
0000
0000
,  // measure 117
0000
0100
0010
0000
,  // measure 118
0000
0000
0000
0000
,  // measure 119
0000
0000
0010
1000
,  // measure 120
0000
0000
0000
0000
,  // measure 121
0000
0000
0000
1000
,  // measure 122
0100
0000
0000
0000
,  // measure 123
0000
0000
0000
0000
,  // measure 124
0100
0010
0001
1000
,  // measure 125
0001
1000
0000
0000
,  // measure 126
0000
0000
0000
0000
,  // measure 127
0000
1000
0010
0000
,  // measure 128
0000
0000
0000
0000
,  // measure 129
0000
0000
0010
0100
,  // measure 130
0000
0000
0000
0000
,  // measure 131
0000
0000
0000
0100
,  // measure 132
0001
0000
0000
0000
,  // measure 133
0000
0000
0000
0000
,  // measure 134
0001
0010
0001
1000
,  // measure 135
0010
0010
0000
0000
,  // measure 136
0000
0000
0000
0000
,  // measure 137
0000
0010
0100
0000
,  // measure 138
0000
0000
0000
0000
,  // measure 139
0000
0000
0100
0100
,  // measure 140
0000
0000
0000
0000
,  // measure 141
0000
0000
0000
0100
,  // measure 142
0001
0000
0000
0000
,  // measure 143
0000
0000
0000
0000
,  // measure 144
0001
0011
1000
1100
,  // measure 145
0001
0101
1000
1010
,  // measure 146
0002
00L0
0010
0100
,  // measure 147
2000
0000
0000
0000
0000
3000
0000
0000
,  // measure 148
0000
0100
0010
0103
,  // measure 149
2000
0010
0100
0L00
,  // measure 150
0002
0103
0000
0000
,  // measure 151
0000
0010
0100
3010
,  // measure 152
0002
0103
2000
3100
,  // measure 153
0020
0130
0002
0103
,  // measure 154
2000
0000
0000
0000
,  // measure 155
0000
0000
0000
0000
,  // measure 156
0000
000M
0000
0000
,  // measure 157
0000
0000
0000
0000
,  // measure 158
0000
0000
0000
00M0
0000
0000
0000
0000
,  // measure 159
0000
0000
0000
0000
,  // measure 160
0000
0000
0M00
0000
,  // measure 161
0000
0000
0000
0000
,  // measure 162
0000
0000
0000
0000
0000
00M0
0000
0000
,  // measure 163
0000
0000
0000
0000
,  // measure 164
0000
0000
0000
0000
0000
0000
0000
0M0M
,  // measure 165
0000
0000
0000
0000
,  // measure 166
0000
0000
0000
0000
0000
0000
0000
0MMM
,  // measure 167
0000
0000
0000
0000
,  // measure 168
0000
0000
0000
0000
,  // measure 169
0000
00M0
0M00
00M0
0M00
00M0
0M00
00M0
,  // measure 170
3001
1000
0010
0100
,  // measure 171
10L0
0L01
00L1
1L00
,  // measure 172
0000
0000
0000
0000
,  // measure 173
1100
0011
0101
1010
,  // measure 174
0001
1000
0001
0100
,  // measure 175
001L
L100
L010
010L
,  // measure 176
0000
0000
0000
0000
,  // measure 177
1010
0101
0011
1100
,  // measure 178
0001
1000
0100
0010
,  // measure 179
LL00
1100
0101
0L0L
,  // measure 180
0001
1000
0000
0000
,  // measure 181
0011
1100
0101
1010
,  // measure 182
0001
1000
0010
0100
,  // measure 183
0001
1000
0100
0000
,  // measure 184
0010
0100
1000
0001
,  // measure 185
10L0
1L00
L00L
010L
,  // measure 186
0010
0001
0000
0000
,  // measure 187
1100
1010
L00L
010L
,  // measure 188
0010
0001
1000
0000
,  // measure 189
0000
1010
L001
010L
,  // measure 190
0010
0001
1000
0010
,  // measure 191
0000
0000
1001
010L
,  // measure 192
0010
0001
1000
0010
,  // measure 193
00L1
0000
0000
1100
,  // measure 194
0010
0001
1000
0010
,  // measure 195
00L1
0L01
L00L
0000
,  // measure 196
0010
0001
1000
0010
,  // measure 197
00L1
0L01
L00L
L100
,  // measure 198
0010
1000
0000
0000
,  // measure 199
0101
0L01
100L
L100
,  // measure 200
0010
1000
0001
0000
,  // measure 201
0000
0011
L001
L100
,  // measure 202
0010
1000
0001
1000
,  // measure 203
0000
0000
1001
L100
,  // measure 204
0010
1000
0001
1000
,  // measure 205
L0L0
0000
0000
0101
,  // measure 206
0010
1000
0001
1000
,  // measure 207
L0L0
0L0L
0000
0000
,  // measure 208
0010
1000
0001
1000
,  // measure 209
L0L0
0L0L
00LL
LL00
,  // measure 210
1000
0000
0000
0000
,  // measure 211
0101
1010
00LL
LL00
,  // measure 212
1000
0000
0001
0000
,  // measure 213
0000
1010
1100
LL00
,  // measure 214
1000
0000
0001
0000
,  // measure 215
0000
0000
1100
0011
,  // measure 216
1000
0000
0001
0000
,  // measure 217
0100
0000
0000
0011
,  // measure 218
1000
0000
0001
0000
,  // measure 219
0100
0000
0000
0000
,  // measure 220
2000
0000
3002
0000
,  // measure 221
0203
0000
0320
0000
,  // measure 222
1030
0100
0010
0001
,  // measure 223
1001
0010
0000
0000
,  // measure 224
0000
0000
0000
0000
,  // measure 225
2000
0000
0000
0000
0000
0000
0111
0010
0000
0000
0000
0000
0000
0000
0000
0000
0000
0000
0000
0000
0000
0000
0000
0000
,  // measure 226
0000
0000
0000
0000
,  // measure 227
0000
0000
0000
0000
0000
0000
0000
0000
0000
0000
0000
0000
0010
0000
0010
0100
0000
0000
0001
0000
0000
0000
0000
0000
,  // measure 228
0000
0000
0000
0000
,  // measure 229
0000
0000
0000
0000
0000
0000
0010
0010
,  // measure 230
0000
0100
0001
0000
0000
0000
0000
0000
,  // measure 231
0000
0000
0000
0000
,  // measure 232
0010
0000
0000
0000
0010
0000
0000
0000
0000
0100
0000
0000
0000
0000
0000
0000
0000
0000
0001
0000
0000
0000
0000
0000
,  // measure 233
0000
0000
0000
0000
,  // measure 234
3010
0010
0100
0001
,  // measure 235
0020
0000
0000
0000
,  // measure 236
0000
0000
0000
0000
,  // measure 237
0000
0000
0000
0000
0000
0000
0000
0030
,  // measure 238
0001
0010
0100
1000
,  // measure 239
1001
0100
0000
0000
,  // measure 240
0000
0000
0000
0000
,  // measure 241
0002
0000
0000
0000
1110
0100
0000
0000
0000
0000
0000
0000
0000
0000
0000
0000
,  // measure 242
0000
0000
0000
0000
,  // measure 243
0000
0000
0000
0000
0000
0000
0000
0000
0000
0000
0000
0000
0000
0000
0000
0000
0100
0000
0000
0100
0010
0000
0000
0000
1000
0000
0000
0000
0000
0000
0000
0000
,  // measure 244
0000
0000
0000
0000
,  // measure 245
0000
0000
0000
0000
0000
0000
0000
0000
0000
0000
0000
0000
0100
0000
0000
0100
,  // measure 246
0010
1000
0000
0000
,  // measure 247
0000
0000
0000
0000
,  // measure 248
0100
0000
0000
0000
0000
0000
0000
0000
0000
0100
0000
0000
0010
0000
0000
0000
0000
0000
0000
0000
0000
0000
0000
0000
1000
0000
0000
0000
0000
0000
0000
0000
,  // measure 249
0000
0000
0000
0000
,  // measure 250
0103
0100
0010
1000
,  // measure 251
0200
0010
0010
0001
,  // measure 252
2002
0000
0000
0000
0000
0000
0000
3303
0000
0000
0000
0000
0000
0000
0000
0000
,  // measure 253
0100
0010
0010
0001
,  // measure 254
2002
0000
0000
0000
,  // measure 255
0000
0000
0000
0000
,  // measure 256
0000
0000
0000
0000
,  // measure 257
3003
0000
0000
0000
;
