#TITLE:鬼帝の剣 (Exit Trance Remix);
#SUBTITLE:;
#ARTIST:Dizzi Mystica feat. yumemi;
#TITLETRANSLIT:Kitei no Tsurugi (Exit Trance Remix);
#SUBTITLETRANSLIT:;
#ARTISTTRANSLIT:;
#CREDIT:;
#BANNER:Kitei no Tsurugi (Exit Trance Remix).png;
#BACKGROUND:Kitei no Tsurugi (Exit Trance Remix)-bg.png;
#LYRICSPATH:;
#CDTITLE:;
#MUSIC:Kitei no Tsurugi (Exit Trance Remix).mp3;
#OFFSET:-0.060;
#SAMPLESTART:10.025;
#SAMPLELENGTH:16.420;
#SELECTABLE:YES;
#BPMS:0.000=144.000,88.000=288.000,89.000=144.000;
#STOPS:88.000=0.208
;
#BGCHANGES:;

//---------------dance-single - ----------------
#NOTES:
     dance-single:
     :
     Hard:
     9:
     0.637,0.627,0.406,0.290,0.271: // measure 1
0000
0000
0000
0000
,  // measure 2
0000
0000
0000
0000
,  // measure 3
0000
0000
0000
0000
,  // measure 4
0000
0000
0000
0000
,  // measure 5
1000
0100
0001
0100
1000
0010
0001
0010
,  // measure 6
1000
0100
0010
0001
2000
0000
0001
3001
,  // measure 7
1000
0010
1000
0000
0001
0010
0001
0000
1000
0000
0000
0000
1001
0000
0000
1000
,  // measure 8
0010
0000
0010
0000
0100
0000
0100
0000
0001
0000
0001
0000
0000
0000
0010
0100
,  // measure 9
0010
0000
0100
0000
0000
0000
1000
0001
1000
0000
0001
0000
0000
0000
1000
0000
,  // measure 10
0010
0000
1000
0000
0100
0010
0100
0000
0010
0000
0001
0000
1001
0000
0000
0000
,  // measure 11
1000
1000
0010
0010
0100
0100
0001
0000
,  // measure 12
0010
0000
0010
0000
0100
1000
0100
0000
1000
0000
1000
0000
0001
0000
0000
0000
,  // measure 13
0102
0000
0000
1003
0000
0001
0100
0010
0100
0010
1000
0010
,  // measure 14
1000
0000
0000
0000
0000
0000
0100
0000
0000
0010
0000
0000
0100
0000
1000
0000
0100
0000
1000
0000
0010
0000
1000
0000
,  // measure 15
0010
0100
0001
0100
0010
1000
0100
1000
,  // measure 16
0000
1001
0000
1000
0010
0100
0001
0010
,  // measure 17
0021
0000
0001
0000
0100
0100
0130
0000
,  // measure 18
2100
0000
3100
0000
0102
0000
1000
1003
,  // measure 19
1001
0000
1000
0020
0000
0100
0130
0000
,  // measure 20
0110
0000
0100
0002
0000
1000
1003
0001
,  // measure 21
0101
0000
0100
0020
0000
1000
1030
0000
,  // measure 22
2002
0000
0000
3003
,  // measure 23
1000
0000
0000
0000
0101
0000
0000
0000
0010
0000
0000
0000
1100
0000
0000
0100
,  // measure 24
0010
0001
0000
0102
0000
0100
0100
1003
,  // measure 25
0001
0000
0000
0000
0101
0000
0000
0000
1000
0000
0000
0000
1100
0000
0000
0100
,  // measure 26
1000
0010
0000
0210
0000
0001
0001
0310
,  // measure 27
0100
0010
1000
0100
2000
0000
3001
0010
,  // measure 28
0100
1000
0000
0001
0100
0010
1000
1000
,  // measure 29
1002
1000
0000
0100
0000
0010
0013
0010
,  // measure 30
0200
1000
0000
0010
0000
0001
0301
0001
,  // measure 31
0100
0000
0000
0000
1100
0000
0000
0000
1000
0000
0000
0000
1010
0000
0000
0010
,  // measure 32
0100
0001
0000
1002
0000
0010
0013
0001
,  // measure 33
2001
0001
0000
0010
0000
0100
3100
0100
,  // measure 34
0020
0001
0000
0100
0000
1000
1030
1000
,  // measure 35
0010
0000
0000
0000
0011
0000
0000
0000
0001
0000
0000
0000
0101
0000
0000
0100
,  // measure 36
0010
1000
0001
0000
1000
1000
0001
0001
,  // measure 37
0100
0000
0000
0000
0010
0000
0000
0000
0100
0000
0000
0000
0010
0000
0000
0000
0000
0000
0000
0000
0000
0010
0000
0000
1000
0000
0000
0000
0000
0000
0000
0000
0000
0000
0000
0000
1010
0000
0000
0000
0000
0000
0000
0000
0000
0000
0000
0000
,  // measure 38
1000
0000
0000
0000
0100
0000
0000
0000
1000
0000
0000
0000
0100
0000
0000
0000
0000
0000
0000
0000
0000
0100
0000
0000
0010
0000
0000
0000
0000
0000
0000
0000
0000
0000
0000
0000
0110
0000
0000
0000
0000
0000
0000
0000
0000
0000
0000
0000
,  // measure 39
0010
0002
0100
0103
0010
2000
0100
3100
,  // measure 40
0110
0010
0001
0000
0011
0001
0100
0000
,  // measure 41
0010
0000
0000
0000
1000
0000
0000
0000
0010
0000
0000
0000
1000
0000
0000
0000
0000
0000
0000
0000
0000
1000
0000
0000
0010
0000
0000
0000
0000
0000
0000
0000
0000
0000
0000
0000
0110
0000
0000
0000
0000
0000
0000
0000
0000
0000
0000
0000
,  // measure 42
0100
0000
0000
0000
0001
0000
0000
0000
0100
0000
0000
0000
0001
0000
0000
0000
0000
0000
0000
0000
0000
0001
0000
0000
0010
0000
0000
0000
0000
0000
0000
0000
0000
0000
0000
0000
0011
0000
0000
0000
0000
0000
0000
0000
0000
0000
0000
0000
,  // measure 43
0001
0010
0100
1000
0002
1000
1003
0000
,  // measure 44
0001
0100
0010
1000
0100
0010
0001
1000
,  // measure 45
0001
0100
1010
0000
1000
0100
0011
0000
,  // measure 46
0001
0000
0001
0000
0100
0000
0100
0000
0010
0000
1000
0001
1000
0001
1000
0000
,  // measure 47
0001
0100
0001
0000
1000
0100
1000
0000
0001
0000
0000
0000
1001
0000
0000
0001
,  // measure 48
0100
0000
0100
0000
0010
0000
0010
0000
1000
0000
1000
0000
0000
0000
0100
0010
,  // measure 49
0100
0000
0010
0000
0000
0000
0001
1000
0001
0000
1000
0000
0000
0000
0001
0100
,  // measure 50
0010
1000
0010
0000
1000
0100
1000
0000
0001
1000
0001
0000
0010
0000
0000
0000
,  // measure 51
0001
0100
0001
0000
1000
0010
1000
0000
0100
0000
0100
0000
0010
0000
0000
0000
,  // measure 52
0001
0010
0001
0000
1000
0100
1000
0000
0001
0000
0001
0000
0100
0000
0000
0000
,  // measure 53
2010
0000
0000
3001
0000
1000
0010
0100
0010
0100
0001
0100
,  // measure 54
0001
0000
0000
0000
0000
0000
0010
0000
0000
0100
0000
0000
0010
0000
0001
0000
0010
0000
0001
0000
0100
0000
0001
0000
,  // measure 55
0100
0010
1000
0010
0100
0001
0010
0001
,  // measure 56
0000
1001
0000
0001
0100
0010
1000
0100
,  // measure 57
1200
0000
1000
0000
0010
0010
0310
0000
,  // measure 58
0012
0000
0013
0000
2010
0000
0001
3001
,  // measure 59
1001
0000
0001
0200
0000
0010
0310
0000
,  // measure 60
0110
0000
0010
2000
0000
0001
3001
1000
,  // measure 61
1010
0000
0010
0200
0000
0001
0301
0000
,  // measure 62
2002
0000
0000
3003
;

//---------------dance-single - ----------------
#NOTES:
     dance-single:
     :
     Easy:
     4:
     0.305,0.354,0.223,0.019,0.000: // measure 1
0000
0000
0000
0000
,  // measure 2
0000
0000
0000
0000
,  // measure 3
0000
0000
0000
0000
,  // measure 4
0000
0000
0000
0000
,  // measure 5
1000
0100
0001
0100
,  // measure 6
1000
0001
1001
0000
,  // measure 7
0001
0100
0010
0100
,  // measure 8
0001
0010
0100
0000
,  // measure 9
1001
0000
0110
0000
,  // measure 10
1000
0010
0100
0001
,  // measure 11
1000
0100
1100
0000
,  // measure 12
0001
0100
0101
0000
,  // measure 13
1000
0010
0100
0001
,  // measure 14
1000
0100
0010
0001
,  // measure 15
1000
1000
0001
0001
,  // measure 16
0000
0100
0010
1000
,  // measure 17
1001
0001
0001
0001
,  // measure 18
1001
1000
1000
1000
,  // measure 19
0010
1000
0100
0000
,  // measure 20
0010
0001
0100
0010
,  // measure 21
1000
0001
0100
0000
,  // measure 22
0220
0000
0000
0330
,  // measure 23
0000
0010
0000
1000
,  // measure 24
0100
1000
0001
0010
,  // measure 25
0000
0001
0000
0100
,  // measure 26
0010
1000
0100
0010
,  // measure 27
0000
0001
1000
0001
,  // measure 28
0100
0010
1000
0001
,  // measure 29
1000
1000
1000
1000
,  // measure 30
0001
0001
0001
0001
,  // measure 31
0000
1100
0000
0101
,  // measure 32
0001
0100
0010
1000
,  // measure 33
0001
0001
0001
0001
,  // measure 34
1000
1000
1000
1000
,  // measure 35
0100
0100
0010
0010
,  // measure 36
0100
1000
0001
0000
,  // measure 37
1000
0010
1010
0000
,  // measure 38
0001
0010
0011
0000
,  // measure 39
0001
0100
0010
1000
,  // measure 40
0010
0100
0001
0000
,  // measure 41
1000
0100
1100
0000
,  // measure 42
0001
0100
0101
0000
,  // measure 43
1000
0010
0100
0100
,  // measure 44
0010
1000
0100
0100
,  // measure 45
1000
1000
0001
0001
,  // measure 46
0010
0100
1000
1001
,  // measure 47
1000
0010
0100
0010
,  // measure 48
1000
0100
0010
0000
,  // measure 49
0011
0000
1100
0000
,  // measure 50
0001
0100
0010
1000
,  // measure 51
0001
0100
1010
0000
,  // measure 52
1000
0100
0011
0000
,  // measure 53
1000
0010
0001
0010
,  // measure 54
1000
0100
0001
0100
,  // measure 55
1000
1000
0001
0001
,  // measure 56
0000
0100
0010
0100
,  // measure 57
0101
0001
0001
0001
,  // measure 58
1001
1000
1000
1000
,  // measure 59
1001
0001
0100
0000
,  // measure 60
0010
1000
0100
1000
,  // measure 61
0001
0100
0010
0000
,  // measure 62
1001
0000
0000
0000
;

//---------------dance-single - ----------------
#NOTES:
     dance-single:
     :
     Beginner:
     2:
     0.120,0.177,0.019,0.000,0.000: // measure 1
0000
0000
0000
0000
,  // measure 2
0000
0000
0000
0000
,  // measure 3
0000
0000
0000
0000
,  // measure 4
0000
0000
0000
0000
,  // measure 5
0000
0000
0000
0000
,  // measure 6
0000
0000
0000
0000
,  // measure 7
1000
0000
0000
0000
,  // measure 8
0001
0000
0000
0000
,  // measure 9
0100
0000
0000
0000
,  // measure 10
0010
0000
0010
0000
,  // measure 11
0010
0000
0000
0000
,  // measure 12
1000
0000
0000
0000
,  // measure 13
0100
0000
0000
0000
,  // measure 14
1000
0000
1000
0000
,  // measure 15
1000
0000
0000
0000
,  // measure 16
0001
0000
0001
0000
,  // measure 17
0001
0000
0000
0000
,  // measure 18
0100
0000
0100
0000
,  // measure 19
0100
0000
0000
0000
,  // measure 20
0010
0000
0000
0000
,  // measure 21
1000
0000
0000
0000
,  // measure 22
1001
0000
0000
0000
,  // measure 23
0000
1000
0000
1000
,  // measure 24
0000
0001
0000
0001
,  // measure 25
0000
0100
0000
0100
,  // measure 26
0000
0010
0000
0010
,  // measure 27
0000
1000
0000
1000
,  // measure 28
0000
0001
0000
0001
,  // measure 29
0001
0000
0000
0000
,  // measure 30
1000
0000
0000
0000
,  // measure 31
0000
0010
0000
0010
,  // measure 32
0000
0100
0000
0100
,  // measure 33
0100
0000
0000
0000
,  // measure 34
0001
0000
0000
0000
,  // measure 35
1000
0000
1000
0000
,  // measure 36
0001
0000
0001
0001
,  // measure 37
0001
0000
0001
0000
,  // measure 38
0010
0000
0010
0000
,  // measure 39
0100
0000
0100
0000
,  // measure 40
1000
0000
1000
0000
,  // measure 41
0001
0000
0001
0000
,  // measure 42
0100
0000
0100
0000
,  // measure 43
0010
0000
0010
0000
,  // measure 44
1000
0000
1000
0000
,  // measure 45
0001
0000
0001
0000
,  // measure 46
0100
0000
0100
0000
,  // measure 47
0001
0000
0000
0000
,  // measure 48
0010
0000
0000
0000
,  // measure 49
0100
0000
0000
0000
,  // measure 50
1000
0000
1000
0000
,  // measure 51
1000
0000
0000
0000
,  // measure 52
0001
0000
0000
0000
,  // measure 53
0100
0000
0000
0000
,  // measure 54
0010
0000
0010
0000
,  // measure 55
0010
0000
0000
0000
,  // measure 56
0100
0000
0100
0000
,  // measure 57
0100
0000
0000
0000
,  // measure 58
0001
0000
0001
0000
,  // measure 59
0001
0000
0000
0000
,  // measure 60
1000
0000
0000
0000
,  // measure 61
0010
0000
0000
0000
,  // measure 62
0110
0000
0000
0000
;

//---------------dance-single - ----------------
#NOTES:
     dance-single:
     :
     Medium:
     7:
     0.528,0.508,0.281,0.145,0.000: // measure 1
0000
0000
0000
0000
,  // measure 2
0000
0000
0000
0000
,  // measure 3
0000
0000
0000
0000
,  // measure 4
0000
0000
0000
0000
,  // measure 5
1000
0001
0100
0000
0001
1000
0010
0000
,  // measure 6
1000
0010
0100
0001
2000
0000
3001
0000
,  // measure 7
1000
0100
1000
0100
1000
0000
1001
0000
,  // measure 8
0001
0010
0001
0010
0001
0000
1001
0000
,  // measure 9
1000
0100
0001
0000
1000
0010
0001
0000
,  // measure 10
1000
0010
0100
0001
1000
1000
1000
0000
,  // measure 11
0001
0100
0001
0100
0001
0100
0010
0000
,  // measure 12
1000
0100
1000
0100
1000
0100
0010
0000
,  // measure 13
1001
0000
0101
0000
0001
0100
0010
1000
,  // measure 14
1001
0000
1100
0000
1000
0100
0010
0001
,  // measure 15
1000
1000
1000
0000
0001
0001
0001
0000
,  // measure 16
0100
0010
0000
0100
0001
0010
0100
1000
,  // measure 17
0002
0010
0100
1003
,  // measure 18
2001
0100
0010
3001
,  // measure 19
1000
0001
1000
0001
1000
0001
1000
0000
,  // measure 20
0010
0100
0010
0100
0010
0100
0010
0100
,  // measure 21
0001
0100
0001
0100
0001
0100
0001
0000
,  // measure 22
2020
0000
0000
3030
,  // measure 23
0001
1100
0010
0101
,  // measure 24
1000
0001
0000
0100
0000
0010
0100
0001
,  // measure 25
0010
1100
0010
0101
,  // measure 26
1000
0010
0000
0100
0000
0010
1000
0100
,  // measure 27
0010
0001
0010
0001
0020
0000
0130
0000
,  // measure 28
1000
0001
0000
0100
0010
0000
1001
0000
,  // measure 29
1000
0100
0000
0010
0000
0100
1000
0000
,  // measure 30
0010
0100
0000
0001
0000
0100
0010
0000
,  // measure 31
1000
0101
0001
1100
,  // measure 32
0100
0010
0000
0001
0000
0100
0010
0100
,  // measure 33
0001
0010
0000
0100
0000
1000
0010
0000
,  // measure 34
0100
0010
0000
1000
0000
0100
0010
0000
,  // measure 35
0011
0011
1100
1100
,  // measure 36
0001
0100
1000
0000
0001
0010
1000
0000
,  // measure 37
0001
0100
0010
0100
0002
0000
1003
0000
,  // measure 38
0100
1000
0010
0100
0020
0000
1030
0000
,  // measure 39
0001
0100
0001
0100
0010
1000
0010
1000
,  // measure 40
0100
1000
0100
1000
0002
0000
0013
0000
,  // measure 41
0001
0100
1000
0100
0002
0000
1003
0000
,  // measure 42
0001
0010
1000
0010
0002
0000
1003
0000
,  // measure 43
0001
0100
0010
0100
0001
0100
0010
0000
,  // measure 44
1000
0100
0010
0100
1000
0100
0010
0100
,  // measure 45
1000
1100
0001
0101
,  // measure 46
1000
0001
1000
0001
0100
0010
0100
0010
,  // measure 47
1000
0100
1000
0100
1000
0000
1001
0000
,  // measure 48
0001
0010
0001
0010
0001
0000
1001
0000
,  // measure 49
1000
0100
0001
0000
1000
0010
0001
0000
,  // measure 50
1000
0010
0100
0001
1000
1000
1000
0000
,  // measure 51
0001
0100
0001
0100
0001
0100
0010
0000
,  // measure 52
1000
0100
1000
0100
1000
0100
0010
0000
,  // measure 53
1001
0000
0101
0000
0001
0100
0010
1000
,  // measure 54
1001
0000
1100
0000
1000
0100
0010
0001
,  // measure 55
1000
1000
1000
0000
0001
0001
0001
0000
,  // measure 56
0100
0010
0000
0100
0001
0010
0100
1000
,  // measure 57
0002
0010
0100
1003
,  // measure 58
2001
0100
0010
3001
,  // measure 59
1000
0001
1000
0001
1000
0001
1000
0000
,  // measure 60
0010
0100
0010
0100
0010
0100
0010
0100
,  // measure 61
0001
0100
0001
0100
0001
0100
0001
0000
,  // measure 62
2020
0000
0000
3030
;
