#TITLE:倦怠ライフ・リターンズ!;
#SUBTITLE:-サウンド的には倦怠感NOTHING MIX-;
#ARTIST:杉田智和 remixed by saishin;
#TITLETRANSLIT:KENTAI LIFE RETURNS!;
#SUBTITLETRANSLIT:-SOUND TEKINI WA KENTAIKAN NOTHING MIX-;
#ARTISTTRANSLIT:TOMOKAZU SUGITA remixed by saishin;
#CREDIT:DigiMindAxel;
#BANNER:KENTAI LIFE RETURNS! -SOUND TEKINI WA KENTAIKAN NOTHING MIX-.png;
#BACKGROUND:KENTAI LIFE RETURNS! -SOUND TEKINI WA KENTAIKAN NOTHING MIX--bg.png;
#LYRICSPATH:KENTAI LIFE RETURNS! -SOUND TEKINI WA KENTAIKAN NOTHING MIX-.lrc;
#CDTITLE:DMAxel original simfile.png;
#MUSIC:KENTAI LIFE RETURNS! -SOUND TEKINI WA KENTAIKAN NOTHING MIX-.mp3;
#OFFSET:-7.300;
#SAMPLESTART:48.837;
#SAMPLELENGTH:12.000;
#SELECTABLE:YES;
#BPMS:0.000=157.000;
#STOPS:;
#BGCHANGES:;

//---------------dance-single - ----------------
#NOTES:
     dance-single:
     :
     Easy:
     3:
     0.280,0.298,0.149,0.093,0.000:
1000
1000
1000
0000
,
0002
0000
0203
0000
,
0310
0010
0010
0000
,
0200
0000
0302
0000
,
1003
0100
1000
0000
,
0001
0010
0001
0000
,
0100
0000
0010
0000
,
1000
0100
0010
0001
,
1000
0100
1000
0000
,
0001
0010
0001
0000
,
0100
0010
1000
0100
,
0010
0000
0000
0000
,
0001
1000
0010
0000
,
1000
0001
0100
0000
,
0010
0100
0010
0000
,
1000
0100
0010
0001
,
1000
0010
1000
0000
,
0001
0100
0001
0000
,
0010
0100
1000
0010
,
0100
0000
0000
0000
,
1001
0000
0000
0001
,
1000
0100
0010
0001
,
1000
0000
0010
0000
,
0100
0001
0010
0100
,
1001
0000
0000
0010
,
1000
0100
0010
0000
,
0001
1000
0001
0010
,
0100
0000
0000
0000
,
1001
0000
1000
0000
,
0110
0000
0001
0000
,
0110
0000
1000
0000
,
0001
0010
0100
1000
,
0001
0000
0110
0000
,
1000
0000
0110
0000
,
0001
1000
0100
0010
,
0001
1000
0001
1000
,
1001
0000
0110
0000
,
0001
0000
0110
0000
,
1000
0000
0110
0000
,
0001
1000
0100
0010
,
0001
0000
0110
0000
,
1000
0000
0110
0000
,
0001
1000
0100
0010
,
0001
0000
0000
0000
,
1001
1000
0001
0000
,
0010
0100
1000
0010
,
0100
0001
1000
0000
,
0220
0000
0000
0330
,
1001
0010
0100
1000
,
0001
0100
0001
1000
,
0100
0010
0001
1000
,
0020
0000
0130
0000
,
0010
1000
0100
0010
,
0001
1000
0001
1000
,
0100
0010
0001
0100
,
0020
0000
0130
0000
,
0001
1000
0100
0000
,
1000
0001
0100
0000
,
0001
0010
0100
0000
,
1000
0100
0010
0000
,
0001
1000
0001
0000
,
0010
0100
0010
0000
,
0001
0010
0100
1000
,
0002
0000
0000
1000
0000
2000
0000
3003
;

//---------------dance-single - ----------------
#NOTES:
     dance-single:
     :
     Medium:
     6:
     0.453,0.447,0.215,0.177,0.000:
0001
0101
0100
0110
,
1000
0010
1000
0000
0010
0100
0010
0000
,
1000
1100
0100
0110
,
0001
0100
0001
0000
2000
0000
0000
0000
,
3001
0010
0001
0010
,
0001
1000
0001
1000
,
0100
0010
0001
1000
,
0010
0100
0010
0100
0000
0001
1000
0000
,
0100
1000
0100
1000
,
0001
1000
0001
1000
,
0100
0001
0100
1000
,
0001
0010
0100
0000
,
1000
0010
1000
0000
0001
0100
0001
0000
,
0100
0010
0100
0000
0010
0100
0010
0000
,
1000
0100
0001
0100
,
1000
0001
1000
0001
0000
0100
0010
0000
,
0100
0001
0100
0000
0010
1000
0010
0000
,
0100
0010
0100
0000
0010
0100
0010
0000
,
1000
0010
0001
0010
,
2000
0000
0000
3000
,
2002
0000
0000
3003
0000
1000
0000
0001
,
0100
0000
0010
1000
0000
0000
0000
0000
,
0001
0100
0001
0000
1000
0100
1000
0000
,
0010
0100
0010
1000
0100
0010
0001
0000
,
2001
0000
0000
0000
0000
3001
0000
0100
,
0001
0000
1000
0010
0000
0000
0000
0000
,
0100
0010
0200
0000
0000
0000
0000
0301
,
0000
1000
0000
0110
0000
0000
0000
0000
,
1001
0000
1000
0100
1000
0000
0100
0010
,
0100
0000
1000
0100
1000
0000
0100
0010
,
0100
0000
1000
0100
1000
0000
0100
0010
,
0200
1300
0200
0310
,
1001
0000
0001
0010
0001
0000
0010
0100
,
0010
0000
0001
0010
0001
0000
0010
0100
,
0010
0000
0001
0010
0001
0000
0010
0100
,
0010
0001
1000
0100
0010
0001
1000
0000
,
1001
0000
0001
0100
0001
0000
0010
0100
,
0010
0000
0001
0100
0001
0000
1000
0010
,
1000
0000
0100
0010
0100
0000
1000
0010
,
2000
3001
0020
0130
,
1001
0000
1000
0010
1000
0000
0100
0010
,
0100
0000
1000
0010
1000
0000
0100
0010
,
0100
0000
1000
0100
0010
0001
0100
0000
,
0220
0000
0000
0330
,
0101
0101
1001
0100
,
0000
1000
0100
1000
0002
0000
1003
0000
,
0000
1010
1010
1001
,
0220
0000
0000
0330
,
0100
0001
0100
0000
0010
0100
0010
0000
,
1000
0100
0010
0001
1000
0010
0100
0000
,
0010
1000
0010
0000
0100
0010
0100
0000
,
0001
0010
0100
1000
0020
0000
0000
0000
,
1030
0100
1000
0000
0001
0100
0001
0000
,
0010
0100
1000
0010
0100
0001
1000
0000
,
0100
1000
0100
0000
0010
0001
0010
0000
,
0200
0000
0310
0000
,
1001
0010
0100
1000
,
0100
0001
0100
1000
,
0010
0001
0010
1000
,
0010
0100
0010
1000
,
1001
0100
0010
0001
,
0010
1000
0010
0001
,
0100
1000
0100
0001
,
0110
0000
0000
1000
0000
2002
0000
3003
;

//---------------dance-single - ----------------
#NOTES:
     dance-single:
     :
     Hard:
     9:
     0.652,0.656,0.196,0.177,0.289: // measure 1
1000
0010
0000
1000
0010
0000
1000
0010
0000
1000
0010
0000
1000
0000
0001
0000
,  // measure 2
0010
0000
0000
1000
0000
0000
0010
0000
0000
0001
0000
0000
0100
0000
0010
0000
,  // measure 3
0100
0001
0000
0100
0001
0000
0100
0001
0000
0100
0001
0000
1000
0000
0100
0000
,  // measure 4
0001
0000
0100
0000
1000
0000
0000
0000
1001
0000
0000
1001
0000
0000
0001
0000
,  // measure 5
1000
0000
0001
0010
0100
0000
0010
0001
,  // measure 6
1000
0000
0001
0100
1000
0000
0100
0000
,  // measure 7
0002
0000
1003
0100
0020
0000
0130
1000
,  // measure 8
0001
0100
0010
1000
0000
1000
0001
0001
,  // measure 9
1000
0000
0001
0100
0010
0000
0100
0001
,  // measure 10
1000
0000
0001
0010
1000
0000
0010
0000
,  // measure 11
0001
0100
0001
1000
0100
0010
0100
1000
,  // measure 12
0001
0000
0000
0000
0012
0000
0000
0000
1000
0000
0000
1000
0000
0000
1003
0000
,  // measure 13
0010
0000
0100
0000
0001
0000
0000
0000
0010
0000
0000
0010
0000
0000
0100
0000
,  // measure 14
1000
0000
1000
0000
0100
0000
0010
0000
0001
0000
0000
0100
0000
0000
0010
0000
,  // measure 15
0100
0000
0100
0000
0001
0000
0010
0000
0100
0000
0000
0010
0000
0000
0100
0000
,  // measure 16
1000
0010
0100
0001
0000
0001
1000
1000
,  // measure 17
0001
0000
0100
0000
0010
0000
0000
0000
0100
0000
0000
0100
0000
0000
0010
0000
,  // measure 18
1000
0000
1000
0000
0100
0000
0010
0000
0001
0000
0000
0100
0000
0000
0001
0000
,  // measure 19
1000
0000
0010
0000
0001
0000
0010
0000
1000
0000
0000
0001
0000
0000
1000
0000
,  // measure 20
0001
0010
0100
1000
0000
1000
0001
0000
,  // measure 21
1000
0100
0001
0100
0000
1000
0100
1000
,  // measure 22
0001
0100
1000
0100
0000
0001
0100
0001
,  // measure 23
1000
0010
0001
0010
0000
1000
0010
1000
,  // measure 24
0001
1000
1000
0100
0100
0010
0010
0001
,  // measure 25
0001
0100
1000
0100
0000
0001
0100
0001
,  // measure 26
1000
0100
0001
0100
0000
1000
0100
1000
,  // measure 27
0001
0010
0200
0000
0000
0300
0000
1010
,  // measure 28
0000
0101
0000
0110
0000
0000
0000
0000
,  // measure 29
1001
0000
0001
0100
0020
0000
1030
0100
,  // measure 30
1000
0001
1000
0000
0100
0000
0010
0000
0001
1000
0001
0000
0010
0000
0001
0000
,  // measure 31
0200
0310
0120
1030
,  // measure 32
0001
0001
0100
0100
0010
0010
1000
1000
,  // measure 33
0001
0000
1000
0010
0200
0000
0301
0010
,  // measure 34
0100
1000
0100
0000
0010
0000
0100
0000
1000
0001
1000
0000
0010
0000
0100
0000
,  // measure 35
0020
1030
0210
0301
,  // measure 36
1000
0100
0001
0100
1000
0010
0100
0000
,  // measure 37
1001
0000
0001
0010
0200
0000
1300
0001
,  // measure 38
1000
0010
1000
0000
0100
0000
0010
0000
0001
0100
0001
0000
0010
0000
0100
0000
,  // measure 39
0020
0031
0210
0301
,  // measure 40
1000
1000
0010
0010
0100
0100
0001
0001
,  // measure 41
1000
0000
0001
0100
0020
0000
1030
0001
,  // measure 42
0010
0100
0010
0000
0001
0000
0100
0000
0010
0100
0010
0000
1000
0000
0100
0000
,  // measure 43
0010
0000
0100
0000
1000
0010
0001
0010
,  // measure 44
1000
0000
0010
0000
0000
0000
0100
0010
0200
0000
0000
0000
0310
0000
0000
0000
,  // measure 45
1001
0000
0000
0000
0101
0000
0000
0000
1100
0000
0000
1000
0000
0000
0001
0000
,  // measure 46
0000
0000
0100
0000
0100
0000
0001
0000
1000
0000
0000
0100
0000
0000
0010
0000
,  // measure 47
0100
0000
0000
0000
1100
0000
0000
0000
0101
0000
0000
0001
0000
0000
1000
0000
,  // measure 48
0001
0010
0001
0010
0100
1000
0100
1000
0010
0100
0010
0100
0020
0000
0000
0000
,  // measure 49
0130
0001
0000
0100
0001
0000
1000
0100
0000
1000
0100
0000
0010
0000
0001
0000
,  // measure 50
1000
0000
0000
0010
0100
0000
0001
0000
0000
0010
0100
0000
1000
0000
0001
0000
,  // measure 51
0010
0100
0000
0010
0100
0000
1000
0010
0000
1000
0010
0000
0100
0000
0001
0000
,  // measure 52
0010
0000
0100
0000
0020
0000
0000
0000
0100
0000
0000
0100
0000
0000
0130
0000
,  // measure 53
1000
0010
0000
1000
0010
0000
0100
0010
0000
0100
0010
0000
1000
0000
0100
0000
,  // measure 54
0010
0000
0000
0001
0010
0000
0100
0000
0000
1000
0010
0000
0100
0000
0001
0000
,  // measure 55
0010
0001
0000
0010
0001
0000
0100
0010
0000
0100
0010
0000
1000
0000
1000
0000
,  // measure 56
0001
0000
0010
0000
0100
0000
0000
0000
1001
0000
0000
1001
0000
0000
0001
0000
,  // measure 57
1000
0100
0010
0001
0000
0001
1000
0001
,  // measure 58
0010
0000
0100
0000
1000
0000
0010
0000
0000
0000
0010
0000
1000
0001
1000
0001
,  // measure 59
1000
0010
0100
0001
0000
0001
1000
0001
,  // measure 60
0100
0000
0010
0000
1000
0000
0001
0000
0000
0000
0001
0000
0100
0010
0100
0010
,  // measure 61
0100
0001
0010
1000
0010
0001
0001
1000
,  // measure 62
0001
0100
1000
0100
0001
1000
1000
0001
,  // measure 63
1000
0010
0001
0010
1000
0001
0001
1000
,  // measure 64
1100
0000
0000
0110
0000
0202
0000
0303
;

//---------------dance-single - ----------------
#NOTES:
     dance-single:
     :
     Beginner:
     2:
     0.120,0.176,0.093,0.000,0.000:
1000
0000
1000
0000
,
0001
0000
0100
0000
,
0010
0000
0010
0000
,
1000
0000
0001
0000
,
1001
0000
0000
0000
,
1000
0000
0000
0000
,
0001
0000
0000
0000
,
0100
0000
0000
0000
,
0010
0000
0000
0000
,
0100
0000
0000
0000
,
0100
0000
0000
0000
,
0000
0000
0000
0000
,
0001
0000
0000
0000
,
1000
0000
0000
0000
,
0001
0000
0000
0000
,
0100
0000
0000
0000
,
0010
0000
0000
0000
,
0100
0000
0000
0000
,
0010
0000
0000
0000
,
1000
0000
0000
0000
,
1001
0000
0000
0000
,
1000
0000
0000
0000
,
0001
0000
0000
0000
,
1000
0000
0000
0000
,
0100
0000
0000
0000
,
0010
0000
0000
0000
,
0100
0000
0000
0000
,
0000
0000
0000
0000
,
1001
0000
0001
0000
,
1000
0000
0001
0000
,
0100
0000
0000
0000
,
0010
0000
0100
0000
,
0010
0000
1000
0000
,
0001
0000
1000
0000
,
0010
0000
0000
0000
,
0100
0000
0000
0000
,
1001
0000
0010
0000
,
0100
0000
1000
0000
,
0001
0000
1000
0000
,
0001
0000
0000
0000
,
1000
0000
0100
0000
,
0010
0000
0001
0000
,
1000
0000
0000
0000
,
1000
0000
0000
0000
,
1001
0000
0000
0000
,
0010
0000
0000
0000
,
0100
0000
0000
0000
,
0010
0000
0000
0000
,
1001
0000
0001
0000
,
1000
0000
0000
0000
,
1001
0000
1000
0000
,
0001
0000
0000
0000
,
0110
0000
0100
0000
,
0010
0000
0000
0000
,
0110
0000
0010
0000
,
0100
0000
0000
0000
,
0001
0000
0000
0000
,
1000
0000
0000
0000
,
0001
0000
0000
0000
,
1000
0000
0000
0000
,
0010
0000
0000
0000
,
0100
0000
0000
0000
,
0010
0000
0000
0000
,
0110
0000
0000
0000
;
