#TITLE:Believe;
#SUBTITLE:(Almighty Definitive Mix);
#ARTIST:Cher;
#TITLETRANSLIT:;
#SUBTITLETRANSLIT:;
#ARTISTTRANSLIT:;
#GENRE:;
#CREDIT:;
#BANNER:;
#BACKGROUND:;
#LYRICSPATH:;
#CDTITLE:;
#MUSIC:Cher - Believe (Almighty Definitive Mix) [Official Music Video] [HQ].ogg;
#OFFSET:0.000;
#SAMPLESTART:63.549;
#SAMPLELENGTH:11.980;
#SELECTABLE:YES;
#BPMS:0.000=136.000
;
#STOPS:
;
#BGCHANGES:;
#KEYSOUNDS:;
#ATTACKS:;

//---------------dance-single - Blank----------------
#NOTES:
     dance-single:
     :
     Hard:
     7:
     0.456,0.442,0.298,0.095,0.102,385.000,41.000,13.000,0.000,0.000,0.000,0.456,0.442,0.298,0.095,0.102,385.000,41.000,13.000,0.000,0.000,0.000:
0000
0000
0000
0000
,
0000
0000
0000
0000
,
0000
0000
0000
0000
,
0000
0000
0000
0000
,
0002
0000
0000
0000
,
0203
0000
0000
0000
,
0320
0000
0000
0000
,
2030
0000
0000
0000
,
3001
0000
0100
0010
0100
0010
1000
0000
,
0100
0010
0001
0000
0100
0010
1000
0000
,
0110
0000
0001
0010
0100
1000
0010
0000
,
0200
0000
1000
0000
0001
0000
0310
1000
,
0100
0000
0010
0001
0100
0000
0010
1000
,
0001
0000
0100
0001
1000
0000
0101
0000
,
0010
1000
0100
0000
0110
0000
0010
0001
,
0000
0100
0000
0010
0000
1001
0000
0000
,
0010
0000
1000
0000
0000
0100
0000
0000
1000
0000
0000
0001
0000
0000
0100
0000
,
0001
0000
0010
0000
0000
0100
0000
0000
0010
0000
0000
0001
0000
0000
0100
0000
,
0010
0000
1000
0000
0000
0010
0000
0000
0100
0000
0000
0001
0000
0000
0010
0000
,
0110
1001
1100
0011
,
0101
0000
0010
1000
0100
0010
0001
0000
,
0100
0000
0001
0020
0000
0100
0130
0000
,
1000
0000
0110
0000
0001
0100
1000
0100
,
0002
0000
0103
0010
0000
1000
0100
0020
,
0000
0001
0130
1001
,
0100
1000
0010
0000
0100
0001
0011
0000
,
1000
0000
0000
0001
0000
0000
0100
0000
0010
0000
0000
0000
1001
0000
0000
0000
,
1000
0100
1000
0100
0010
0001
0010
0001
,
0100
0010
1000
0100
0001
0100
1000
0010
,
0100
0001
1000
0000
0010
1000
0001
0000
,
0010
0100
1000
0010
0001
0010
1000
0100
,
0010
0001
1000
0000
0100
1000
0001
0000
,
0100
0010
1000
0001
0100
0000
0010
1000
,
0100
0100
0000
1001
0000
0010
0010
0000
,
0001
0000
0100
0010
1000
0100
0001
0100
,
1000
0000
0010
0000
0100
0000
0000
0100
0010
0000
1000
0000
1100
0000
0000
0000
,
0001
0100
0001
0100
0010
1000
0010
1000
,
0100
0010
0100
0010
0001
1000
0001
0000
,
0100
0000
1000
0100
0001
0010
0100
0000
,
0010
0000
1000
0010
0001
0100
0010
0000
,
1000
0100
0110
0000
0001
0100
0110
0000
,
1000
0001
0100
0010
0100
0001
1010
0000
,
0100
0001
0010
0000
0110
0000
0100
1000
,
0000
0010
0000
0100
0000
1001
0000
0000
,
1000
0010
1000
0010
0100
0001
0100
0001
,
0010
0100
0010
0100
1000
0001
1000
0000
,
0010
0000
0001
0010
1000
0100
0010
0000
,
0100
0000
0001
0100
1000
0010
0100
0000
,
0001
0010
0110
0000
1000
0010
0110
0000
,
0001
1000
0010
0100
0010
1000
0101
0000
,
0010
1000
0100
0000
0110
0000
0010
0001
,
0000
0100
0000
0010
0000
1000
0010
0100
,
0001
0000
0000
0010
0000
0000
0100
0000
0000
1000
0000
0000
0010
0000
0000
0000
,
0100
0000
0000
0001
0000
0000
0010
0000
0000
0100
0000
0000
1000
0000
0000
0000
,
0010
0000
0000
1000
0000
0000
0100
0000
0000
0010
0000
0000
0001
0000
0000
0000
,
0100
0000
0000
0010
0000
0000
1000
0000
0000
0001
0000
0000
0100
0000
0000
0000
,
0001
0000
0000
0100
0000
0000
0010
0000
0000
1000
0000
0000
0010
0000
0000
0000
,
1000
0000
0000
0010
0000
0000
0100
0000
0000
0001
0000
0000
0010
0000
0000
0000
,
0001
1000
0100
0000
1100
0000
0100
0010
,
0000
0001
0000
0100
0000
1001
0000
0000
,
0001
0000
0100
0001
0010
0100
0000
2100
,
0000
0000
3010
0100
0000
0001
1000
0100
,
0000
0101
0100
1010
,
0100
0000
1001
0000
0010
0001
0100
0020
,
0000
0000
1030
0002
0000
0000
0103
2000
,
0000
0000
3100
0002
0000
0010
0000
0103
,
0010
1000
0001
0000
0101
0000
0100
0010
,
0000
1000
0000
0100
0000
1001
0000
0000
,
1000
0000
0000
1000
0000
0000
0010
0000
0100
0000
0000
0100
0000
0000
0001
0000
,
1000
0000
0000
1000
0000
0000
0100
0000
0010
0000
0000
0010
0000
0000
0001
0000
,
1000
0000
0000
1000
0000
0000
0001
0000
0100
0000
0000
0100
0000
0000
0010
0000
,
1000
0000
0000
1000
0000
0000
0001
0000
0010
0000
0000
0010
0000
0000
0100
0000
,
1000
1010
0001
0110
,
1000
0011
0100
1001
,
0010
0110
1000
0011
,
0100
1001
0100
1010
,
0101
0000
0000
0000
;

//---------------dance-single - Blank----------------
#NOTES:
     dance-single:
     :
     Beginner:
     2:
     0.187,0.194,0.109,0.080,0.000,154.000,15.000,11.000,0.000,0.000,0.000,0.187,0.194,0.109,0.080,0.000,154.000,15.000,11.000,0.000,0.000,0.000:
0000
0000
0000
0000
,
0000
0000
0000
0000
,
0000
0000
0000
0000
,
0000
0000
0000
0000
,
2000
0000
3000
0000
,
0002
0000
0003
0000
,
0200
0000
0300
0000
,
0020
0000
0030
0000
,
1000
0000
0100
0000
,
1000
0000
0010
0000
,
0100
0000
0001
0000
,
0100
0000
0010
0000
,
1000
0000
0100
0000
,
0010
0000
0001
0000
,
1000
1000
1000
0000
,
0010
0010
0010
0000
,
0100
0000
1001
0000
,
0010
0000
1001
0000
,
0100
0000
1001
0000
,
0010
0000
1001
0000
,
1000
0000
0010
0000
,
0100
0100
0100
0000
,
0001
0000
0010
0000
,
0100
0100
0100
0000
,
1000
1000
1000
0000
,
0001
0001
0001
0000
,
0100
0000
0010
0000
,
1000
0000
1001
0000
,
0001
0001
0001
0000
,
1000
0000
0010
0000
,
0100
0100
0100
0000
,
0001
0000
1000
0000
,
0100
0000
0010
0000
,
0001
0001
0001
0000
,
0100
0000
0010
0000
,
1000
1000
1000
0000
,
0010
0000
0110
0000
,
0100
0000
0110
0000
,
1000
0000
0100
0000
,
0001
0000
0010
0000
,
1000
0000
1001
0000
,
0001
0000
1001
0000
,
0010
0010
0010
0010
,
0010
0010
0010
0000
,
0100
0000
0110
0000
,
0010
0000
0110
0000
,
0001
0000
0010
0000
,
1000
0000
0100
0000
,
0001
0000
1001
0000
,
1000
0000
1001
0000
,
0100
0100
0100
0100
,
0100
0100
0100
0000
,
1000
0000
0010
0000
,
0001
0000
0010
0000
,
1000
0000
0100
0000
,
0001
0000
0100
0000
,
1000
0000
0010
0000
,
0001
0000
0010
0000
,
1000
1000
1000
0000
,
0001
0001
0001
0000
,
0200
0000
0300
0000
,
0020
0000
0030
0000
,
2000
0000
3000
0000
,
0002
0000
0003
0000
,
0020
0000
0030
0000
,
0200
0000
0300
0000
,
1000
1000
1000
1000
,
2000
0000
3000
0000
,
0001
0000
0100
0000
,
0001
0000
0100
0000
,
0010
0000
1000
0000
,
0010
0000
1000
0000
,
0001
0000
0010
0000
,
0100
0000
1000
0000
,
0010
0000
0100
0000
,
0001
0000
1001
0000
,
0110
0000
0000
0000
;

//---------------dance-single - Blank----------------
#NOTES:
     dance-single:
     :
     Easy:
     4:
     0.274,0.304,0.226,0.218,0.000,203.000,31.000,30.000,0.000,0.000,0.000,0.274,0.304,0.226,0.218,0.000,203.000,31.000,30.000,0.000,0.000,0.000:
0000
0000
0000
0000
,
0000
0000
0000
0000
,
0000
0000
0000
0000
,
0000
0000
0000
0000
,
2000
0000
0000
0000
,
3002
0000
0000
0000
,
0023
0000
0000
0000
,
0230
0000
0000
0000
,
1300
0010
0100
0010
,
1000
0001
0010
0100
,
1000
0000
1010
0000
,
0010
0000
0101
0000
,
0002
0000
0023
0000
,
0230
0000
2300
0000
,
3010
0100
0010
1000
,
0001
0010
0100
0000
,
1000
0000
1000
0000
,
0001
0000
0001
0000
,
0100
0000
0100
0000
,
0010
0010
0100
0100
,
0001
0000
1000
0100
,
0001
0100
1000
0000
,
0010
0000
0100
1000
,
0100
0001
0010
0000
,
0100
1100
1100
0000
,
1000
1010
1010
0000
,
0010
0100
0001
0000
,
0010
0100
1000
0000
,
0002
0203
0320
2030
,
3001
0010
0100
0000
,
2000
3020
0230
0302
,
0013
0100
1000
0000
,
0001
0100
0110
0000
,
1000
0001
0101
0000
,
0001
0000
0010
0100
,
1000
0010
0001
0100
,
1000
0010
0100
0001
,
0010
0100
1000
0010
,
0110
0000
0101
0000
,
1100
0000
0011
0000
,
1000
0100
0001
0010
,
0001
0100
1000
0000
,
1000
0010
0001
1000
,
0010
0001
0100
0000
,
0001
0010
0100
1000
,
0010
0100
0001
1000
,
1100
0000
0011
0000
,
0101
0000
0110
0000
,
1000
0010
0001
0100
,
0001
0010
1000
0000
,
0001
0100
1000
0001
,
0100
1000
0001
0000
,
1000
0100
1100
1100
,
0010
0100
0101
0000
,
0001
0010
0110
0110
,
1000
0001
0110
0000
,
0001
1000
1100
1100
,
0010
0001
0101
0000
,
1000
0100
0010
0001
,
0100
0010
1000
0000
,
0002
0000
0203
0000
,
0320
0000
2030
0000
,
3002
0000
0023
0000
,
0230
0000
2300
0000
,
3002
0000
0203
0000
,
0320
0000
2030
0000
,
3001
0010
0100
1000
,
2002
0000
0000
3003
,
1000
0000
0101
0000
,
1000
0000
0101
0000
,
0010
0000
1100
0000
,
0010
0000
1100
0000
,
0001
0100
0000
0100
,
0000
0100
0000
0100
,
0000
0100
0000
0100
,
0000
0100
0000
0100
,
1001
0000
0000
0000
;

//---------------dance-single - Blank----------------
#NOTES:
     dance-single:
     :
     Medium:
     6:
     0.400,0.415,0.284,0.400,0.000,291.000,39.000,55.000,0.000,0.000,0.000,0.400,0.415,0.284,0.400,0.000,291.000,39.000,55.000,0.000,0.000,0.000: // measure 0
0000
0000
0000
0000
,  // measure 1
0000
0000
0000
0000
,  // measure 2
0000
0000
0000
0000
,  // measure 3
0000
0000
0000
0000
,  // measure 4
2000
0000
0000
0000
,  // measure 5
3200
0000
0000
0000
,  // measure 6
0320
0000
0000
0000
,  // measure 7
0032
0000
0000
0000
,  // measure 8
1003
0000
0001
0000
1000
0010
0000
0200
,  // measure 9
0000
0000
0301
1000
0000
0010
0100
0002
,  // measure 10
0000
0000
0000
2003
0000
0000
3100
0000
,  // measure 11
0020
0000
0100
0000
1030
0000
0001
0200
,  // measure 12
0000
0000
0310
2000
0000
0000
3100
0020
,  // measure 13
0000
0000
0031
2000
0000
3010
0000
0100
,  // measure 14
0001
0000
1000
0000
1010
0000
0100
0001
,  // measure 15
0000
0010
0000
0100
0000
1001
0000
0000
,  // measure 16
1000
0100
0000
0100
0010
0001
0000
0001
,  // measure 17
0100
0010
0000
0010
1000
0001
0000
0001
,  // measure 18
0100
1000
0000
1000
0100
0001
0000
0001
,  // measure 19
0010
0100
1001
0110
,  // measure 20
2000
0000
0000
0000
3001
0100
0010
0000
,  // measure 21
2000
3200
0302
0023
,  // measure 22
2030
0000
0000
0000
3001
0010
0100
0000
,  // measure 23
2000
3020
0032
0203
,  // measure 24
1300
1010
0101
0000
,  // measure 25
0001
0011
1100
0000
,  // measure 26
1000
0100
0000
0010
0002
0000
0203
0000
,  // measure 27
0310
0000
1000
0000
0001
0010
0100
0000
,  // measure 28
1000
0000
0010
0001
0000
0100
1000
0010
,  // measure 29
0000
0100
0000
0001
0000
0010
0100
0000
,  // measure 30
0001
0000
0100
1000
0000
0010
0001
0100
,  // measure 31
0000
0010
0000
1000
0000
0100
0010
0000
,  // measure 32
0001
0000
0100
0010
1000
0000
0000
0000
,  // measure 33
0001
0010
0000
0110
0000
0000
1001
0000
,  // measure 34
1010
0000
0000
0000
1000
0100
0001
0100
,  // measure 35
1000
0000
0010
0100
0000
1001
0000
0000
,  // measure 36
0001
0100
0001
0000
0100
1000
0100
0000
,  // measure 37
1000
0010
1000
0000
0010
0001
0010
0000
,  // measure 38
0001
0000
0100
0010
0000
0100
0002
0000
,  // measure 39
2003
0000
3200
0000
0320
0000
0031
0200
,  // measure 40
0000
0000
0310
2000
0000
0000
3100
0020
,  // measure 41
0000
0000
0031
2000
0000
3010
0000
0100
,  // measure 42
0001
0010
0100
0000
1000
0000
0100
0010
,  // measure 43
0000
0001
0000
1000
0000
0110
0000
0000
,  // measure 44
0001
0010
0001
0000
0010
1000
0010
0000
,  // measure 45
1000
0100
1000
0000
0100
0001
0100
0000
,  // measure 46
0001
0000
0010
0100
0000
0010
0002
0000
,  // measure 47
2003
0000
3020
0000
0230
0000
0301
0020
,  // measure 48
0000
0000
0130
2000
0000
0000
3001
0200
,  // measure 49
0000
0000
0310
2000
0000
3010
0000
0100
,  // measure 50
0001
0010
0100
0000
1000
0000
0001
0010
,  // measure 51
0000
0100
0000
1000
0000
0110
0000
0000
,  // measure 52
0001
1000
0110
1001
,  // measure 53
0010
1000
0100
0000
0010
0001
0100
0000
,  // measure 54
1000
0001
0110
1001
,  // measure 55
0010
0001
0100
0000
0010
1000
0100
0000
,  // measure 56
0001
1000
0110
1001
,  // measure 57
0100
1000
0010
0000
0100
0001
0010
0000
,  // measure 58
0100
1000
0001
0000
0110
0000
1000
0002
,  // measure 59
0000
0023
0000
0230
0000
1300
0000
0000
,  // measure 60
0002
0000
2003
0000
,  // measure 61
3200
0000
0302
0000
,  // measure 62
2003
0000
3020
0000
,  // measure 63
0032
0000
0203
0000
,  // measure 64
0320
0000
2030
0000
,  // measure 65
3020
0000
0032
0000
,  // measure 66
0013
1000
0100
0000
0010
0000
0001
0100
,  // measure 67
0000
0010
0000
1000
0000
1001
0000
0000
,  // measure 68
0010
0110
1000
1001
,  // measure 69
0010
0011
0100
1001
,  // measure 70
0010
0110
1000
1100
,  // measure 71
0010
0011
0100
1001
,  // measure 72
0000
0110
0000
1100
,  // measure 73
0000
0011
0000
0101
,  // measure 74
0000
0110
0000
1001
,  // measure 75
0000
1100
0000
0011
,  // measure 76
1001
0000
0000
0000
;
