#TITLE:Bad Romance;
#SUBTITLE:(DJ Dan Remix);
#ARTIST:Lady Gaga;
#TITLETRANSLIT:;
#SUBTITLETRANSLIT:;
#ARTISTTRANSLIT:;
#CREDIT:;
#BANNER:BadRomanceRmx.png;
#BACKGROUND:BadRomanceRmx-bg.png;
#LYRICSPATH:;
#CDTITLE:;
#MUSIC:BadRomanceRmx.mp3;
#OFFSET:-1.060;
#SAMPLESTART:100.035;
#SAMPLELENGTH:10.980;
#SELECTABLE:YES;
#BPMS:0.000=128.000;
#STOPS:;
#BGCHANGES:;

//---------------dance-single - ----------------
#NOTES:
     dance-single:
     :
     Hard:
     8:
     0.502,0.491,0.284,0.181,0.095: // measure 1
0000
0000
0000
0000
,  // measure 2
0000
0000
0000
0000
,  // measure 3
0000
0000
0000
0000
,  // measure 4
0000
0000
0000
0000
1000
0001
1000
0001
,  // measure 5
2000
0010
3200
0010
,  // measure 6
2300
0010
3200
0010
,  // measure 7
1300
0001
0100
0000
0001
1000
0100
0000
,  // measure 8
1000
0001
0100
0010
0100
0001
0010
0000
,  // measure 9
0110
0000
0000
0010
0100
0000
1000
0000
0010
0000
0000
0010
1000
0000
0100
0000
,  // measure 10
0010
0000
0000
0010
0100
0000
1000
0000
0010
0000
0100
0000
0001
0000
0010
0000
,  // measure 11
0110
0000
0000
0010
0001
0000
0100
0000
0010
0000
0000
0010
0100
0000
0001
0000
,  // measure 12
0010
0100
0010
1000
0010
0000
0110
0000
,  // measure 13
0020
0100
1000
0031
,  // measure 14
1000
0000
0010
0100
0000
0000
0010
0100
0000
0000
0001
1000
0000
0000
0100
0010
,  // measure 15
0200
1000
0001
0010
,  // measure 16
1300
0000
0100
0010
0000
0000
0100
0010
0000
0000
0001
1000
0000
0000
0010
0100
,  // measure 17
0020
1000
0001
1000
,  // measure 18
0130
0000
0001
0010
0000
0000
0100
1000
0000
0000
0100
0010
0000
0000
0100
1000
,  // measure 19
0200
0000
0001
0000
1000
0000
0001
0300
,  // measure 20
0010
0100
0010
0100
1000
0001
1000
0000
,  // measure 21
0010
0100
0001
0000
0100
0010
0001
0000
,  // measure 22
0010
1000
0100
0010
0001
0100
1001
0000
,  // measure 23
1000
0100
0010
0000
0100
0010
1000
0000
,  // measure 24
0010
0001
0100
0010
1000
0010
0100
0001
,  // measure 25
0020
1000
0032
0103
,  // measure 26
0011
0000
1100
0000
0011
0010
0100
1000
,  // measure 27
0020
0001
2030
0100
,  // measure 28
3020
0000
0200
0330
,  // measure 29
0010
0100
0001
0000
0010
1000
0010
0000
,  // measure 30
0001
0100
0010
1000
0100
0010
0001
0000
,  // measure 31
0010
0100
1000
1000
0001
0001
0100
0100
,  // measure 32
0010
0001
0010
1000
0000
0010
0100
0001
,  // measure 33
0020
1000
0032
0103
,  // measure 34
0011
0000
1100
0000
0011
0010
0100
1000
,  // measure 35
1010
0000
0101
0000
1010
0010
0100
0001
,  // measure 36
0020
1000
0032
0100
,  // measure 37
0013
0100
0010
0100
1000
0001
1000
0001
,  // measure 38
0100
0001
0100
0010
1000
0010
1000
0100
,  // measure 39
0010
0100
0010
0001
1000
0001
1000
0002
,  // measure 40
0100
0000
0100
0000
0100
0000
0100
0103
,  // measure 41
0010
1000
0001
0000
1010
0000
0101
0000
,  // measure 42
0010
1000
0100
0000
0011
0000
1100
0000
,  // measure 43
0001
1000
0100
0000
1000
0010
0100
0000
,  // measure 44
0001
0010
0100
0000
1000
0100
0001
1000
,  // measure 45
0010
0001
0100
0000
1010
0000
0101
0000
,  // measure 46
0001
0010
0100
0000
0011
0000
1100
0000
,  // measure 47
0010
0100
1000
0000
0010
0100
0001
0000
,  // measure 48
1000
0100
0010
0000
0001
0100
1000
0001
,  // measure 49
0010
1000
0010
0100
0001
0010
0001
0100
,  // measure 50
0010
1000
0100
0010
0011
0000
1100
0000
,  // measure 51
0200
0000
1300
0010
0100
0001
0000
0011
,  // measure 52
0000
1100
0000
1000
0001
0100
1000
0001
,  // measure 53
0010
1000
0010
0100
0001
0010
0100
1000
,  // measure 54
0010
0100
0010
1000
1010
0000
0101
0000
,  // measure 55
2000
0000
3100
0010
0001
0100
0000
1010
,  // measure 56
0000
0101
0000
1000
0010
0100
0010
0100
,  // measure 57
0110
0000
0000
0100
0001
0000
0010
0000
0100
0000
0000
0100
0010
0000
0001
0000
,  // measure 58
0100
0000
0000
0100
0001
0000
0010
0000
0100
0000
1000
0000
0010
0000
0100
0000
,  // measure 59
0110
0000
0000
0100
0010
0000
1000
0000
0100
0000
0000
0100
1000
0000
0010
0000
,  // measure 60
0001
0010
0100
1000
0100
0000
0110
0000
,  // measure 61
0110
0000
0000
0000
;

//---------------dance-single - ----------------
#NOTES:
     dance-single:
     :
     Medium:
     5:
     0.422,0.414,0.241,0.207,0.000:
0000
0000
0000
0000
,
0000
0000
0000
0000
,
0000
0000
0000
0000
,
0000
0000
0000
0000
,
2000
0100
0010
3200
,
0010
0001
0010
1300
,
0011
0000
0001
0100
0010
1000
0000
0100
,
0010
0001
0010
0100
1000
0010
0100
0000
,
0110
0000
0010
1000
0100
0000
0100
1000
,
0010
0000
0100
0001
0010
0100
1000
0100
,
0110
0000
0010
0001
0100
0000
0100
0001
,
0010
0100
1000
0010
0200
0000
0310
0000
,
0110
0000
1010
0000
0010
0100
0001
0000
,
1000
0100
0100
0000
1000
0010
0010
0000
,
0110
0000
0101
0000
0001
0010
0100
0000
,
1000
0001
0001
0000
0010
0100
0100
0000
,
0011
0000
0110
0000
0100
1000
0010
0000
,
1000
0001
0001
0000
0100
0010
0010
0000
,
0110
0000
1001
0000
1000
0001
1000
0000
,
0100
0010
0100
0010
0100
1000
0001
0000
,
2000
0010
3200
0010
,
1300
0001
0100
0000
0001
1000
1000
0000
,
0002
0010
0203
0010
,
0301
0010
0100
0000
1000
0010
0100
0000
,
0010
1000
0100
0000
0110
0000
0110
0000
,
0020
0000
0230
0000
0310
0100
1000
0100
,
0020
0001
0230
1000
,
0320
0000
0000
0030
,
0010
0001
1000
0000
0010
0100
0010
0000
,
1000
0100
0010
0000
0001
0000
1001
0000
,
1000
0001
0100
0000
0010
1000
0010
0000
,
0100
0001
0010
0000
0100
0000
1001
0000
,
1000
0100
1000
0000
0001
0000
0001
0000
,
1010
0101
1010
1000
,
0011
0000
1100
0000
0011
0000
0001
1000
,
0200
0010
0010
0310
,
0100
0000
0100
0000
0100
0000
0100
1000
,
0001
0000
0001
0000
0001
0000
0001
0100
,
0010
0000
0010
0000
0010
0000
0010
1000
,
0100
0000
0100
0000
0100
0000
0010
0100
,
0010
1100
0010
0101
,
1000
0010
1000
0000
0001
0100
0001
0000
,
0010
1000
0010
0000
0001
0100
0010
0000
,
1000
0100
1000
0000
0100
0010
0100
1000
,
0001
1100
0010
0101
,
0001
0010
0001
0000
1000
0100
1000
0000
,
0010
0001
0010
0000
1000
0001
0100
0000
,
0010
1000
0100
0000
0010
0001
0010
0001
,
2000
0000
0000
3010
0100
0001
0020
0000
,
0000
0000
0000
0031
0100
0000
0020
0000
,
1030
0000
0001
0100
0001
1000
0000
0020
,
0000
0000
0000
0000
0130
0010
1000
0001
,
0020
0000
0000
0130
1000
0001
0200
0000
,
0000
0000
0000
0310
2000
0000
3100
0000
,
0020
0000
0031
1000
0010
0200
0000
0002
,
0000
0000
0000
0303
,
0110
0000
0010
1000
0100
0000
0100
1000
,
0010
0000
0010
1000
0100
0010
0001
0010
,
0110
0000
0010
0001
0100
0000
0100
0001
,
0010
0100
1000
0100
0020
0000
0130
0000
,
0110
0000
0000
0000
;

//---------------dance-single - ----------------
#NOTES:
     dance-single:
     :
     Easy:
     3:
     0.188,0.259,0.078,0.034,0.000:
0000
0000
0000
0000
,
0000
0000
0000
0000
,
0000
0000
0000
0000
,
0000
0000
0000
0000
,
0010
0000
0010
0000
,
1000
0000
0001
0000
,
0001
0000
1000
0000
,
1000
0000
0010
0000
,
0100
0000
0010
0000
,
0001
0000
1000
0000
,
0010
0000
1000
0000
,
0202
0000
0000
0303
,
0100
0000
0010
0000
,
1000
0000
0000
1000
,
0000
0000
1000
0000
,
0000
0010
0000
0000
,
1000
0000
1000
0000
,
0001
0000
0100
0000
,
1000
0000
0001
0000
,
0010
0000
1000
0000
,
0010
0100
0100
0000
,
0001
0001
0001
0000
,
0100
0100
1000
0000
,
0001
0001
0100
0000
,
0001
0100
0100
0000
,
0010
0000
1000
1000
,
1000
0000
1000
0001
,
0010
0000
1000
0000
,
0100
0000
1000
0000
,
1000
0000
1000
0000
,
0100
0000
0010
0000
,
1000
0000
1000
0000
,
0100
0000
1000
0000
,
0001
1000
0010
0001
,
0010
1000
0001
1000
,
0001
1000
0000
0100
,
0000
0000
0010
0000
,
0001
0000
0100
0000
,
1001
0020
0030
0110
,
0000
1100
0000
0110
,
0000
0011
0000
0010
,
0100
0010
0001
0010
,
0001
0010
0001
0100
,
0100
0100
0001
1000
,
0100
1000
0100
0000
,
1000
0000
0010
0000
,
0010
1000
1000
1000
,
0010
0100
0010
0100
,
0100
0010
1000
0100
,
0001
1000
0010
1000
,
0010
0100
0100
0000
,
0000
0000
0000
0101
,
0000
0000
0000
0000
,
0011
0000
0000
0000
,
2000
0000
0000
3010
,
1000
0001
1000
0100
,
1000
0001
1000
1000
,
1000
1000
0010
1000
,
1000
0000
0010
0000
,
0001
0000
0110
0000
,
0100
0000
0000
0000
;
