#TITLE:愛・おぼえていますか;
#SUBTITLE:;
#ARTIST:Chika Anzai;
#TITLETRANSLIT:Ai, Oboete Imasu Ka;
#SUBTITLETRANSLIT:;
#ARTISTTRANSLIT:;
#CREDIT:;
#BANNER:Ai, Oboete Imasu Ka.png;
#BACKGROUND:Ai, Oboete Imasu Ka-bg.png;
#LYRICSPATH:;
#CDTITLE:;
#MUSIC:Ai Oboete Imasu Ka.mp3;
#OFFSET:-0.032;
#SAMPLESTART:50.525;
#SAMPLELENGTH:14.020;
#SELECTABLE:YES;
#BPMS:0.000=152.000;
#STOPS:;
#BGCHANGES:;

//---------------dance-single - ----------------
#NOTES:
     dance-single:
     :
     Beginner:
     1:
     0.113,0.150,0.011,0.000,0.000:
0000
0000
0000
0000
,
0000
0000
0000
0000
,
0000
0000
0000
0000
,
0000
0000
0000
0000
,
1000
0000
0000
0000
,
0001
0000
0001
0000
,
0001
0000
0000
0000
,
0100
0000
0100
0000
,
0100
0000
0000
0000
,
0010
0000
0000
0000
,
1000
0000
1000
0000
,
1000
0000
0000
0000
,
0001
0000
0000
0000
,
0010
0000
0000
0000
,
0100
0000
0000
0000
,
1000
0000
1000
0000
,
1000
0000
0000
0000
,
0001
0000
0000
0000
,
0010
0000
0010
0000
,
0010
0000
0000
0000
,
0100
0000
0000
0000
,
1000
0000
0000
0000
,
0010
0000
0000
0000
,
0100
0000
0100
0000
,
0100
0000
0000
0000
,
0001
0000
0000
0000
,
0010
0000
0010
0000
,
0010
0000
0000
0000
,
0100
0000
0000
0000
,
1000
0000
0000
0000
,
0001
0000
0001
0000
,
1000
0000
1000
0000
,
0001
0000
0000
0000
,
0100
0000
0100
0000
,
0100
0000
0000
0000
,
0010
0000
0010
0000
,
0010
0000
0000
0000
,
1000
0000
1000
0000
,
1000
0000
0000
0000
,
0001
0000
0001
0000
,
0001
0000
0000
0000
,
0100
0000
0100
0000
,
0100
0000
0000
0000
,
0010
0000
0010
0000
,
0010
0000
0000
0000
,
1000
0000
0000
0000
,
0001
0000
0000
0000
,
0010
0000
0010
0000
,
0010
0000
0000
0000
,
0100
0000
0100
0000
,
0100
0000
0000
0000
,
1000
0000
1000
0000
,
1000
0000
0000
0000
,
0010
0000
0010
0000
,
0110
0000
0000
0000
;

//---------------dance-single - ----------------
#NOTES:
     dance-single:
     :
     Easy:
     3:
     0.278,0.271,0.011,0.011,0.000:
0000
0000
0000
0000
,
0000
0000
0000
0000
,
0000
0000
0000
0000
,
0000
0000
0000
0000
,
1000
0000
0001
0100
,
0001
1000
0010
0000
,
1000
0000
0100
1000
,
0001
0010
0001
0100
,
0010
1000
0100
1000
,
0001
0010
0001
0100
,
0010
1000
0100
0010
,
0001
0000
0100
0000
,
0010
1000
0010
0000
,
0100
0001
0100
0000
,
0001
0000
0010
0100
,
1000
0100
0010
0001
,
0100
0010
1000
0010
,
0100
0001
0010
0001
,
0100
0010
1000
0100
,
1000
0001
0010
0001
,
0100
0000
0010
1000
,
0100
0000
0010
0001
,
0100
0000
0010
1000
,
0001
0100
0001
1000
,
0100
0100
1000
1000
,
0010
0100
0001
0010
,
0001
0001
1000
1000
,
0010
0100
0001
0010
,
0100
0100
1000
1000
,
0010
0010
0100
0100
,
0001
0010
1000
0010
,
0001
0100
1000
0100
,
0001
0010
0100
1000
,
0010
0100
0000
0001
,
0100
0010
1000
0100
,
0010
0001
0000
1000
,
0010
1000
0001
0010
,
0001
0100
0000
0010
,
1000
0100
1000
0001
,
0010
0001
0000
0100
,
0010
1000
0010
0100
,
0001
0010
0000
0100
,
1000
0100
0010
0001
,
1000
0010
0000
0100
,
0001
0000
0000
0010
0000
0000
0200
0000
,
0000
0000
0000
0300
,
1000
0000
0010
0100
,
0001
0010
0001
0000
,
0100
0000
0010
1000
,
0100
1000
0001
0010
,
1000
0000
0010
0001
,
0100
0010
1000
0000
,
0100
0000
1000
0001
,
0010
0001
0100
0010
,
1001
0000
0000
0000
;

//---------------dance-single - ----------------
#NOTES:
     dance-single:
     :
     Medium:
     6:
     0.449,0.451,0.345,0.111,0.000:
0000
0000
0000
0000
,
0000
0000
0000
0000
,
0000
0000
0000
0000
,
0000
0000
0000
0000
,
2000
0000
3001
0000
0100
0000
0010
1000
,
0000
0010
0100
0000
0001
0000
0101
0000
,
2000
0000
3001
0000
1000
0000
0010
0100
,
0000
0001
0010
0000
0011
0000
0110
0000
,
1100
0000
1000
0000
0010
0100
0010
0000
,
0100
0000
0001
0000
1000
0100
0000
0100
,
1000
0000
0010
0000
0100
0001
0100
0000
,
0010
0000
1000
0010
0000
0100
0001
0000
,
0101
0000
0001
0000
0010
0001
0010
0000
,
1100
0000
1000
0000
0010
1000
0010
0000
,
0101
0000
0001
0010
0001
0000
0100
0010
,
0000
1000
0100
0000
0010
0000
0001
0000
,
1001
0000
1000
0000
0001
0100
0001
0000
,
1000
0000
0100
0000
0010
0001
0000
0001
,
0010
0000
0100
0000
1000
0010
1000
0000
,
0101
0000
0001
0010
0000
0010
0100
0000
,
1100
0000
1000
0000
0010
0100
0010
0000
,
0110
0000
0100
0000
0001
0100
0001
0000
,
0011
0000
1000
0100
1000
0000
0001
0100
,
0000
0010
1000
0000
0001
0000
0010
0000
,
0110
0000
0100
0000
1000
0100
0000
0010
,
0000
0001
0000
1000
0010
0000
1010
0000
,
0010
0100
0010
0000
0100
0000
0001
0100
,
0000
0001
0000
0010
0100
0000
1000
0000
,
1100
1000
0100
0010
,
0002
0103
0020
1030
,
0100
1000
0100
0000
0010
0001
0010
0000
,
0001
0100
0001
0000
1000
0010
1000
0000
,
0001
1000
0001
0000
0100
0000
0010
1000
,
0000
0010
0100
0000
0001
0000
0101
0000
,
0001
0010
0001
0000
0010
0000
0100
1000
,
0000
0100
0010
0000
0001
0000
1001
0000
,
0001
0100
0001
0000
1000
0000
0010
1000
,
0000
0001
0010
0000
0100
0000
1100
0000
,
1000
0010
1000
0000
0010
0000
0100
0001
,
0000
0010
0001
0000
0100
0000
0110
0000
,
0010
1000
0010
0000
1000
0000
0100
1000
,
0000
0001
0010
0000
0001
0000
0101
0000
,
0100
0010
0100
0000
0010
0000
1000
0001
,
0000
0010
0001
0000
0100
0000
0010
0000
,
1010
0000
0000
0101
0000
0000
2002
0000
,
0000
0000
0000
3003
,
2000
0000
3010
0000
1000
0010
0100
0010
,
0000
1000
0001
0000
0010
0000
0011
0000
,
0002
0000
0103
0000
0001
0100
0010
1000
,
0000
0010
0100
0000
0101
0000
0011
0000
,
0210
0000
0310
0000
0100
1000
0010
1000
,
0000
0010
0100
0000
0001
0000
0101
0000
,
0002
0000
0013
0000
0001
0010
0100
1000
,
0000
0010
0100
0000
1001
0000
0110
0000
,
1001
0000
0000
0000
;

//---------------dance-single - ----------------
#NOTES:
     dance-single:
     :
     Hard:
     8:
     0.601,0.551,0.290,0.390,0.078:
0000
0000
0000
0000
,
0000
0000
0000
0000
,
0000
0000
0000
0000
,
0000
0000
0000
0000
,
1001
0000
0001
0100
0010
0100
0001
0020
,
0000
0000
0100
0000
0130
0000
0000
0000
0110
0000
0000
0000
0100
0000
1000
0001
,
1000
0000
0001
0100
0010
0100
0001
0020
,
0000
0100
0130
0000
1100
0000
0101
0000
,
1001
0000
0001
0100
0010
0100
0001
0010
,
0100
0000
0010
0000
0001
0000
0100
0000
0010
0000
0000
1000
0000
0000
0001
0000
,
0000
1000
0100
0010
0001
1000
0010
0100
,
0002
0000
0103
0020
0000
1000
1030
0010
,
0100
0002
0000
1003
0000
0001
0010
0100
,
0010
0001
0100
0010
1000
0000
0001
0100
,
0110
0000
0010
1000
0001
0000
0100
0002
,
0000
0010
0013
0000
0011
0000
1100
0000
,
0101
0000
0100
0010
1000
0010
0001
0010
,
1000
0100
0001
0200
0000
1300
0010
0001
,
0010
0000
1000
0100
0010
0001
0010
0100
,
2000
0000
3001
0200
0000
0010
0310
0100
,
0001
1000
0000
0010
0100
0001
0100
0010
,
1000
0001
0000
1000
0100
0000
0001
0100
,
1100
0000
1000
0010
0001
0000
0010
2000
,
0000
0000
0001
0000
3001
0000
0000
0000
1001
0000
0000
0000
0010
0100
0010
0100
,
0010
0000
1000
0010
0100
0002
0000
1003
,
0000
1001
0000
1000
0200
0000
0310
0100
,
1000
0001
0100
0010
2000
0000
0001
3001
,
0000
1001
0000
0001
0200
0010
0310
0100
,
0110
0020
2030
3200
,
0302
0103
2000
3010
,
0001
0010
1000
0010
0001
0100
1000
0100
,
0001
0010
0100
1000
0010
0100
0001
1000
,
1001
1000
0010
0100
0010
0000
1000
0002
,
0000
1000
1003
0000
1001
0000
0001
0100
,
0010
0100
0001
0000
0101
0000
0001
0020
,
0000
0000
0100
0000
0130
0000
0000
0000
1000
0100
1000
0000
0001
0000
0100
0010
,
0100
0010
0100
0001
0010
0000
0100
2000
,
0000
0010
3010
0000
1010
0000
0010
1000
,
0100
0001
0100
1000
0020
0000
0001
0032
,
0000
0100
0103
0000
0101
0000
0110
0000
,
1001
0001
0100
1000
0100
0000
0001
2000
,
0000
0010
3010
0000
1000
0100
0001
0100
,
1000
0010
0001
0010
1000
0000
0001
0200
,
0000
0000
0010
0000
0310
0000
0000
0000
1000
0000
0001
0000
0100
0010
0100
0010
,
2000
0000
3001
0002
0000
0103
0200
0000
,
0010
0000
0000
0000
1000
0000
0000
0000
0301
0000
0000
0000
1000
0001
0100
0010
,
1000
0000
0001
0100
0010
0100
0001
0020
,
0000
0000
0100
0000
0130
0000
0000
0000
0110
0000
0000
0000
0100
0000
1000
0001
,
1000
0000
0010
1000
0001
0010
0001
0200
,
0000
0000
0010
0000
0310
0000
0000
0000
1000
0010
1000
0000
0001
0000
0010
0001
,
0010
0000
0001
0100
1000
0100
0001
0020
,
0000
0000
0100
0000
0130
0000
0000
0000
1001
0000
0000
0000
1000
0000
0010
0100
,
0010
0000
1000
0100
0001
0010
1000
0002
,
0000
1000
1003
0000
1100
0000
0101
0000
,
2002
0000
0000
0000
,
3003
0000
0000
0000
;
