#TITLE:☆ twinklesky ☆;
#SUBTITLE:-2011 ULTRA HC STYLE-;
#ARTIST:fether remixed by hapinano;
#TITLETRANSLIT:;
#SUBTITLETRANSLIT:;
#ARTISTTRANSLIT:;
#CREDIT:;
#BANNER:banner.png;
#BACKGROUND:background.PNG;
#LYRICSPATH:;
#CDTITLE:;
#MUSIC:twinklesky -2011 ULTRA HC STYLE-.mp3;
#OFFSET:-11.040;
#SAMPLESTART:12.040;
#SAMPLELENGTH:12.000;
#SELECTABLE:YES;
#BPMS:0.000=180.000;
#STOPS:;
#BGCHANGES:;

//---------------dance-single - ----------------
#NOTES:
     dance-single:
     :
     Challenge:
     12:
     0.912,0.978,0.237,0.300,0.473: // measure 1
0000
0000
1010
0000
0000
0101
0000
0000
1001
0000
0000
0000
1000
0010
0100
0001
,  // measure 2
1000
0000
0000
0100
0000
0000
0010
0000
0000
0100
0000
0000
1000
0000
0000
0001
0100
0001
0100
0000
0000
0010
0000
0000
,  // measure 3
1000
0000
0100
0000
0001
0000
0100
0000
1000
0000
0010
0000
0100
0001
0010
0100
,  // measure 4
1000
0000
0000
0010
0000
0000
0100
0000
0000
0001
0000
0000
0100
0000
0000
0010
1000
0010
1000
0000
0000
0001
0000
0000
,  // measure 5
0010
0000
0100
0000
0010
0000
0001
0000
0100
0000
1000
0000
0010
1000
0100
1000
,  // measure 6
0010
0000
0000
0100
0000
0000
0001
0000
0000
0100
0000
0000
0010
0000
0000
1000
0001
1000
0010
0000
0000
0100
0000
0000
,  // measure 7
0001
0010
0100
1000
0010
0200
0302
0023
,  // measure 8
0230
1000
0010
1000
0310
2000
3200
0320
,  // measure 9
0032
0000
0100
0000
0010
0000
1000
0000
0010
0000
0103
0000
1000
0001
0100
0010
,  // measure 10
0100
0000
0000
0001
0000
0000
0010
0000
0000
0100
0000
0000
1000
0000
0000
0010
0100
0001
1000
0000
0000
0010
0000
0000
,  // measure 11
1000
0000
0100
0000
0001
0000
1000
0000
0010
0000
0100
0000
0001
0010
0100
0010
,  // measure 12
0001
0000
0000
0100
0000
0000
0010
0000
0000
1000
0000
0000
0100
0000
0000
1000
0010
1000
0010
0000
0000
0100
0000
0000
,  // measure 13
0001
0000
0010
0000
0100
0000
0010
0000
0001
0000
0100
0000
0010
1000
0100
0010
,  // measure 14
0001
0000
0000
0000
0000
0000
0100
0000
0000
0000
0000
0000
0010
0000
0000
0000
0000
0000
1000
0000
0000
0100
0000
0000
1000
0000
0000
0000
0000
0000
0001
0000
0010
0000
0100
0000
1000
0000
0000
0000
0000
0000
0010
0000
0000
0100
0000
0000
,  // measure 15
0001
0000
0010
0000
0100
0000
1000
0001
0100
0000
0020
0000
2030
0000
3002
0000
,  // measure 16
0013
0001
0100
0001
0010
0001
1000
0001
0010
0100
1000
0100
0010
0001
0100
0010
,  // measure 17
2000
0000
3001
0200
0000
0310
1000
0001
,  // measure 18
0010
1000
0100
0001
0010
0001
1100
0001
,  // measure 19
0010
0100
1000
0001
0010
0100
1001
0010
,  // measure 20
0100
0010
1000
0100
0001
0010
1001
0100
,  // measure 21
1000
0001
0100
0000
1100
0000
0011
0000
,  // measure 22
0001
1000
0100
1000
0010
0100
0101
0001
,  // measure 23
0010
0100
1000
0010
0001
0010
0011
1000
,  // measure 24
0001
0010
0001
0010
0100
1000
0100
1000
,  // measure 25
0002
0100
0023
1000
0032
0010
0203
1000
,  // measure 26
0310
0000
1000
0100
1000
0000
0010
0000
0100
0001
0100
0000
0010
0000
1000
0000
,  // measure 27
0001
0000
1000
0100
1000
0000
0010
0000
0100
0000
0001
0000
0010
0000
0100
0000
,  // measure 28
1000
0000
0010
0100
0010
0000
1000
0000
0001
0100
0001
0000
1000
0000
0010
0000
,  // measure 29
1000
0000
0100
1000
0010
0000
0100
0000
0001
0000
0010
0000
0100
0000
0010
0000
,  // measure 30
0001
0000
0100
0010
0100
0000
0001
0000
0010
1000
0010
0000
0001
0000
0100
0000
,  // measure 31
0010
0000
1000
0010
0100
0000
0001
0000
0010
0000
0100
0000
1000
0000
0010
0000
,  // measure 32
1000
0000
0001
1000
0100
0000
0010
0000
0100
0000
1000
0001
0010
0000
0100
0000
,  // measure 33
2002
0000
0003
0000
3200
0000
0310
0001
,  // measure 34
1000
0000
0010
0100
0001
0000
1000
0000
0100
0010
0001
0000
1000
0000
0010
0000
,  // measure 35
1000
0000
0010
0100
0001
0000
0010
0000
0100
0000
0010
0000
0001
0000
0100
0000
,  // measure 36
0010
0000
1000
0001
1000
0000
0010
0000
0100
0001
0100
0000
0010
0000
1000
0000
,  // measure 37
0010
0000
0100
0001
0010
0000
0001
0000
0100
0000
0010
0000
1000
0000
0001
0000
,  // measure 38
0100
0000
0001
0010
0001
0000
0100
0000
0010
1000
0010
0000
0100
0000
0001
0000
,  // measure 39
0100
0000
0010
1000
0100
0000
1000
0000
0010
0000
0100
0000
0001
0000
0010
0000
,  // measure 40
0001
0000
0100
0010
1000
0000
0100
0000
0010
0000
0001
0100
0010
0000
1000
0000
,  // measure 41
0001
0100
0010
1000
0001
0010
0100
1000
0001
0100
0010
1000
0100
0010
0001
0100
,  // measure 42
0010
1000
0100
0001
0010
1000
0100
0001
,  // measure 43
0010
1000
0100
0001
0010
1000
0100
0001
,  // measure 44
0010
0001
0100
1000
0010
0001
0100
1000
,  // measure 45
0010
0001
0100
1000
0010
0001
0100
1000
,  // measure 46
0100
1000
0010
0001
0100
1000
0010
0001
,  // measure 47
0100
1000
0010
0001
0100
1000
0010
0001
,  // measure 48
0100
0001
0010
1000
0100
0001
0010
1000
,  // measure 49
0100
0001
0010
1000
0100
1000
0010
0001
,  // measure 50
0100
0001
0010
1000
0100
1000
0010
0001
,  // measure 51
0100
0001
0010
0100
1000
0001
0100
0010
,  // measure 52
1000
0001
0010
0100
1000
0010
0100
0001
,  // measure 53
0010
0100
0010
0001
0100
0010
1000
0100
,  // measure 54
1100
1000
0010
0001
0011
0001
0100
1000
,  // measure 55
1100
0001
0010
1000
1100
1000
0010
0001
,  // measure 56
2001
0000
0000
0001
0000
0000
3010
0000
0002
0000
0000
0010
0000
0000
0100
0000
,  // measure 57
0003
0000
1100
0000
0000
0011
0000
0000
0110
0000
0000
0000
1000
0010
0100
0001
,  // measure 58
1000
0000
0000
0100
0000
0000
0010
0000
0000
0100
0000
0000
1000
0000
0000
0001
0100
0001
0100
0000
0000
0010
0000
0000
,  // measure 59
1000
0000
0100
0000
0001
0000
0100
0000
1000
0000
0010
0000
0100
0001
0010
0100
,  // measure 60
1000
0000
0000
0010
0000
0000
0100
0000
0000
0001
0000
0000
0100
0000
0000
0010
1000
0010
1000
0000
0000
0001
0000
0000
,  // measure 61
0010
0000
0100
0000
0010
0000
0001
0000
0100
0000
1000
0000
0010
1000
0100
1000
,  // measure 62
0001
0000
0000
0000
0000
0000
0100
0000
0000
0000
0000
0000
0010
0000
0000
0000
0000
0000
1000
0000
0000
0100
0000
0000
1000
0000
0000
0000
0000
0000
0001
0000
0010
0000
0100
0000
1000
0000
0000
0000
0000
0000
0010
0000
0000
0100
0000
0000
,  // measure 63
0001
0000
0010
0000
0100
0000
1000
0001
0100
0000
0020
0000
2030
0000
3002
0000
,  // measure 64
0103
0010
1000
0001
0100
0010
1000
0001
0100
0001
1000
0010
0100
0001
1000
0001
,  // measure 65
0020
0000
0031
2000
0000
3100
0001
0010
,  // measure 66
0011
0000
0000
1001
0000
0000
0101
0000
1010
0000
0000
1000
0001
0010
0100
1000
,  // measure 67
0010
0000
0000
1000
0000
0000
0100
0000
0000
0001
0000
0000
0100
0000
0000
1000
0010
1000
0010
0000
0000
0100
0000
0000
,  // measure 68
0001
0000
0010
0000
0100
0000
1000
0000
0010
0000
0100
0000
0001
1000
0010
0100
,  // measure 69
0001
0000
0000
0010
0000
0000
0100
0000
0000
1000
0000
0000
0010
0000
0000
0100
0001
0100
0001
0000
0000
0010
0000
0000
,  // measure 70
0100
0000
1000
0000
0010
0000
0100
0000
0001
0000
0100
0000
0010
1000
0001
0010
,  // measure 71
0100
0000
0000
1000
0000
0000
0001
0000
0000
0100
0000
0000
0001
0000
0000
1000
0010
0100
0001
0000
0000
0010
0000
0000
,  // measure 72
0100
1000
0010
0100
0001
0020
0230
2300
,  // measure 73
3002
0100
1000
0010
0100
2003
0010
0100
,  // measure 74
3002
0000
0100
0000
1000
0000
0100
0000
0013
0000
0001
0000
0100
0010
1000
0001
,  // measure 75
0010
0001
0101
0100
,  // measure 76
0010
1000
1100
1000
,  // measure 77
0010
0100
1001
0001
,  // measure 78
0010
0100
1010
0010
,  // measure 79
0100
0001
0011
1000
,  // measure 80
2010
0000
3000
0002
0000
1000
0013
0100
,  // measure 81
0001
0000
0010
0000
0100
0000
1000
0010
1000
0000
0100
0000
0010
0000
0001
0100
,  // measure 82
0001
0000
0010
0000
0100
0000
1000
0001
0100
0000
0010
0000
1000
0000
0001
1000
,  // measure 83
0010
1000
0100
1000
0010
0100
0001
0100
0010
1000
0001
1000
0010
1000
0001
0100
,  // measure 84
0020
0000
0000
0000
,  // measure 85
1000
0001
1000
0031
,  // measure 86
2002
0000
3003
0000
;

//---------------dance-single - ----------------
#NOTES:
     dance-single:
     :
     Hard:
     9:
     0.623,0.607,0.205,0.174,0.067: // measure 1
0000
0000
0000
0000
,  // measure 2
0010
0000
1000
0000
0001
0000
0100
0000
0010
0000
1000
0100
1000
0000
0001
0000
,  // measure 3
0100
0010
1000
0001
0010
0100
1000
0100
,  // measure 4
0010
0000
0001
0000
1000
0000
0010
0000
0100
0000
0001
1000
0001
0000
0010
0000
,  // measure 5
0100
1000
0100
0010
0001
1000
0010
0100
,  // measure 6
0001
0000
0010
0000
0100
0000
1000
0000
0001
0000
0100
0001
0100
0000
0010
0000
,  // measure 7
1000
0001
0010
0100
1000
0100
0010
0001
,  // measure 8
1000
0010
0100
0001
0100
0010
1000
0001
,  // measure 9
0010
0100
1000
0001
0100
0010
1000
0000
,  // measure 10
0010
0000
1000
0000
0010
0000
0100
0000
0001
0000
0100
0010
0100
0000
0001
0000
,  // measure 11
0010
0100
1000
0100
0010
0001
0100
0010
,  // measure 12
1000
0000
0001
0000
0010
0000
0100
0000
1000
0000
0010
1000
0010
0000
1000
0000
,  // measure 13
0001
0010
0100
1000
0100
0010
0001
0100
,  // measure 14
0010
1000
0100
0000
1000
0001
0100
0000
,  // measure 15
0010
1000
0001
0000
0010
0100
1000
0000
,  // measure 16
0010
1000
0010
1000
0001
0100
0001
0100
,  // measure 17
0002
0000
0000
0000
,  // measure 18
0013
1000
0100
0001
0000
0001
0100
0010
,  // measure 19
0000
0010
1000
0100
1000
0001
0100
0010
,  // measure 20
1000
0100
0010
0100
1000
0001
0010
0100
,  // measure 21
1000
0000
0000
0010
0000
0000
0100
0000
0002
0000
0000
0000
2003
0000
0000
0000
,  // measure 22
3000
0001
0100
0010
0000
0010
1000
0100
,  // measure 23
0000
0100
1000
0001
0100
0010
1000
0001
,  // measure 24
0010
0100
1000
0001
0100
0010
1000
0001
,  // measure 25
0010
0000
0000
0001
0000
0000
0100
0000
0010
0000
0000
0000
1001
0000
0000
0000
,  // measure 26
0010
0000
1000
0100
0000
0100
1000
0000
,  // measure 27
0001
0100
0010
1000
0001
0010
0100
1000
,  // measure 28
0010
0000
0100
0001
0000
0001
0100
0000
,  // measure 29
0010
1000
0100
0010
0100
1000
0001
0100
,  // measure 30
0010
0000
1000
0001
0000
0010
0100
0000
,  // measure 31
1000
0001
0100
0010
1000
0001
0010
0100
,  // measure 32
1000
0000
0001
0100
0010
0000
0100
0000
,  // measure 33
2002
0000
3003
0000
,  // measure 34
0001
0000
0100
0010
0000
0010
0100
0000
,  // measure 35
0001
0010
0100
1000
0001
0100
0010
1000
,  // measure 36
0100
0000
1000
0010
0000
0010
1000
0000
,  // measure 37
0100
1000
0001
0100
0010
1000
0001
0010
,  // measure 38
0100
0000
1000
0100
0000
0100
1000
0000
,  // measure 39
0010
0100
0001
0010
0100
1000
0001
0100
,  // measure 40
0010
1000
0100
0001
0100
0010
1000
0001
,  // measure 41
0010
0100
1000
0001
,  // measure 42
0100
0100
0101
0001
,  // measure 43
0001
0001
0011
0010
,  // measure 44
0010
0010
1010
1000
,  // measure 45
1000
1000
1100
0100
,  // measure 46
0100
0100
1100
1000
,  // measure 47
1000
1000
1010
0010
,  // measure 48
0010
0010
0011
0001
,  // measure 49
0001
0001
0101
0100
,  // measure 50
0010
1000
0100
0001
,  // measure 51
0010
1000
0100
1000
,  // measure 52
0010
0001
0100
0010
,  // measure 53
1000
0001
0010
0100
,  // measure 54
1100
1000
1010
0010
,  // measure 55
0110
0100
0101
0001
,  // measure 56
1000
0000
0000
0100
0000
0000
1000
0000
0001
0000
0000
0010
0000
0000
0001
0000
,  // measure 57
0000
0000
0011
0000
0000
1100
0000
0000
2002
0000
0000
0000
3003
0000
0000
0000
,  // measure 58
0010
0000
1000
0000
0100
0000
1000
0000
0001
0000
0100
0001
0100
0000
0001
0000
,  // measure 59
0010
0100
1000
0001
0100
0010
1000
0001
,  // measure 60
0010
0000
0100
0000
1000
0000
0001
0000
0100
0000
0010
1000
0010
0000
1000
0000
,  // measure 61
0001
0010
0100
1000
0100
0010
0001
0100
,  // measure 62
0010
1000
0001
0010
0100
1000
0001
0100
,  // measure 63
0010
1000
0001
0010
0100
1000
0001
0100
,  // measure 64
0010
0000
1000
0100
0010
0000
0100
0000
,  // measure 65
2002
0000
0000
3003
,  // measure 66
1000
0000
0000
1000
0000
0000
1000
0000
0001
0000
0000
0001
0000
0000
0001
0000
,  // measure 67
0100
0000
0010
0000
1000
0000
0001
0000
0010
0000
0001
1000
0001
0000
0100
0000
,  // measure 68
0010
1000
0001
0010
0100
1000
0100
0010
,  // measure 69
0001
0000
0100
0000
0010
0000
1000
0000
0001
0000
0010
0001
0010
0000
0100
0000
,  // measure 70
1000
0001
0100
0010
1000
0001
0010
0100
,  // measure 71
1000
0000
0100
0000
0010
0000
0001
0000
0100
0000
0010
1000
0010
0000
1000
0000
,  // measure 72
0100
1000
0001
0100
0010
1000
0001
0010
,  // measure 73
0100
0000
1000
0001
0100
0010
1000
0001
,  // measure 74
0010
0100
1000
0100
0010
0001
1000
0010
,  // measure 75
0100
0001
0202
0303
,  // measure 76
0010
1000
2020
3030
,  // measure 77
1000
0100
2200
3300
,  // measure 78
0001
0010
0022
0033
,  // measure 79
0001
1000
2002
3003
,  // measure 80
0110
0000
0000
1001
0000
0000
0100
0000
,  // measure 81
1000
0000
0010
0100
0001
0000
0100
0000
,  // measure 82
0010
0000
1000
0001
1000
0000
0001
0000
,  // measure 83
0010
0001
0010
0001
1000
0100
1000
0100
,  // measure 84
2000
0000
0000
0000
,  // measure 85
0001
0001
0001
3001
,  // measure 86
2002
0000
3003
0000
;

//---------------dance-single - ----------------
#NOTES:
     dance-single:
     :
     Medium:
     7:
     0.439,0.438,0.118,0.087,0.012: // measure 1
0000
0000
0000
0000
,  // measure 2
0010
0000
1000
0000
0100
0000
1000
0001
,  // measure 3
0100
0010
1000
0001
,  // measure 4
0010
0000
0100
0000
1000
0000
0001
0100
,  // measure 5
0010
0100
0001
0010
,  // measure 6
0100
0000
1000
0000
0001
0000
0100
0010
,  // measure 7
1000
0000
0010
0000
0100
0000
0001
0010
,  // measure 8
0001
0000
1000
0000
0100
0000
1000
0001
,  // measure 9
0100
0000
0010
0000
0100
0000
0001
0010
,  // measure 10
0001
0000
0010
0000
0100
0000
1000
0010
,  // measure 11
1000
0000
0001
0000
0100
0000
0010
1000
,  // measure 12
0100
0000
0010
0000
0100
0000
1000
0001
,  // measure 13
0100
0000
0010
0000
1000
0000
0001
0010
,  // measure 14
0100
0000
1000
0000
0100
0000
0010
0001
,  // measure 15
0100
0010
0100
0001
,  // measure 16
1000
0001
1000
0001
1000
0001
1000
0001
,  // measure 17
2000
0000
0000
3001
,  // measure 18
1000
0000
0001
0000
0000
0001
1000
0000
,  // measure 19
0010
0000
0100
0000
0000
0100
0010
0000
,  // measure 20
1000
0000
0100
0000
0000
0100
1000
0000
,  // measure 21
0001
0000
0100
0010
0000
0010
0100
0000
,  // measure 22
0001
0000
0010
0000
0000
0010
0001
0000
,  // measure 23
1000
0000
0100
0000
0000
0100
1000
0000
,  // measure 24
0010
0100
0010
0100
0010
0100
0010
0100
,  // measure 25
0020
0000
1000
1030
,  // measure 26
1010
0000
0000
0101
0000
0000
1001
0000
,  // measure 27
0001
0100
0010
1000
,  // measure 28
1010
0000
0000
0101
0000
0000
0011
0000
,  // measure 29
0001
0000
0100
0000
0010
1000
0100
0000
,  // measure 30
1100
0000
0000
1010
0000
0000
1001
0000
,  // measure 31
0001
0000
0100
0000
0010
1000
0001
0000
,  // measure 32
0010
0000
0100
1000
0001
0000
0001
1000
,  // measure 33
0200
0000
0000
0000
,  // measure 34
1300
0000
0000
0010
0000
0000
0100
0000
,  // measure 35
0001
0000
0100
0000
0010
1000
0001
0010
,  // measure 36
0100
0000
0000
0010
0000
0000
0001
0000
,  // measure 37
0100
0000
0010
0000
1000
0100
1000
0001
,  // measure 38
0100
0000
0000
0010
0000
0000
0100
0000
,  // measure 39
0001
0000
0010
0000
0100
1000
0001
0100
,  // measure 40
0010
0000
0100
0001
1000
0000
0100
0010
,  // measure 41
0100
1000
0010
0100
,  // measure 42
0001
0001
0010
0010
,  // measure 43
1000
1000
0100
0100
,  // measure 44
0001
0001
0100
0100
,  // measure 45
1000
1000
0010
0010
,  // measure 46
0001
0001
0100
0100
,  // measure 47
1000
1000
0010
0010
,  // measure 48
0001
0100
1000
0010
,  // measure 49
0001
0010
1000
0100
,  // measure 50
0001
0010
0100
1000
,  // measure 51
0001
0100
0010
1000
,  // measure 52
0001
0010
0100
1000
,  // measure 53
0010
0100
0001
0010
,  // measure 54
0011
0000
1100
0000
,  // measure 55
1010
0000
1001
0000
,  // measure 56
0001
0100
0001
1000
,  // measure 57
0000
0000
0001
0000
0000
1000
0000
0000
0002
0000
0000
0000
0003
0000
0000
0000
,  // measure 58
1000
0000
0010
0000
0100
0000
0001
0100
,  // measure 59
0010
0000
1000
0000
0001
0000
0010
0100
,  // measure 60
1000
0000
0001
0000
0100
0000
0010
1000
,  // measure 61
0001
0000
1000
0000
0010
0000
0100
0001
,  // measure 62
0100
0000
0001
1000
0001
0000
0010
0001
,  // measure 63
0010
0000
0100
1000
0100
0000
1000
0001
,  // measure 64
0100
0010
1000
0001
,  // measure 65
0020
0000
0000
0000
,  // measure 66
0031
0000
0000
1000
0000
0000
0001
0000
0100
0000
0000
0010
0000
0000
0100
0000
,  // measure 67
0001
0000
0010
0000
0100
0000
1000
0010
,  // measure 68
0200
0001
0010
0301
,  // measure 69
0001
0000
0010
0000
0100
0000
1000
0010
,  // measure 70
2000
0010
0100
3001
,  // measure 71
0100
0000
0001
0000
0010
0000
0100
1000
,  // measure 72
0002
1000
0010
0103
,  // measure 73
0010
0000
1000
0000
0100
0000
1000
0001
,  // measure 74
0100
0000
0010
0000
1000
0000
0001
0010
,  // measure 75
0100
0100
1000
1000
,  // measure 76
0010
0010
0001
0001
,  // measure 77
0100
0100
0010
0010
,  // measure 78
1000
1000
0001
0001
,  // measure 79
0010
0100
1000
0001
,  // measure 80
0100
0000
0000
0110
0000
0000
0010
0000
,  // measure 81
1000
0000
0100
1000
0100
0000
0010
0000
,  // measure 82
0001
0000
0100
0001
0100
0000
0001
0000
,  // measure 83
0010
0000
0100
0000
1000
0001
1000
0001
,  // measure 84
2000
0000
0000
0000
,  // measure 85
0001
0001
0001
3001
,  // measure 86
2002
0000
3003
0000
;

//---------------dance-single - ----------------
#NOTES:
     dance-single:
     :
     Beginner:
     1:
     0.128,0.168,0.032,0.126,0.000:
0000
0000
0000
0000
,
1000
0000
0000
0000
,
0001
0000
0000
0000
,
0100
0000
0000
0000
,
0010
0000
0000
0000
,
0100
0000
0000
0000
,
0001
0000
0000
0000
,
1000
0000
0000
0000
,
0010
0000
0000
0000
,
0010
0000
0000
0000
,
1000
0000
0000
0000
,
0100
0000
0000
0000
,
0001
0000
0000
0000
,
0010
0000
0000
0000
,
0001
0000
0000
0000
,
0100
0000
0000
0000
,
1000
0000
0000
0000
,
0000
0001
0000
0001
,
0000
1000
0000
1000
,
0000
0010
0000
0010
,
0000
0100
0000
0100
,
0000
0001
0000
0001
,
0000
0010
0000
0010
,
0000
0100
0000
0100
,
0000
1000
0000
1000
,
1000
0000
0000
0000
,
0001
0000
0000
0000
,
0100
0000
0000
0000
,
0010
0000
0000
0000
,
0010
0000
0000
0000
,
0100
0000
0000
0000
,
0001
0000
0000
0000
,
1000
0000
0000
0000
,
1000
0000
0000
0000
,
0010
0000
0000
0000
,
0100
0000
0000
0000
,
0001
0000
0000
0000
,
0010
0000
0000
0000
,
0100
0000
0000
0000
,
1000
0000
0000
0000
,
0001
0000
0000
0000
,
2000
0000
0000
0000
,
0000
0000
3000
0000
,
0020
0000
0000
0000
,
0000
0000
0030
0000
,
0200
0000
0000
0000
,
0000
0000
0300
0000
,
0002
0000
0000
0000
,
0000
0000
0003
0000
,
2002
0000
0000
0000
,
0000
0000
3003
0000
,
0220
0000
0000
0000
,
0000
0000
0330
0000
,
2000
0000
3000
0000
,
0002
0000
0003
0000
,
1000
0000
0001
0000
,
0000
0000
1001
0000
,
0000
0000
0010
0000
,
0010
0000
0010
0000
,
0000
0000
0100
0000
,
0100
0000
0100
0000
,
0000
0000
0001
0000
,
0001
0000
0001
0000
,
0000
0000
1000
0000
,
2000
0000
0000
0000
,
3000
0000
0000
0000
,
0001
0000
0001
0000
,
0001
0000
0000
0000
,
0100
0000
0100
0000
,
0100
0000
0000
0000
,
0010
0000
0010
0000
,
0010
0000
0000
0000
,
1000
0000
1000
0000
,
1000
0000
0000
0000
,
0002
0000
0000
0000
,
0000
0000
0003
0000
,
2000
0000
0000
0000
,
0000
0000
3000
0000
,
0020
0000
0030
0000
,
0200
0000
0300
0000
,
0001
0000
0001
0000
,
0001
0000
0001
0000
,
1000
0000
1000
0000
,
2000
0000
0000
0000
,
3000
0000
0000
0000
,
1001
0000
0000
0000
;

//---------------dance-single - ----------------
#NOTES:
     dance-single:
     :
     Easy:
     4:
     0.340,0.335,0.103,0.245,0.004: // measure 1
0000
0000
0000
0000
,  // measure 2
1000
0100
1000
0100
,  // measure 3
0010
0001
0010
0001
,  // measure 4
0100
0010
0100
0010
,  // measure 5
1000
0001
1000
0001
,  // measure 6
1000
0010
0100
0001
,  // measure 7
1000
0100
0010
0001
,  // measure 8
1000
0010
0100
0001
,  // measure 9
0020
0000
0000
0030
,  // measure 10
0001
0010
0001
0010
,  // measure 11
0100
1000
0100
1000
,  // measure 12
0001
0100
0010
1000
,  // measure 13
0001
0010
0100
1000
,  // measure 14
0001
0100
0010
1000
,  // measure 15
0010
0100
0001
0010
,  // measure 16
0200
0000
2300
0000
,  // measure 17
0002
0000
0000
3003
,  // measure 18
0001
0100
0000
0100
,  // measure 19
0001
0010
0000
0010
,  // measure 20
0100
1000
0000
1000
,  // measure 21
0001
0100
0010
1000
,  // measure 22
0100
1000
0000
1000
,  // measure 23
0010
0100
0000
0100
,  // measure 24
0001
0010
0100
1000
,  // measure 25
0001
0100
0010
1000
,  // measure 26
0001
0000
0000
0100
0000
0000
0001
0000
,  // measure 27
1000
0010
0100
0001
,  // measure 28
1000
0000
0000
0100
0000
0000
1000
0000
,  // measure 29
0010
0100
0001
0010
,  // measure 30
0100
0000
0000
0010
0000
0000
0100
0000
,  // measure 31
1000
0010
0100
0001
,  // measure 32
0010
0000
0100
0000
,  // measure 33
2002
0000
3003
0000
,  // measure 34
0001
0000
0000
0100
0000
0000
0001
0000
,  // measure 35
0010
0100
1000
0010
,  // measure 36
0100
0000
0000
0001
0000
0000
0100
0000
,  // measure 37
0010
1000
0001
0010
,  // measure 38
0100
0000
0000
1000
0000
0000
0100
0000
,  // measure 39
0010
0001
0100
0010
,  // measure 40
1000
0001
1000
0001
,  // measure 41
1000
0010
0001
0100
,  // measure 42
2000
0000
3010
0000
,  // measure 43
0200
0000
0301
0000
,  // measure 44
0020
0000
0031
0000
,  // measure 45
0200
0000
0310
0000
,  // measure 46
2000
0000
3001
0000
,  // measure 47
0020
0000
0130
0000
,  // measure 48
2000
0000
3010
0000
,  // measure 49
0200
0000
0301
0000
,  // measure 50
0012
0000
1003
0000
,  // measure 51
0200
0000
1300
0000
,  // measure 52
1020
0000
0130
0000
,  // measure 53
0102
0000
0013
0000
,  // measure 54
0120
0000
0130
0000
,  // measure 55
2100
0000
3100
0000
,  // measure 56
0002
0000
2003
0000
,  // measure 57
3000
0000
0001
0000
0000
1000
0000
0000
0001
0000
0000
0000
0000
0000
0000
0000
,  // measure 58
0001
0010
0100
1000
,  // measure 59
0010
1000
0100
0010
,  // measure 60
0001
0100
0010
1000
,  // measure 61
0001
0010
0100
0010
,  // measure 62
0001
0100
0010
1000
,  // measure 63
0001
0010
0100
1000
,  // measure 64
0001
0000
0100
0000
,  // measure 65
0220
0000
0330
0000
,  // measure 66
1100
0000
0011
0000
,  // measure 67
0001
0100
0010
1000
,  // measure 68
0001
0010
0100
0010
,  // measure 69
0001
0100
0010
1000
,  // measure 70
0001
0010
0100
1000
,  // measure 71
0010
1000
0100
0010
,  // measure 72
0100
1000
0010
0100
,  // measure 73
0001
0010
0100
1000
,  // measure 74
0001
0100
0010
1000
,  // measure 75
0002
0000
0013
0000
,  // measure 76
0200
0000
1300
0000
,  // measure 77
0020
0000
0130
0000
,  // measure 78
0002
0000
1003
0000
,  // measure 79
0200
0000
0310
0000
,  // measure 80
1001
0000
0000
1001
0000
0000
0000
0000
,  // measure 81
1000
0010
0100
0001
,  // measure 82
1000
0100
0010
0001
,  // measure 83
1000
0010
0100
0001
,  // measure 84
2002
0000
3003
0000
,  // measure 85
0010
0000
0100
0000
,  // measure 86
1001
0000
0000
0000
;
