#TITLE:Video Game;
#SUBTITLE:;
#ARTIST:THB;
#TITLETRANSLIT:;
#SUBTITLETRANSLIT:;
#ARTISTTRANSLIT:;
#CREDIT:;
#BANNER:banner.png;
#BACKGROUND:background.PNG;
#LYRICSPATH:;
#CDTITLE:;
#MUSIC:Video Game.mp3;
#OFFSET:-7.560;
#SAMPLESTART:96.100;
#SAMPLELENGTH:12.000;
#SELECTABLE:YES;
#BPMS:0.000=130.200,128.000=260.401,352.000=130.200;
#STOPS:;
#BGCHANGES:;

//---------------dance-single - ----------------
#NOTES:
     dance-single:
     :
     Hard:
     10:
     0.727,0.765,0.179,0.033,0.244: // measure 1
1000
0000
0000
1000
0000
0000
0010
0000
0000
0010
0000
0000
0100
0000
0000
0100
,  // measure 2
0000
0000
0001
0000
0000
0001
0000
0000
0010
0000
0000
0001
0000
0000
0100
0000
,  // measure 3
0000
0010
0000
0000
1000
0000
0000
0100
0000
0000
0001
0000
0000
0100
0000
0000
,  // measure 4
0010
0000
0000
1000
0000
0000
0001
0000
0000
0010
0000
0000
0100
0000
1000
0001
,  // measure 5
0100
0000
0000
0010
0000
0000
0100
0000
0000
0001
0000
0000
0010
0000
0000
0100
,  // measure 6
0000
0000
1000
0000
0000
0001
0000
0000
0100
0000
0000
0010
0000
0000
1000
0000
,  // measure 7
0000
0100
0000
0000
1000
0000
0000
0001
0000
0000
0100
0000
0000
0010
0000
0000
,  // measure 8
1000
0000
0000
0001
0000
0000
0010
0000
0000
0100
0000
0000
1000
0000
0010
0100
,  // measure 9
0001
0000
0010
0002
0100
0000
0013
2000
,  // measure 10
0100
0000
3001
0000
0010
0001
0100
1000
,  // measure 11
0100
0000
0001
0020
0001
0000
0031
0200
,  // measure 12
0010
0000
0310
1000
0001
0010
0100
1000
,  // measure 13
0001
0100
0000
0001
0100
0000
0010
1000
0000
0010
1000
0000
0001
0010
0000
0100
,  // measure 14
1000
0000
0001
0100
0000
0010
1000
0000
0001
0000
0010
0000
0100
0000
1000
0000
,  // measure 15
0010
0100
0000
0010
0100
0000
0001
1000
0000
0001
1000
0000
0001
0010
0000
0001
,  // measure 16
0010
0000
0100
1000
0000
0100
1000
0000
0001
0000
0100
0000
0010
0000
1000
0000
,  // measure 17
0001
1000
0010
1000
0001
0010
0001
1000
,  // measure 18
0100
1000
0001
0100
0001
0010
0100
1000
,  // measure 19
0010
0100
0001
0010
0100
1000
0010
0100
,  // measure 20
0001
0010
0100
1000
0001
0100
0010
1000
,  // measure 21
0001
0010
0001
0000
1000
0100
1000
0000
,  // measure 22
0010
0100
0001
0010
0100
1000
0001
0100
,  // measure 23
0010
1000
0100
0000
0100
0001
0010
0000
,  // measure 24
0010
0100
1000
0000
0001
0100
0010
1000
,  // measure 25
0001
0000
0010
0000
0100
1000
0100
0000
0010
0000
0001
0000
0100
0001
0100
0000
,  // measure 26
0010
0000
1000
0000
0001
0010
0001
0000
1000
0000
0010
0000
1000
0001
1000
0000
,  // measure 27
0001
0000
0010
0000
0100
1000
0100
0000
1000
0000
0010
0000
0001
0010
0001
0000
,  // measure 28
0100
0000
0001
0000
0010
0001
0010
0000
0100
0000
1000
0000
0100
1000
0100
0000
,  // measure 29
0010
0000
0010
0001
0000
0000
0001
0000
0001
0100
0000
0000
0100
0000
0100
0010
,  // measure 30
0000
0000
0010
0000
0010
1000
0000
0000
0001
0000
0010
0000
0100
0000
1000
0000
,  // measure 31
0001
0000
0010
0001
0000
0000
1000
0000
0100
1000
0000
0000
0001
0000
0000
1000
,  // measure 32
0001
0000
0100
0000
0010
1000
0010
1000
0010
0000
0100
0000
0001
0000
0010
0000
,  // measure 33
0001
0000
1000
0000
1100
0000
1000
0010
,  // measure 34
0000
1000
0010
0000
0100
0000
0001
0000
,  // measure 35
0010
0000
0100
0000
1001
0000
0001
0100
,  // measure 36
0000
0010
1000
0000
0010
0000
1000
0100
,  // measure 37
1000
0000
0001
0000
0101
0000
0001
0010
,  // measure 38
0000
0100
1000
0000
0001
0000
0100
0000
,  // measure 39
0010
0000
1000
0000
1010
0000
0010
0100
,  // measure 40
0000
0001
0010
0000
0100
0000
1000
0001
,  // measure 41
0100
0000
0010
0000
1010
0000
1000
0100
,  // measure 42
0000
1000
0010
0000
0100
0000
0001
0010
,  // measure 43
0100
0000
1000
0000
1001
0000
0001
0010
,  // measure 44
0000
0100
1000
0000
0001
0000
0100
0010
,  // measure 45
1000
0000
0010
0000
0110
0000
0010
1000
,  // measure 46
0000
0001
0010
0000
0100
0000
1000
0001
,  // measure 47
0100
0001
0010
0100
1000
0010
0100
0001
,  // measure 48
0100
0010
1000
0100
0010
0001
0100
0010
,  // measure 49
1000
0000
0001
0000
0100
0000
0001
0010
,  // measure 50
0001
1000
0001
0100
0010
1000
0100
1000
,  // measure 51
0001
0000
0100
0000
0010
0000
1000
0100
,  // measure 52
1000
0001
1000
0010
0100
0001
0010
0100
,  // measure 53
1000
0000
0001
0000
0100
0000
0010
1000
,  // measure 54
0001
1000
0010
0100
0001
0010
0100
1000
,  // measure 55
0001
0000
0100
0000
0010
0000
1000
0100
,  // measure 56
0001
0100
1000
0001
0100
0010
1000
0001
,  // measure 57
0010
0000
0001
0000
0100
0000
1000
0100
,  // measure 58
0010
0001
0100
0010
1000
0001
0010
0100
,  // measure 59
1000
0000
0010
0000
0100
0000
0001
0010
,  // measure 60
0100
1000
0010
0100
0001
0100
1000
0100
,  // measure 61
0010
0000
0001
0000
0100
0000
0010
1000
,  // measure 62
0001
1000
0010
0100
0001
0010
0100
1000
,  // measure 63
0001
0100
0010
1000
0001
0010
0100
0010
,  // measure 64
0001
0100
0010
1000
0001
0010
0100
1000
,  // measure 65
0010
0000
1000
0000
1100
0000
1000
0010
,  // measure 66
0100
0001
0010
0000
0011
0000
0001
1000
,  // measure 67
0100
0000
0010
0000
1001
0000
1000
0100
,  // measure 68
1000
0001
0100
0000
0110
0000
0010
1000
,  // measure 69
0001
0000
0010
0000
0011
0000
0010
0100
,  // measure 70
1000
0001
0100
0000
0110
0000
0010
1000
,  // measure 71
0100
0000
1000
0000
1010
0000
0010
0100
,  // measure 72
0001
0010
0100
1000
0001
0100
0010
1000
,  // measure 73
0001
0000
0010
0000
0011
0000
0010
0100
,  // measure 74
1000
0001
0100
0000
0110
0000
0010
1000
,  // measure 75
0100
0000
1000
0000
1010
0000
0010
0100
,  // measure 76
0001
0010
0100
0000
1100
0000
1000
0010
,  // measure 77
0100
0000
0001
0000
0011
0000
0001
0100
,  // measure 78
0010
1000
0001
0000
0011
0000
0001
0100
,  // measure 79
0010
0000
1000
0000
1100
0000
1000
0010
,  // measure 80
0100
0001
0010
0100
1000
0001
0010
0001
,  // measure 81
1000
0001
0100
0010
1000
0100
1000
0010
,  // measure 82
0100
0001
0100
0010
1000
0001
0010
0100
,  // measure 83
1000
0100
0010
0001
1000
0010
0100
0010
,  // measure 84
1000
0100
0010
0001
0100
0010
1000
0100
,  // measure 85
0010
0001
0100
0010
0100
0001
0010
0100
,  // measure 86
1000
0010
0100
0001
0010
0001
0100
0000
,  // measure 87
0010
1000
0100
1000
0010
0100
0001
0100
,  // measure 88
0010
1000
0001
0010
0100
1000
0001
0100
,  // measure 89
0010
0000
0000
0100
0000
0000
0001
0000
0000
1000
0000
0000
0010
0000
0000
1000
,  // measure 90
0000
0000
0100
0000
0000
0010
0000
0000
0001
0000
0000
1001
0000
0000
0000
0000
;

//---------------dance-single - ----------------
#NOTES:
     dance-single:
     :
     Medium:
     8:
     0.475,0.619,0.000,0.024,0.150:
1000
0000
0000
1000
0000
0000
0001
0000
0000
0001
0000
0000
0100
0000
0000
0100
,
0000
0000
0010
0000
0000
0010
0000
0000
0100
0000
0000
0100
0000
0000
0001
0000
,
0000
0001
0000
0000
1000
0000
0000
1000
0000
0000
0010
0000
0000
0010
0000
0000
,
0100
0000
0000
0100
0000
0000
0001
0000
0000
0001
0000
0000
1000
0000
0001
0000
,
1000
0000
0000
1000
0100
0000
0000
0000
0010
0000
0000
0010
0001
0000
0000
0000
,
0100
0000
0000
0100
0010
0000
0000
0000
1000
0000
0000
1000
0100
0000
0000
0000
,
0001
0000
0000
0001
0100
0000
0000
0000
0010
0000
0000
0010
1000
0000
0000
0000
,
0001
0000
0000
0100
0010
0000
0000
0000
1000
0000
0000
0001
0010
0000
0001
0000
,
0100
0000
0000
0100
0000
0000
0001
0000
0000
0001
0000
0000
1000
0000
0000
1000
,
0000
0000
0010
0000
0000
0010
0000
0000
1000
0000
0100
0000
1000
0000
0001
0000
,
0100
0000
0000
0010
0000
0000
0100
0000
0000
0001
0000
0000
1000
0000
0000
0100
,
0000
0000
1000
0000
0000
0001
0000
0000
0010
0000
0100
0000
1000
0000
0001
0000
,
0100
0000
0000
0100
0000
0000
0010
0000
0000
0010
0000
0000
1000
0000
0000
1000
,
0000
0000
0100
0000
0000
0100
0000
0000
1000
0000
0000
0001
0000
0000
1000
0000
,
0001
0000
0000
0001
0000
0000
0100
0000
0000
0100
0000
0000
0010
0000
0000
0010
,
0000
0000
1000
0000
0000
1000
0000
0000
0001
0000
0000
0010
0000
0000
0100
0000
,
1000
0000
0001
0000
0100
0010
0100
0000
,
0010
0000
1000
0000
0100
1000
0001
0000
,
0100
0000
0010
0000
1000
0001
0010
0000
,
0100
0000
1000
0000
0010
0100
0001
0000
,
0100
0000
0010
0000
1000
0100
0001
0000
,
0100
0000
1000
0000
0010
0100
0001
0000
,
0010
0000
0100
0000
1000
0010
0100
0000
,
0001
0000
0010
0000
0100
1000
0010
0000
,
0100
0001
0100
0100
0010
1000
0010
0010
,
1000
0001
1000
1000
0001
1000
0001
0001
,
0100
0001
0100
0100
0010
1000
0010
1000
,
0001
0010
0001
0010
0100
1000
0100
1000
,
0001
0001
0100
0100
,
0010
0000
0010
0000
1000
0100
1000
0001
,
0100
0100
0010
0010
,
1000
0100
1000
0100
0010
0001
0010
0001
,
1000
0100
1000
0010
,
0100
0001
0010
0000
,
0010
0001
0100
0010
,
1000
0001
0010
0000
,
0100
1000
0001
0100
,
0010
1000
0010
0000
,
0100
0001
0010
0001
,
0100
0010
1000
0000
,
0010
1000
0100
0001
,
0100
1000
0010
0000
,
0100
0001
0100
0010
,
1000
0001
0010
0000
,
0100
1000
0010
0100
,
0001
0010
0100
1000
,
0001
0100
0001
0100
0010
1000
0010
1000
,
0002
0000
0000
0000
,
1003
0010
0100
0001
,
0010
0100
0010
0001
,
0100
0010
1000
0001
,
0010
0100
1000
0000
,
0010
1000
0100
0001
,
0100
0010
1000
0001
,
0010
0100
1000
0100
,
0010
0001
0100
0000
,
0001
0010
0100
1000
,
0010
0100
0001
0010
,
0100
1000
0001
0100
,
0010
1000
0100
0000
,
0010
0001
0100
0010
,
1000
0001
0010
0100
,
1000
0001
1000
0001
1000
0001
1000
0001
,
2000
0000
0000
0000
,
3010
1000
0100
0010
,
0001
0100
0010
1000
,
0100
0010
0001
0100
,
0010
1000
0001
0010
,
0100
1000
0010
0100
,
0001
0010
0100
1000
,
0010
0100
0001
0010
,
0001
0100
0010
1000
,
0001
0010
0100
1000
,
0010
0100
0001
0010
,
0100
1000
0010
0100
,
0001
1000
0010
0100
,
0001
1000
0010
1000
,
0001
0010
0100
1000
,
0001
0100
0001
1000
,
0100
1000
0001
0100
,
0010
1000
0100
0010
,
0001
0100
0010
1000
,
0001
0010
0100
1000
,
0010
0100
0001
0010
,
0001
0100
0010
1000
,
0001
0010
0100
1000
,
0010
0100
0010
0100
0010
0100
0010
0100
,
0020
0000
0000
0000
,
0030
0000
0000
0000
,
0000
0000
0000
0000
0000
0000
0000
0000
0000
0000
0000
0010
0000
0000
0000
0000
;

//---------------dance-single - ----------------
#NOTES:
     dance-single:
     :
     Easy:
     5:
     0.318,0.465,0.073,0.244,0.000:
0010
1000
0100
0001
,
0010
0100
1000
0001
,
0100
0010
1000
0100
,
0001
0100
1000
0010
,
0100
0002
0103
0020
,
1030
0200
1300
0002
,
0103
0020
1030
0002
,
0013
0200
1300
0020
,
0130
0001
0100
0010
,
1000
0010
1000
0001
,
1000
0100
0010
0001
,
0100
0010
1000
0001
,
1000
0100
0001
1000
,
0010
0001
1000
0001
,
1000
0100
0010
0001
,
0100
0010
0100
0001
,
2000
0000
3020
0000
,
0230
0000
0302
0000
,
0023
0000
0230
0000
,
2300
0000
3002
0000
,
0203
0000
0320
0000
,
0230
0000
0302
0000
,
2003
0000
3200
0000
,
0320
0000
0032
0000
,
1003
1000
0001
0001
,
0100
0100
0010
0010
,
1000
1000
0100
0100
,
0010
0010
0001
0001
,
0011
0000
1100
0000
,
1010
0000
0101
0000
,
1001
0000
0110
0000
,
0010
0010
0010
0010
,
0010
0000
1000
0000
,
0100
1000
0010
0000
,
0100
0000
0001
0000
,
0010
0100
0010
0000
,
0001
0000
0100
0000
,
0010
1000
0001
0000
,
1000
0000
0010
0000
,
0100
0001
1000
0000
,
0100
0000
0010
0000
,
0001
0100
0010
0000
,
1000
0000
0100
0000
,
1000
0001
0100
0000
,
0010
0000
1000
0000
,
0001
0010
0100
0000
,
2002
0000
0000
0000
,
0000
0000
3003
0000
,
0010
0000
0010
0000
,
1000
0100
1000
0000
,
0010
0000
0010
0000
,
0100
0001
0100
0000
,
0001
0000
0001
0000
,
1000
0010
1000
0000
,
0100
0000
0100
0000
,
0010
0001
0010
0000
,
0001
0000
0100
0000
,
0010
1000
0001
0000
,
0010
0000
0100
0000
,
1000
0010
0100
0000
,
0001
0000
0010
0000
,
0100
1000
0001
0000
,
0220
0000
0000
0000
,
0000
0000
0330
0000
,
0010
1000
0010
0000
,
0100
0001
0100
0000
,
0001
0000
0010
0000
,
0100
0000
1000
0000
,
0001
0010
0001
0000
,
1000
0100
1000
0000
,
0001
0000
0100
0000
,
0010
0000
1000
0000
,
0010
0100
0010
0000
,
1000
0001
1000
0000
,
0001
0000
0010
0000
,
0100
0000
1000
0000
,
0010
1000
0100
0000
,
0010
0001
0100
0000
,
0010
0000
1000
0000
,
0100
0000
0001
0000
,
0010
0001
0010
0000
,
0100
1000
0100
0000
,
1000
0010
1000
0000
,
0001
0100
0001
0000
,
0010
0000
0100
0000
,
1000
0000
0001
0000
,
2002
0000
0000
0000
,
0000
0000
0000
0000
,
3003
0000
0000
0000
;

//---------------dance-single - ----------------
#NOTES:
     dance-single:
     :
     Beginner:
     3:
     0.210,0.286,0.033,0.065,0.000:
1000
0000
0000
0000
,
0010
0000
0000
0000
,
0100
0000
0000
0000
,
0001
0000
0000
0000
,
0010
0000
0010
0000
,
0001
0000
0001
0000
,
1000
0000
1000
0000
,
0100
0000
0100
0000
,
0010
0010
0010
0010
,
0010
0010
0010
0000
,
1000
1000
1000
1000
,
1000
1000
1000
0000
,
0001
0001
0001
0001
,
0001
0001
0001
0000
,
0100
0100
0100
0100
,
0100
0100
0100
0000
,
0010
0000
0010
0000
,
1000
0000
1000
0000
,
0100
0000
0100
0000
,
0001
0000
0001
0000
,
0010
0000
0010
0000
,
0001
0000
0001
0000
,
0100
0000
0100
0000
,
1000
0000
1000
0000
,
0010
0010
0010
0000
,
1000
1000
1000
0000
,
0001
0001
0001
0000
,
0100
0100
0100
0000
,
0010
0000
1000
0000
,
0100
0000
0001
0000
,
0100
0000
1000
0000
,
2002
0000
0000
3003
,
1000
0000
1000
0000
,
1000
0000
0000
0000
,
0010
0000
0010
0000
,
0010
0000
0000
0000
,
0100
0000
0100
0000
,
0100
0000
0000
0000
,
0001
0000
0001
0000
,
0001
0000
0000
0000
,
0010
0000
0010
0000
,
0010
0000
0000
0000
,
0100
0000
0100
0000
,
0100
0000
0000
0000
,
1000
0000
1000
0000
,
1000
0000
0000
0000
,
2002
0000
0000
0000
,
3003
0000
0000
0000
,
1000
0000
1000
0000
,
0001
0000
0001
0000
,
1000
0000
1000
0000
,
0001
0000
0001
0000
,
0100
0000
0100
0000
,
0010
0000
0010
0000
,
0100
0000
0100
0000
,
0010
0000
0010
0000
,
1000
0000
0001
0000
,
1000
0000
0001
0000
,
0100
0000
0010
0000
,
0100
0000
0010
0000
,
1000
0000
0100
0000
,
0010
0000
0001
0000
,
2002
0000
0000
0000
,
3003
0000
0000
0000
,
0010
0000
0010
0000
,
1000
0000
1000
0000
,
0100
0000
0100
0000
,
0001
0000
0001
0000
,
0010
0000
0010
0000
,
0001
0000
0001
0000
,
0100
0000
0100
0000
,
1000
0000
1000
0000
,
0010
0000
0010
0000
,
0100
0000
0100
0000
,
0001
0000
0001
0000
,
1000
0000
1000
0000
,
0001
0000
0001
0000
,
0010
0000
0010
0000
,
0100
0000
0100
0000
,
1000
0000
1000
0000
,
0001
0000
1000
0000
,
0001
0000
0000
0000
,
1000
0000
0001
0000
,
1000
0000
0000
0000
,
0010
0000
0100
0000
,
0001
0000
1000
0000
,
2002
0000
0000
0000
,
0000
0000
0000
0000
,
3003
0000
0000
0000
;
