#TITLE:Unified Chaos;
#SUBTITLE:;
#ARTIST:Sta;
#TITLETRANSLIT:;
#SUBTITLETRANSLIT:;
#ARTISTTRANSLIT:;
#CREDIT:;
#BANNER:bn.png;
#BACKGROUND:background.PNG;
#LYRICSPATH:;
#CDTITLE:;
#MUSIC:Unified Chaos.mp3;
#OFFSET:-11.720;
#SAMPLESTART:38.700;
#SAMPLELENGTH:12.000;
#SELECTABLE:YES;
#BPMS:0.000=180.140;
#STOPS:;
#BGCHANGES:;

//---------------dance-single - ----------------
#NOTES:
     dance-single:
     :
     Hard:
     7:
     0.462,0.572,0.131,0.175,0.004:
0020
0000
0000
0000
,
2030
0000
0000
0000
,
3200
0000
0000
0000
,
0302
0000
0000
0000
,
0013
0000
0000
0001
0000
0000
0010
0000
,
0100
0000
0000
1000
0000
0000
0100
0000
,
1000
0000
0000
0010
0000
0000
1000
0000
,
0001
0000
0000
0100
0000
0000
0001
0000
,
0010
0000
0000
0100
0000
0000
1000
0000
,
0001
0000
0000
0100
0000
0000
0010
0000
,
1000
0000
0000
0100
0000
0000
1000
0000
,
0010
0000
0000
0100
0000
0000
0001
0000
,
0010
0000
0000
0100
0000
0000
1000
0000
,
0001
0000
0000
0100
0000
0000
0010
0000
,
0100
0000
0000
0001
0000
0000
1000
0000
,
0100
0000
0000
1000
0000
0000
0001
0000
,
0200
0000
0000
0000
,
0320
0000
0000
0000
,
2030
0000
0000
0000
,
0001
0000
0001
3001
,
0010
1100
0101
1100
,
0001
0000
0100
0010
0000
0010
0100
0000
,
0001
0000
1000
0100
0000
0100
1000
0000
,
0010
0000
0100
0000
0001
0010
0001
0000
,
0010
0000
0100
1000
0000
0000
0001
0000
,
0100
0000
0010
1000
0000
1000
0100
0000
,
1000
0000
0001
0100
0000
0000
0010
0000
,
1000
0000
0001
0010
0000
0010
0001
0000
,
0000
0011
1100
1010
,
1001
0000
0001
0100
0000
0100
0001
0000
,
1000
0000
0100
1000
0000
1000
0010
0000
,
0100
0000
0001
0000
0010
0001
0010
0000
,
0100
0000
1000
0100
0000
0000
0010
0000
,
0100
0000
0001
0100
0000
0000
0010
0000
,
1000
0000
0100
1000
0000
0001
0100
0000
,
0010
0000
0100
0000
0001
1000
0100
0000
,
0010
0101
1010
1100
,
1001
0000
0001
0100
0000
0100
0010
0000
,
1000
0000
0100
1000
0000
1000
0010
0000
,
0100
0000
0001
0010
0000
0100
1000
0000
,
0001
0000
0100
0010
0000
0010
0100
0000
,
0001
0000
1000
0100
0000
0100
1000
0000
,
0010
0000
0100
0001
0000
0000
1000
0000
,
0100
0000
1000
0010
0000
0100
0001
0000
,
0010
0011
1010
1100
,
0101
0000
0001
0100
0000
0100
0010
0000
,
1000
0000
0100
1000
0000
1000
0001
0000
,
0100
0000
0010
0000
1000
0100
1000
0000
,
0001
0000
0100
0010
0000
0010
0100
0000
,
0001
0000
0010
0100
0000
1000
0001
0000
,
0100
0000
0010
1000
0000
1000
0001
0000
,
0010
0000
0100
1000
0001
0100
0010
1000
,
0020
0000
0000
0000
,
1030
0100
1000
0100
0010
0001
0010
0001
,
0100
0010
0100
0010
1000
0001
0010
0100
,
1000
0010
1000
0010
0100
0001
0100
0001
,
0010
0001
0100
0010
1000
0001
0010
0100
,
1000
0010
1000
0010
0100
0001
0100
0001
,
0010
0001
0100
0010
1000
0001
0010
0100
,
1000
0001
1000
0001
0100
0010
0100
0010
,
1000
0001
0010
0100
1000
0001
0100
0010
,
1000
0000
0010
0100
0001
0100
0010
0000
,
1000
0000
0100
1000
0001
0100
0010
0000
,
1000
0000
0001
0010
0100
1000
0010
0000
,
0100
0001
0010
0100
1000
0100
0010
0001
,
0100
0000
0010
1000
0001
0010
0100
0000
,
0010
0000
0001
0100
0010
1000
0001
0000
,
0010
0000
0100
1000
0010
0100
0001
0000
,
0100
0010
1000
0001
0010
0100
1000
0001
,
0200
0000
0000
0010
,
0320
0000
0000
1000
,
2030
0000
0000
0001
,
3002
0000
0000
0100
,
0203
0000
0000
0010
,
0320
0000
0000
1030
,
2000
0000
0000
3002
0000
0000
0023
0000
,
0130
0000
0000
0100
2000
0000
0000
0000
3002
0000
0000
0000
0203
0000
0000
0000
,
0300
0000
0000
0000
;

//---------------dance-single - ----------------
#NOTES:
     dance-single:
     :
     Medium:
     5:
     0.328,0.335,0.079,0.140,0.000:
2000
0000
0000
0000
,
3002
0000
0000
0000
,
0203
0000
0000
0000
,
0320
0000
0000
0000
,
1030
0000
0100
0000
,
0010
0000
0001
0000
,
0100
0000
0010
0000
,
1000
0000
0001
0000
,
0010
0000
0001
0000
,
0100
0000
0010
0000
,
1000
0000
0100
0000
,
0010
0000
0001
0000
,
2000
0000
0010
0000
,
0001
0000
0100
0000
,
3002
0000
0010
0000
,
1000
0000
0100
0000
,
2003
0000
0100
0000
,
0001
0000
3010
0000
,
2002
0000
0000
0000
,
0000
0000
0000
3003
,
0010
1001
0100
1001
,
0010
0000
0000
1000
0000
0000
0100
0000
,
1000
0000
0010
0000
0000
0010
1000
0000
,
0001
0000
0010
0000
0000
0010
0001
0000
,
0100
0000
0000
0100
0000
0000
0010
0000
,
1000
0000
0000
0001
0000
0000
1000
0000
,
0010
0000
0000
0100
0000
0000
0001
0000
,
0100
0010
1000
0001
,
1000
0110
0001
0110
,
1000
0000
0000
0001
0000
0000
1000
0000
,
0010
0000
0100
0000
0000
0100
0010
0000
,
1000
0000
0001
0000
0000
0001
1000
0000
,
0010
0000
0000
0100
0000
0000
0001
0000
,
0100
0000
0000
0010
0000
0000
1000
0000
,
0100
0000
0000
1000
0000
0000
0001
0000
,
0100
0000
0010
0000
1000
0001
0010
0000
,
1000
1100
0001
0101
,
0001
0000
0000
0010
0000
0000
0001
0000
,
0100
0000
0010
0000
0000
0010
0100
0000
,
0001
0000
1000
0000
0000
1000
0001
0000
,
0100
0000
0000
0010
0000
0000
1000
0000
,
0100
1000
0001
0100
,
0010
0000
0010
1000
0000
0000
0100
0000
,
1000
0001
0100
0010
,
1000
0011
1000
0101
,
1000
0000
0000
0001
0000
0000
0100
0000
,
0010
0000
1000
0000
0000
0100
1000
0000
,
0001
0000
1000
0000
0000
0001
1000
0000
,
0010
0000
0000
0100
0000
0000
0001
0000
,
0100
0000
0000
0010
0000
0000
1000
0000
,
0100
0000
1000
0100
0000
0000
1000
0000
,
0020
0000
0000
0000
,
0030
0000
0000
0000
,
1000
0100
0010
0001
,
0100
0000
0010
0000
1000
0001
0100
0000
,
0010
1000
0001
0010
,
0100
0000
1000
0000
0001
0100
0010
0000
,
1000
0010
0100
0001
,
1000
0000
0100
0000
0010
0001
1000
0000
,
0010
1000
0100
0010
,
0001
0000
0100
0000
0010
1000
0001
0000
,
0010
0100
1000
0100
,
0010
0000
0001
0000
1000
0010
0100
0000
,
0001
0010
0100
1000
,
0001
0000
0100
0000
0010
1000
0001
0000
,
0010
0100
1000
0100
,
0010
0000
0001
0000
0100
0010
1000
0000
,
0001
0100
0010
1000
,
0100
0000
1000
0000
0001
0100
0010
1000
,
0002
0000
0000
0100
,
0203
0000
0000
0010
,
0320
0000
0000
1000
,
2030
0000
0000
0001
,
3002
0000
0000
0010
,
0023
0000
0000
0100
,
0130
0000
0000
1000
0000
0000
0100
0000
,
0010
0001
0100
1000
;

//---------------dance-single - ----------------
#NOTES:
     dance-single:
     :
     Easy:
     3:
     0.195,0.235,0.000,0.079,0.000: // measure 1
1000
0000
0000
0000
,  // measure 2
0010
0000
0000
0000
,  // measure 3
0100
0000
0000
0000
,  // measure 4
0001
0000
0000
0000
,  // measure 5
1000
0000
1000
0000
,  // measure 6
0010
0000
0010
0000
,  // measure 7
0100
0000
0100
0000
,  // measure 8
0001
0000
0001
0000
,  // measure 9
0010
0000
0000
0000
,  // measure 10
0100
0000
0000
0000
,  // measure 11
1000
0000
0000
0000
,  // measure 12
0001
0000
0000
0000
,  // measure 13
1000
0000
1000
0000
,  // measure 14
0010
0000
0010
0000
,  // measure 15
0100
0000
0100
0000
,  // measure 16
0001
0000
0001
0000
,  // measure 17
0010
0000
0000
0000
,  // measure 18
0001
0000
0000
0000
,  // measure 19
0200
0000
0000
0000
,  // measure 20
0000
0000
0300
0000
,  // measure 21
1000
1000
1000
0000
,  // measure 22
0010
0000
0010
0000
,  // measure 23
0100
0100
0100
0000
,  // measure 24
0001
0000
0001
0000
,  // measure 25
0010
0000
0001
0000
,  // measure 26
0100
0000
1000
0000
,  // measure 27
0010
0000
1000
0000
,  // measure 28
0100
0000
0001
0000
,  // measure 29
0010
0010
0010
0000
,  // measure 30
0001
0000
0100
0000
,  // measure 31
0001
0001
0001
0000
,  // measure 32
0100
0000
0010
0000
,  // measure 33
1000
0000
0100
0000
,  // measure 34
0010
0000
0001
0000
,  // measure 35
1000
0000
0010
0000
,  // measure 36
0100
0000
0001
0000
,  // measure 37
1000
1000
1000
0000
,  // measure 38
0001
0001
0001
0000
,  // measure 39
0100
0000
0010
0000
,  // measure 40
1000
0000
0001
0000
,  // measure 41
0010
0000
0001
0000
,  // measure 42
0100
0000
1000
0000
,  // measure 43
0010
0000
1000
0000
,  // measure 44
0100
0000
0010
0000
,  // measure 45
0001
0001
0001
0000
,  // measure 46
1000
1000
1000
0000
,  // measure 47
0010
0000
1000
0000
,  // measure 48
0100
0000
0010
0000
,  // measure 49
0001
0000
0010
0000
,  // measure 50
0001
0000
0010
0000
,  // measure 51
0100
0000
1000
0000
,  // measure 52
0100
0000
1000
0000
,  // measure 53
0000
0000
0000
0000
,  // measure 54
1000
0000
0100
0000
,  // measure 55
0010
0001
0010
0000
,  // measure 56
0100
0000
1000
0000
,  // measure 57
0001
0100
0001
0000
,  // measure 58
0010
0000
0100
0000
,  // measure 59
1000
0010
1000
0000
,  // measure 60
0010
0000
1000
0000
,  // measure 61
0100
0010
0100
0000
,  // measure 62
1000
0000
0010
0000
,  // measure 63
0100
0001
0100
0000
,  // measure 64
0010
0000
1000
0000
,  // measure 65
0100
1000
0001
0000
,  // measure 66
0100
0000
0010
0000
,  // measure 67
1000
0001
0010
0000
,  // measure 68
0100
0000
1000
0000
,  // measure 69
0010
0100
0001
0000
,  // measure 70
2000
0000
3000
0000
,  // measure 71
0020
0000
0030
0000
,  // measure 72
0200
0000
0300
0000
,  // measure 73
0002
0000
0003
0000
,  // measure 74
0020
0000
0030
0000
,  // measure 75
0002
0000
0003
0000
,  // measure 76
0200
0000
0300
0000
,  // measure 77
0020
0000
0000
0030
;

//---------------dance-single - ----------------
#NOTES:
     dance-single:
     :
     Beginner:
     1:
     0.110,0.166,0.000,0.000,0.000:
0000
0000
0000
0000
,
0000
0000
0000
0000
,
0000
0000
0000
0000
,
0000
0000
0000
0000
,
1000
0000
0000
0000
,
0010
0000
0000
0000
,
0100
0000
0000
0000
,
0001
0000
0000
0000
,
0010
0000
0000
0000
,
0000
0000
0000
0000
,
0100
0000
0000
0000
,
0000
0000
0000
0000
,
1000
0000
0000
0000
,
0010
0000
0000
0000
,
0100
0000
0000
0000
,
0001
0000
0000
0000
,
1000
0000
0000
0000
,
0000
0000
0000
0000
,
0001
0000
0000
0000
,
0000
0000
0000
0000
,
1000
0000
1000
0000
,
1000
0000
0000
0000
,
0010
0000
0010
0000
,
0010
0000
0000
0000
,
0100
0000
0000
0000
,
0001
0000
0000
0000
,
0010
0000
0000
0000
,
0100
0000
0000
0000
,
1000
0000
1000
0000
,
1000
0000
0000
0000
,
0001
0000
0001
0000
,
0001
0000
0000
0000
,
0100
0000
0000
0000
,
0010
0000
0000
0000
,
1000
0000
0000
0000
,
0001
0000
0000
0000
,
0010
0000
0010
0000
,
0010
0000
0000
0000
,
0100
0000
0100
0000
,
0100
0000
0000
0000
,
0001
0000
0000
0000
,
0010
0000
0000
0000
,
0100
0000
0000
0000
,
1000
0000
0000
0000
,
0010
0000
0010
0000
,
0010
0000
0000
0000
,
0100
0000
0100
0000
,
0100
0000
0000
0000
,
0001
0000
0000
0000
,
0010
0000
0000
0000
,
0100
0000
0000
0000
,
1000
0000
0000
0000
,
0000
0000
0000
0000
,
1000
0000
1000
0000
,
1000
0000
1000
0000
,
1000
0000
1000
0000
,
1000
0000
0000
0000
,
0010
0000
0010
0000
,
0010
0000
0010
0000
,
0010
0000
0010
0000
,
0010
0000
0000
0000
,
0100
0000
0100
0000
,
0100
0000
0100
0000
,
0100
0000
0100
0000
,
0100
0000
0000
0000
,
0001
0000
0001
0000
,
0001
0000
0001
0000
,
0001
0000
0001
0000
,
0001
0000
0000
0000
,
0001
0000
0000
0000
,
0010
0000
0000
0000
,
0100
0000
0000
0000
,
1000
0000
0000
0000
,
0010
0000
0000
0000
,
0100
0000
0000
0000
,
0001
0000
0000
0000
,
1000
0000
0000
0000
;
