#TITLE:THE DEVIL;
#SUBTITLE:;
#ARTIST:Banya Production;
#TITLETRANSLIT:;
#SUBTITLETRANSLIT:;
#ARTISTTRANSLIT:;
#CREDIT:;
#BANNER:;
#BACKGROUND:;
#LYRICSPATH:;
#CDTITLE:;
#MUSIC:THE DEVIL.mp3;
#OFFSET:-9.260;
#SAMPLESTART:43.180;
#SAMPLELENGTH:12.010;
#SELECTABLE:YES;
#BPMS:0.000=130.000,16.000=140.000,48.000=150.000,80.000=160.000,112.000=170.000,144.000=180.000,176.000=190.000,192.000=200.000,208.000=210.000,224.000=220.000,240.000=230.000,248.000=240.000;
#STOPS:;
#BGCHANGES:;

//---------------dance-single - ----------------
#NOTES:
     dance-single:
     :
     Hard:
     9:
     0.666,0.589,0.116,0.212,0.092: // measure 1
1000
0100
0010
0001
1000
0001
1000
0000
,  // measure 2
0001
0100
0001
0000
1000
0010
1000
0000
,  // measure 3
0001
0100
0010
1000
0001
1000
0001
0000
,  // measure 4
1000
0100
0001
0100
2000
0000
3000
0000
,  // measure 5
0001
0100
1000
0100
0010
1000
0001
0000
,  // measure 6
0001
0010
0100
0000
0010
0001
1000
0000
,  // measure 7
0001
0010
0100
0001
0100
1000
0010
0000
,  // measure 8
0100
0001
1000
0100
2000
0000
3010
0000
,  // measure 9
0001
0100
1000
0001
0010
0100
0002
0000
,  // measure 10
0013
0100
0002
0000
0103
1000
0002
0000
,  // measure 11
1003
0100
0001
0100
1000
0001
0020
0000
,  // measure 12
0130
1000
0020
0000
0130
0000
0020
0000
,  // measure 13
1030
0100
0001
0100
1000
0010
0100
0000
,  // measure 14
0010
0000
0000
0000
0010
1000
0010
0000
1000
0000
0100
0000
1000
0000
0000
0000
,  // measure 15
0001
0010
0100
0010
0001
1000
0010
0100
,  // measure 16
0010
0000
1000
0000
0001
1000
0001
0000
1000
0000
0000
0000
0001
0010
0001
0010
,  // measure 17
0100
0001
0100
1000
0100
0010
0200
0000
,  // measure 18
0310
0001
0200
0000
0310
1000
0200
0000
,  // measure 19
0310
0001
0100
1000
0100
0010
1000
0100
,  // measure 20
0010
0001
1000
0001
0202
0000
0303
0000
,  // measure 21
0001
0010
0100
0001
0100
0010
0001
0000
,  // measure 22
1000
0010
0100
1000
0100
0010
1000
0000
,  // measure 23
0001
0010
0100
0010
0100
1000
0010
0100
,  // measure 24
0001
0000
0010
0000
0100
0000
0010
0000
0002
0000
0000
0000
1003
0000
0001
1000
,  // measure 25
0001
0100
1000
0100
0010
1000
0100
0000
,  // measure 26
0010
0001
0100
0001
0010
0001
1000
0000
,  // measure 27
1000
0010
0100
0001
0100
0010
1000
0001
,  // measure 28
0010
0000
0100
0000
0010
0000
0001
0000
2000
0000
0000
0000
3001
1000
0001
1000
,  // measure 29
0010
0100
0001
0010
0100
0010
0001
0000
,  // measure 30
1000
0010
0100
0000
0001
0010
0100
0000
,  // measure 31
0001
0000
0010
0000
0100
0000
1000
0000
0100
0010
0100
0000
0010
0000
0001
0000
,  // measure 32
0100
1000
0100
0010
2000
0000
3001
0000
,  // measure 33
1000
0010
0100
0010
1000
0001
0011
0000
,  // measure 34
0010
0000
0001
0000
0101
0000
0000
0000
0100
0000
0010
1000
0010
0000
0100
0000
,  // measure 35
0001
0010
0100
1000
0100
0010
0100
1000
,  // measure 36
0001
0000
0100
0000
1000
0000
0100
0000
0010
0100
0010
0100
0010
0000
1000
0000
,  // measure 37
0001
0010
0001
0010
0100
1000
0100
0000
,  // measure 38
1000
0010
0100
0000
0010
0100
0001
0000
,  // measure 39
1000
0010
1000
0010
0100
0001
0010
0000
,  // measure 40
0001
1000
0100
0010
0110
0000
1001
0000
,  // measure 41
1000
0010
0100
1000
0100
0001
1001
0000
,  // measure 42
0001
0010
1010
0000
1000
0010
0011
0000
,  // measure 43
0001
0100
1000
0100
0010
1000
0100
0010
,  // measure 44
0001
0010
0100
1000
2002
0000
3003
0000
,  // measure 45
1000
0010
1000
0010
1000
0000
0000
0000
0001
0000
0100
0000
0001
0000
0000
0000
,  // measure 46
0010
0001
0010
0001
0010
0000
0000
0000
0100
0000
1000
0000
0100
0000
0000
0000
,  // measure 47
2010
0000
0001
0000
,  // measure 48
3001
0100
0010
1000
0200
0000
0310
0000
,  // measure 49
0001
0010
0100
0010
0001
0010
0100
0000
,  // measure 50
0010
0100
1000
0000
1000
0100
0010
0000
,  // measure 51
0001
0100
1000
0100
0001
0100
0010
1000
,  // measure 52
0100
0010
0100
1000
0001
0000
1001
0000
,  // measure 53
1000
0010
0100
0010
1000
0001
0010
0000
,  // measure 54
0010
0001
0100
0000
0010
1000
0100
0000
,  // measure 55
0010
0001
0010
0100
0001
0100
1000
0010
,  // measure 56
0100
0010
0001
0010
2000
0000
3000
0000
,  // measure 57
0001
1000
0001
1000
0001
0000
0000
0000
1000
0000
0001
0000
1000
0000
0000
0000
,  // measure 58
0010
0100
0010
0100
0010
0000
0000
0000
0100
0000
0010
0000
0100
0000
0000
0000
,  // measure 59
0010
1000
0010
1000
0001
0100
0001
0100
,  // measure 60
0001
0010
0100
1000
0002
0000
1003
0000
,  // measure 61
1000
0100
0010
0100
1000
0100
0010
0100
,  // measure 62
1000
0001
0100
0001
0010
0001
0100
0001
,  // measure 63
1000
0010
0001
0010
0100
0001
0010
0100
,  // measure 64
0010
0001
1000
0010
0100
0001
0010
0100
,  // measure 65
0010
1001
0000
0000
;

//---------------dance-single - ----------------
#NOTES:
     dance-single:
     :
     Beginner:
     3:
     0.167,0.248,0.135,0.000,0.000: // measure 1
1000
0000
0000
0000
,  // measure 2
0001
0000
1000
0000
,  // measure 3
0001
0000
0000
0000
,  // measure 4
0100
0000
0010
0000
,  // measure 5
0100
0000
0000
0000
,  // measure 6
0001
0000
1000
0000
,  // measure 7
0100
0000
0000
0000
,  // measure 8
0010
0000
0001
0000
,  // measure 9
1000
0000
0000
0000
,  // measure 10
0001
0000
0100
0000
,  // measure 11
0001
0000
1000
0000
,  // measure 12
0001
0000
1000
0000
,  // measure 13
1001
0000
1001
0000
,  // measure 14
0100
0000
0010
0000
,  // measure 15
0110
0000
0110
0000
,  // measure 16
1000
0000
0001
0000
,  // measure 17
1000
0000
1001
0000
,  // measure 18
0001
0000
1000
0000
,  // measure 19
1001
0000
1001
0000
,  // measure 20
0110
0000
0000
0000
,  // measure 21
1000
0000
0001
0000
,  // measure 22
0100
0000
0100
0000
,  // measure 23
0010
0000
1000
0000
,  // measure 24
0001
0000
0000
0000
,  // measure 25
1000
0000
0100
0000
,  // measure 26
0010
0000
0010
0000
,  // measure 27
0001
0000
1000
0000
,  // measure 28
0001
0000
0000
0000
,  // measure 29
1000
0000
0001
0000
,  // measure 30
0100
0000
0100
0000
,  // measure 31
0010
0000
0100
0000
,  // measure 32
0001
0000
0000
0000
,  // measure 33
1000
0000
0001
0000
,  // measure 34
1000
0000
1000
0000
,  // measure 35
0100
0000
0010
0000
,  // measure 36
0100
0000
0000
0000
,  // measure 37
0010
0000
0000
0000
,  // measure 38
0001
0000
1000
0000
,  // measure 39
0001
0000
0100
0000
,  // measure 40
0010
0000
1000
0000
,  // measure 41
0001
0000
0000
0000
,  // measure 42
1000
0000
0100
0000
,  // measure 43
0010
0000
0100
0000
,  // measure 44
1000
0000
0001
0000
,  // measure 45
1001
0000
0000
0000
,  // measure 46
0110
0000
0000
0000
,  // measure 47
1001
0000
0000
0000
,  // measure 48
0000
0000
0000
0000
,  // measure 49
0010
0000
0100
0000
,  // measure 50
0010
0000
0000
0000
,  // measure 51
1000
0000
0001
0000
,  // measure 52
1000
0000
0001
0000
,  // measure 53
0010
0000
0100
0000
,  // measure 54
0010
0000
0000
0000
,  // measure 55
0100
0000
0010
0000
,  // measure 56
0001
0000
1000
0000
,  // measure 57
1001
0000
0000
0000
,  // measure 58
0110
0000
0000
0000
,  // measure 59
0010
0000
1000
0000
,  // measure 60
0001
0000
0000
0000
,  // measure 61
1000
0000
0001
0000
,  // measure 62
1000
0000
0001
0000
,  // measure 63
0100
0000
0010
0000
,  // measure 64
0100
0000
0010
0000
,  // measure 65
0000
0110
0000
0000
;

//---------------dance-single - ----------------
#NOTES:
     dance-single:
     :
     Easy:
     5:
     0.349,0.465,0.183,0.222,0.000: // measure 1
1000
0001
0100
0000
,  // measure 2
0001
0000
1000
0000
,  // measure 3
0001
0010
1000
0010
,  // measure 4
0001
0100
0010
0000
,  // measure 5
0100
0010
1000
0001
,  // measure 6
1000
0000
0001
0000
,  // measure 7
0001
0010
0100
0010
,  // measure 8
0001
1000
0001
0000
,  // measure 9
1000
0010
0100
0000
,  // measure 10
0001
0000
1000
0000
,  // measure 11
0001
0010
0100
0001
,  // measure 12
0100
1000
0001
0000
,  // measure 13
1000
0010
0100
0010
,  // measure 14
2000
3000
0200
0300
,  // measure 15
1000
0001
0100
0001
,  // measure 16
1000
0002
1003
0000
,  // measure 17
1000
0010
0200
0300
,  // measure 18
0001
0010
0200
0000
,  // measure 19
0310
0001
0100
1000
,  // measure 20
0100
0010
2002
3003
,  // measure 21
0110
0010
1000
0001
,  // measure 22
1000
0100
0010
0000
,  // measure 23
0100
0010
0100
1000
,  // measure 24
0001
0100
0010
0000
,  // measure 25
1001
0001
0010
0100
,  // measure 26
0110
0010
0001
0100
,  // measure 27
0110
0010
1000
0100
,  // measure 28
0110
1001
0220
0330
,  // measure 29
1001
0001
0100
0010
,  // measure 30
0100
0001
1000
0000
,  // measure 31
0001
1000
0100
0001
,  // measure 32
0100
1000
0001
0000
,  // measure 33
1000
1000
0100
0100
,  // measure 34
0010
0100
0010
0100
,  // measure 35
0001
0001
0100
0100
,  // measure 36
0010
1000
2002
3003
,  // measure 37
0001
0100
1000
0100
,  // measure 38
0001
0001
1000
1000
,  // measure 39
0001
0010
1000
0010
,  // measure 40
0001
1000
2002
3003
,  // measure 41
0001
0010
0100
0010
,  // measure 42
0100
0100
1000
1000
,  // measure 43
0001
0100
0010
0100
,  // measure 44
0001
1000
2002
3003
,  // measure 45
1002
1003
0000
0000
,  // measure 46
0120
0130
0000
0000
,  // measure 47
0001
0000
1000
0000
,  // measure 48
0001
1000
2002
3003
,  // measure 49
1000
0100
1000
0000
,  // measure 50
0001
1000
0001
0000
,  // measure 51
1000
0100
0010
0100
,  // measure 52
0010
0001
1000
0000
,  // measure 53
0010
0100
0001
0000
,  // measure 54
1000
0001
0100
0000
,  // measure 55
0010
1000
0100
0010
,  // measure 56
0100
0010
0100
0000
,  // measure 57
2002
3003
0000
0000
,  // measure 58
0220
0330
0000
0000
,  // measure 59
0010
0000
1000
0000
,  // measure 60
0001
1000
1001
0000
,  // measure 61
0001
1000
0001
1000
,  // measure 62
0001
1000
0001
1000
,  // measure 63
0010
0100
0010
0100
,  // measure 64
0010
0100
0010
0100
,  // measure 65
0010
0110
0000
0000
;

//---------------dance-single - ----------------
#NOTES:
     dance-single:
     :
     Medium:
     7:
     0.520,0.527,0.077,0.280,0.000: // measure 1
1000
0010
0100
0000
0001
0000
0010
0000
,  // measure 2
0100
1000
0100
0000
0010
0001
0010
0000
,  // measure 3
0001
0100
0010
0000
0100
0000
0010
0000
,  // measure 4
1000
0001
1000
0001
1000
0000
0000
0000
,  // measure 5
0001
1000
0001
0000
1000
0000
0010
0000
,  // measure 6
0100
0010
0100
0000
0001
1000
0001
0000
,  // measure 7
1000
0100
1000
0000
0001
0000
0010
0000
,  // measure 8
0100
0010
0001
0000
2000
0000
3000
0000
,  // measure 9
0001
0100
0001
0100
0010
0000
1000
0000
,  // measure 10
0001
0010
1000
0000
1000
0010
0001
0000
,  // measure 11
1000
0001
1000
0001
0100
0000
0010
0000
,  // measure 12
0100
0001
0010
0000
0220
0000
0330
0000
,  // measure 13
0010
0001
1000
0100
0010
0000
0100
0000
,  // measure 14
1000
0001
1000
0000
0001
0100
0001
0000
,  // measure 15
1000
0010
0100
0001
0100
0000
0001
0000
,  // measure 16
1000
0001
1000
0001
2000
0000
3000
0000
,  // measure 17
0001
0100
0020
0000
0130
0010
2000
0000
,  // measure 18
3001
1000
0200
0000
0310
0001
0020
0000
,  // measure 19
0031
0010
0001
0010
0100
1000
0100
0000
,  // measure 20
1000
0001
0100
0000
0220
0000
0330
0000
,  // measure 21
0010
1000
0001
0000
0010
0001
1000
0000
,  // measure 22
0001
0000
0100
0000
1000
0100
0001
0000
,  // measure 23
1000
0100
1000
0000
0001
0010
0100
0000
,  // measure 24
0010
0001
0010
0001
2000
0000
0010
0000
,  // measure 25
3001
1000
0010
0000
0100
0001
1000
0000
,  // measure 26
0100
0010
0100
0000
0010
0001
0010
0000
,  // measure 27
1000
0100
1000
0100
0001
0000
0100
0000
,  // measure 28
1000
0001
0100
0000
0220
0000
0330
0000
,  // measure 29
0001
0000
0100
0000
0010
1000
0200
0000
,  // measure 30
0310
0001
2000
0000
3001
1000
0200
0000
,  // measure 31
0310
0001
0200
0000
1300
0100
0002
0000
,  // measure 32
1003
0001
1000
0001
1000
0000
0001
0000
,  // measure 33
0010
0001
0100
0010
1000
0010
1000
0000
,  // measure 34
0001
0010
0001
0000
1000
0100
2000
0000
,  // measure 35
3001
1000
0001
1000
0100
0010
0100
0000
,  // measure 36
0010
0001
1000
0000
2002
0000
3003
0000
,  // measure 37
0001
1000
0001
1000
0001
0100
0001
0000
,  // measure 38
1000
0100
1000
0000
0001
0010
0001
0000
,  // measure 39
1000
0100
0010
0001
0010
0100
1000
0000
,  // measure 40
0001
0010
0100
0000
0220
0000
0330
0000
,  // measure 41
0001
0010
0001
1000
0001
0100
0001
0000
,  // measure 42
0100
0010
0100
0000
0010
1000
0010
0000
,  // measure 43
1000
0100
0010
0001
1000
0100
0010
0000
,  // measure 44
0001
0010
0100
0000
0220
0000
0330
0000
,  // measure 45
0001
0001
0002
0000
1003
0001
0100
0000
,  // measure 46
0010
0010
0020
0000
0130
0010
1000
0000
,  // measure 47
0002
0000
0010
0000
,  // measure 48
1003
0001
1000
0010
0200
0000
0300
0000
,  // measure 49
0010
0100
0001
0000
0100
0001
1000
0000
,  // measure 50
0001
1000
0100
0000
0010
0001
0100
0000
,  // measure 51
0010
1000
0100
0001
,  // measure 52
0100
0000
1000
0001
1000
0000
0000
0000
,  // measure 53
0001
0100
0010
0001
,  // measure 54
0010
0000
1000
0000
0001
1000
0001
0000
,  // measure 55
1000
0100
0001
0100
,  // measure 56
0010
0000
0001
1000
0001
0000
0000
0000
,  // measure 57
1000
0001
1000
0000
0001
0000
0100
0000
,  // measure 58
0010
0100
0010
0000
0100
0000
0001
0000
,  // measure 59
1000
0100
0001
0100
,  // measure 60
1000
0001
1001
0000
,  // measure 61
1000
0100
0010
0001
,  // measure 62
1000
0010
0100
0001
,  // measure 63
1000
0010
0001
0010
,  // measure 64
0100
0001
0010
0100
,  // measure 65
0010
1001
0000
0000
;
