#TITLE:Struck by the Rain;
#SUBTITLE:(English Version);
#ARTIST:Made famous by Canary Club;
#TITLETRANSLIT:;
#SUBTITLETRANSLIT:;
#ARTISTTRANSLIT:;
#GENRE:;
#CREDIT:;
#BANNER:rain-banner.png;
#BACKGROUND:rain-bg.png;
#LYRICSPATH:;
#CDTITLE:rh-cdtitle.png;
#MUSIC:Struck by the Rain.mp3;
#OFFSET:-0.754;
#SAMPLESTART:53.191;
#SAMPLELENGTH:19.500;
#SELECTABLE:YES;
#BPMS:0.000=127.990
;
#STOPS:
;
#BGCHANGES:;
#KEYSOUNDS:;
#ATTACKS:;

//---------------dance-single - ----------------
#NOTES:
     dance-single:
     :
     Hard:
     8:
     0.509,0.486,0.202,0.240,0.198,403.000,26.000,31.000,0.000,0.000,0.000,0.509,0.486,0.202,0.240,0.198,403.000,26.000,31.000,0.000,0.000,0.000: // measure 0
0000
0000
0000
0000
,  // measure 1
0000
0000
0000
0000
,  // measure 2
0000
0000
0000
0000
0000
0000
0000
0000
0000
0000
0000
0000
0000
0000
0000
0001
,  // measure 3
0000
1000
0001
0000
0100
0000
0010
0000
1000
0000
0000
0000
0001
0000
0000
0100
,  // measure 4
0000
0000
0000
0000
0001
0000
0000
0000
1000
0000
0000
0000
0010
0000
0100
0001
,  // measure 5
0000
0000
0000
0000
0010
0000
0000
0000
0001
0000
0000
0000
0100
0000
0010
1000
,  // measure 6
0000
0000
0001
0100
0001
0010
0001
0100
0010
0000
0000
0000
1000
0000
0000
0001
,  // measure 7
0000
0100
0001
0000
0010
0000
0001
0000
1000
0000
0000
0000
1001
0000
0000
0101
,  // measure 8
0000
0000
0000
0000
0010
0000
0000
0000
1000
0000
0000
0000
0100
0000
0000
0010
,  // measure 9
0000
0000
0000
0000
0100
0000
0000
0000
0001
0000
0000
0000
0010
0000
0000
2002
,  // measure 10
0000
0000
0000
0000
0000
0000
0000
0000
0000
0000
0000
3003
0000
0000
0000
0001
,  // measure 11
0000
1000
0001
0000
1000
0000
0001
0000
1000
0000
0010
0000
0100
0000
0001
0000
,  // measure 12
1000
0000
0001
0000
0010
0000
1000
0000
0010
0001
0010
0000
0100
0000
0001
0000
,  // measure 13
0100
0010
0001
0100
2000
0001
3020
0100
,  // measure 14
2030
0000
0000
0000
3100
0000
1000
0000
0100
0010
0100
0000
0001
0000
0010
0000
,  // measure 15
0100
0000
1000
0100
1000
0000
0010
0000
0002
0000
0000
0000
2003
0000
0000
0000
,  // measure 16
3020
0100
0001
1030
,  // measure 17
0200
0001
0010
0301
,  // measure 18
0001
0000
0000
0000
0100
0000
0000
0000
0010
0000
0000
0000
1010
0000
0000
1001
,  // measure 19
0000
0100
0010
0001
0100
0001
0010
0001
,  // measure 20
1000
0001
0100
0001
0020
0000
0001
0030
,  // measure 21
0010
0100
1000
0001
0100
0001
0010
0001
,  // measure 22
2100
0000
0010
0000
3001
0000
0100
0001
,  // measure 23
0010
0100
1000
0010
0100
0001
0010
0001
,  // measure 24
0200
0320
2030
3002
,  // measure 25
0203
0000
0302
0000
0023
0000
0001
0030
,  // measure 26
2100
0000
0010
0000
0001
0000
0100
0010
,  // measure 27
0000
0001
0000
0010
0000
0100
0001
3000
,  // measure 28
0001
0000
0000
0100
0010
0000
1000
0000
0001
0000
0100
0000
0001
0000
1000
0000
,  // measure 29
0000
2000
0000
3020
0000
0230
0000
0300
,  // measure 30
0010
0001
0100
0001
1100
0010
0100
0101
,  // measure 31
0000
0000
0011
0000
0000
0000
0101
0000
0000
0000
0010
1000
0001
0100
0001
0000
,  // measure 32
0010
0000
0001
0100
0010
1000
0100
0000
,  // measure 33
2001
0000
0000
0000
0010
0000
0000
0000
0100
0000
0000
0000
0001
3000
0000
0000
,  // measure 34
0201
0000
0000
0000
0010
0300
0000
0000
2100
0000
0000
0000
3010
0000
0100
0000
,  // measure 35
0001
0000
0000
0000
0010
0000
0100
0000
0001
0000
1000
0000
0001
0000
0000
0100
,  // measure 36
0000
0000
0010
0000
1000
0000
0001
0100
0010
0000
1000
0000
0001
0000
0000
1000
,  // measure 37
0000
0001
0100
0000
0001
0000
1000
0000
0010
0000
0000
0000
0001
0000
0100
0000
,  // measure 38
0000
0001
1000
0100
0000
0010
0100
0001
,  // measure 39
2001
0000
0100
0000
0010
0000
3001
0100
,  // measure 40
0000
0001
0010
0001
0100
0010
1001
0000
,  // measure 41
0100
1000
0010
0200
0000
0300
0000
2001
,  // measure 42
0000
0100
3001
0210
0000
0010
0301
0100
,  // measure 43
0010
1000
0010
0100
0000
0000
0001
0100
,  // measure 44
0010
1000
0001
0100
0000
0010
0001
0100
,  // measure 45
1000
1000
0010
0010
0001
1000
0001
1000
,  // measure 46
0000
0010
0100
1000
0000
1000
0010
0001
,  // measure 47
1000
0001
0100
0001
0000
0100
0010
0001
,  // measure 48
0000
1000
0100
0010
0100
0001
1000
0010
,  // measure 49
0100
1000
0010
0001
0000
0000
0100
1000
,  // measure 50
0000
0010
1000
0010
0000
0100
1000
0001
,  // measure 51
0010
0001
0010
0100
0001
1000
0010
0100
,  // measure 52
1000
0000
0010
0000
0100
0000
1000
0000
0010
0000
0001
0000
0100
0000
0000
0001
,  // measure 53
0000
0010
1000
0000
0100
0000
0001
0000
1000
0000
0100
0001
0100
0001
1000
0000
,  // measure 54
0000
0000
0001
0000
0100
0000
0001
0000
0010
0000
0001
0000
0100
0000
1000
0010
,  // measure 55
0000
1000
0001
0000
0100
0000
0001
0000
0010
0000
0001
0100
0001
0000
0010
0001
,  // measure 56
0000
0010
0100
0000
1000
0000
0001
0000
0100
0000
0010
0000
1000
0000
0001
0100
,  // measure 57
0000
0001
0010
0000
0001
0000
0100
0000
0010
0000
1000
0000
0100
0000
1000
0010
,  // measure 58
0000
0100
0010
0100
0010
0100
0010
0100
0010
0000
0000
0000
1000
0000
0000
0010
,  // measure 59
0000
0001
0100
0000
0010
0000
1000
0000
0001
0000
0000
0000
1000
0000
0000
0011
,  // measure 60
0000
0000
0000
0000
0001
0000
0100
0000
0010
0000
1000
0000
0100
0000
0000
1010
,  // measure 61
0000
0000
0000
0000
0100
0000
0001
0000
0010
0000
0001
0000
0010
0000
0000
1001
,  // measure 62
0000
0000
0010
0000
0100
0000
0001
0000
0010
0000
0000
0000
0001
0000
0000
0001
,  // measure 63
0000
1000
0001
0000
1000
0000
0001
0000
1000
0000
0000
0000
0110
0000
0000
2002
,  // measure 64
0000
0000
0000
0000
0000
0000
0000
3003
,  // measure 65
0001
0000
1000
0000
0001
0000
1000
0000
0001
0000
0110
0000
0000
1001
0000
0000
,  // measure 66
0110
0000
0000
0000
;

//---------------dance-single - Blank----------------
#NOTES:
     dance-single:
     :
     Medium:
     5:
     0.348,0.358,1.000,0.000,0.050,183.000,131.000,0.000,0.000,0.000,0.000,0.348,0.358,1.000,0.000,0.050,183.000,131.000,0.000,0.000,0.000,0.000:
0000
0000
0000
0000
,
0000
0000
0000
0000
,
0000
0000
0000
0000
,
0000
0000
0000
0000
0000
0000
0000
0000
0000
0000
0000
0000
0011
0000
0000
1010
,
0000
0001
0010
0011
,
0100
0101
0010
1010
,
0100
0011
0010
1001
,
0100
0000
0000
0000
0101
0000
0000
0000
0010
0000
0000
0000
0110
0000
0000
1001
,
0000
0011
0100
1100
,
0010
0101
0001
0110
,
0100
0000
0000
0000
1010
0000
0000
0000
0001
0000
0000
0000
0101
0000
0000
0101
,
0000
0000
0010
0101
,
0000
0101
0000
0110
,
0000
0011
0000
0101
,
0000
0101
0000
0110
,
0000
0011
0000
0110
,
0000
0011
0010
0011
,
0000
0101
0100
1100
,
0000
0000
0000
0000
0011
0000
0000
0000
0010
0000
0000
0000
0101
0000
0000
1010
,
0000
0100
0001
1100
,
0000
0011
0000
1001
,
0000
0101
0000
1001
,
0000
1010
0000
0110
,
0000
1010
0000
0101
,
0000
1010
0000
1100
,
0000
1001
0000
0110
,
0000
0000
0000
0000
0011
0000
0000
0000
0000
0000
0000
0000
1100
0000
0000
1010
,
0000
0000
0100
1100
,
0010
0011
0010
1001
,
0100
0110
1000
1010
,
0010
0000
0011
0000
0000
0010
0000
0011
,
0000
0100
0000
0101
0000
0010
0000
1001
,
0001
1100
0000
0110
,
0000
0011
0101
1100
,
0000
0011
0000
1100
,
0000
0110
0000
0011
,
0000
0000
0000
0000
1100
0000
0000
0000
0000
0000
0000
0000
0011
0000
0000
1001
,
0000
0000
0010
0110
,
0100
0101
0010
1010
,
0010
1001
1001
1001
,
0010
0110
0001
1001
,
1000
0011
0010
1100
,
0000
0110
0000
0011
,
0000
0101
0000
0011
,
0000
1100
0000
0110
,
0000
0110
1100
0110
,
0001
0101
0100
1100
,
0100
0110
1001
0110
,
0100
1100
0100
1010
,
0010
0110
0001
1001
,
1000
1100
0100
0110
,
0001
1001
0010
0110
,
0010
0000
0000
0000
0101
0000
0000
0000
1000
0000
0000
0000
1001
0000
0000
0110
,
0000
0000
0000
0110
,
0000
0101
0000
0110
,
0000
0000
0000
0000
0101
0000
0000
0000
0000
0000
0000
0000
0110
0000
0000
1100
,
0000
0000
0000
0101
,
0000
0000
0000
0000
0011
0000
0000
0000
0000
0000
0000
0000
0110
0000
0000
1001
,
0000
0110
0000
1100
,
0000
0000
0000
0000
0110
0000
0000
0000
0000
0000
0000
0000
0011
0000
0000
1100
,
0000
0101
0000
1100
,
0000
0000
0000
0000
1001
0000
0000
0000
0000
0000
0000
0000
0110
0000
0000
0110
,
0000
0000
0000
0000
0110
0000
0000
0000
0000
0000
0000
0000
0011
0000
0000
1100
,
0000
0000
0000
0000
0000
0000
0000
0000
0000
0000
0000
0000
0101
0000
0000
1100
,
0000
0000
0000
0000
,
0001
0000
1000
0000
,
0101
0000
0000
0000
;

//---------------dance-single - Blank----------------
#NOTES:
     dance-single:
     :
     Easy:
     3:
     0.259,0.307,0.240,0.016,0.000,201.000,31.000,2.000,0.000,0.000,0.000,0.259,0.307,0.240,0.016,0.000,201.000,31.000,2.000,0.000,0.000,0.000:
0000
0000
0000
0000
,
0000
0000
0000
0000
,
0000
0000
0000
0000
,
0000
0000
0000
0000
,
1001
0000
0000
0000
,
0010
0000
0010
0000
,
0100
0000
0100
0000
,
0001
1000
0001
1000
,
0110
0000
0010
0000
,
0100
0000
0100
0000
,
0001
0000
1000
0000
,
0011
0110
1100
0000
,
0001
0010
0000
0100
,
0000
0001
0000
0010
,
0100
0001
0000
0010
,
0000
1000
0000
0100
,
0001
0010
0100
1000
,
0100
0010
0001
0010
,
0100
0001
1000
0110
,
1001
0000
0010
0010
,
0100
0100
0001
0001
,
1000
0001
1000
0001
,
0110
0011
1100
0010
,
0100
0001
0010
0100
,
2001
0000
0001
3000
,
0210
0000
0310
0000
,
0001
1000
0100
0010
,
0011
0110
1100
0110
,
0001
1000
0010
0010
,
0100
0001
0010
0010
,
0100
1000
0001
0001
,
0100
0010
0100
0000
,
0001
0100
0010
0001
,
0101
0001
1000
1100
,
0001
0100
0001
0000
,
1000
0000
0010
0100
,
0001
0100
0001
0010
,
0001
0100
0010
1001
,
0010
1100
0010
0110
,
0001
0001
0100
0010
,
1000
0100
0010
0100
,
0001
0010
0001
0010
,
0001
0100
0010
1000
,
0100
0010
0010
0010
,
0100
0001
0010
0001
,
1000
0001
1000
0001
,
0100
0000
0001
0000
,
0100
0010
1000
0000
,
0001
0000
0100
0000
,
0010
1000
0100
0000
,
1000
0000
0010
0000
,
0001
0100
0010
0001
,
0100
0000
0010
0000
,
1000
0001
1000
0001
,
0110
0000
0110
0000
,
1001
0000
1001
0000
,
0010
0001
0100
0010
,
0001
0100
0010
1000
,
0100
0010
0100
0001
,
0010
0100
0001
1001
,
0110
0001
0010
0100
,
0001
1000
0100
0010
,
0001
1000
0001
0100
,
0010
0100
0001
0011
,
1010
0000
0000
0000
,
0110
0000
0000
0000
,
1001
0000
0000
0000
;

//---------------dance-single - Blank----------------
#NOTES:
     dance-single:
     :
     Beginner:
     1:
     0.145,0.205,0.101,0.000,0.000,118.000,13.000,0.000,0.000,0.000,0.000,0.145,0.205,0.101,0.000,0.000,118.000,13.000,0.000,0.000,0.000,0.000:
0000
0000
0000
0000
,
0000
0000
0000
0000
,
0000
0000
0000
0000
,
0000
0000
0000
0000
,
1001
0000
0000
0000
,
0010
0000
0000
0000
,
0010
0000
0000
0000
,
0100
0000
0000
0000
,
0110
0000
0000
0000
,
0001
0000
0000
0000
,
0010
0000
0000
0000
,
0100
0100
0100
0000
,
0000
0001
0000
1000
,
0000
0010
0000
0010
,
0000
0001
0000
0001
,
0000
0100
0000
0100
,
0000
0001
0000
0010
,
0000
0001
0000
0100
,
0000
0001
0000
1001
,
1001
0000
0010
0000
,
0100
0000
0001
0000
,
0010
0000
0100
0000
,
0010
0010
0010
0000
,
0100
0100
0100
0000
,
0001
0000
1000
0000
,
0010
0000
0001
0000
,
0100
0000
0010
0000
,
0100
0000
0001
0000
,
1000
0000
0010
0000
,
0100
0000
0001
0000
,
0010
0000
0100
0000
,
1001
0000
0000
0000
,
0010
0000
0010
0000
,
1001
1001
1001
0000
,
0010
0000
0100
0000
,
0010
0000
0001
0000
,
0100
0000
1000
0000
,
0001
0001
0001
0000
,
0001
0000
0100
0000
,
0010
0000
0100
0000
,
0001
0000
0100
0000
,
1000
0000
1000
0000
,
0010
0000
0001
0000
,
0010
0000
0010
0000
,
0001
0000
0100
0000
,
0010
0000
0010
0000
,
0100
0000
0001
0000
,
0100
0000
0001
0000
,
0100
0000
0010
0000
,
0100
0100
0100
0000
,
1000
0000
0100
0000
,
0001
0000
0010
0000
,
1000
0000
0010
0000
,
1000
1000
1000
0000
,
0001
0000
0100
0000
,
0010
0010
0010
0000
,
1000
0000
0001
0000
,
0010
0000
0001
0000
,
0100
0000
0100
0000
,
0010
0000
0010
0000
,
1001
0000
0000
0000
,
0110
0000
0000
0000
,
1001
0000
0000
0000
,
0110
0000
0000
0000
,
1001
0000
0000
0000
,
0000
0000
0000
0000
,
0001
0000
0000
0000
;
