#TITLE:So;
#SUBTITLE:;
#ARTIST:Typhoon;
#TITLETRANSLIT:;
#SUBTITLETRANSLIT:;
#ARTISTTRANSLIT:;
#CREDIT:;
#BANNER:;
#BACKGROUND:;
#LYRICSPATH:;
#CDTITLE:;
#MUSIC:So.mp3;
#OFFSET:-1.060;
#SAMPLESTART:100.035;
#SAMPLELENGTH:11.800;
#SELECTABLE:YES;
#BPMS:0.000=138.000,192.000=145.000,192.500=138.000;
#STOPS:;
#BGCHANGES:;

//---------------dance-single - ----------------
#NOTES:
     dance-single:
     :
     Challenge:
     8:
     0.562,0.596,0.262,0.247,0.098:
0000
0000
0000
0000
,
0000
0000
0000
0000
,
0000
0000
0000
0000
,
0000
0000
0000
0000
,
1000
0100
1000
0100
,
0010
0001
0010
0001
,
1000
0101
0001
1100
,
0001
0000
1000
0000
0001
0100
0001
0100
,
1010
0000
1000
0100
0011
0000
0001
0100
,
1010
0000
1000
0100
0011
0000
0001
0100
,
1010
0101
1001
0011
,
0100
0000
1000
0000
0100
0000
1000
0000
0001
1000
0001
1000
0001
1000
0001
1000
,
0001
0100
0010
1000
0010
0100
0001
0010
,
0100
1000
0100
1000
0001
0000
1100
0000
,
0100
0010
0001
0010
0100
1000
0010
0100
,
0002
0000
0000
0000
0100
0000
0000
0000
1000
0000
0000
0000
0103
0001
0100
0001
,
0100
0010
1000
0001
0010
0001
1000
0100
,
1000
0001
0100
0010
1000
0010
0100
0001
,
0020
2030
3200
0302
,
0010
0010
0010
0013
,
0100
0000
1000
0000
0010
0000
1000
0001
1000
0000
0000
0100
0000
0000
1000
0000
,
0010
0000
0100
0000
0001
0000
0010
0100
0010
0000
0000
0100
0000
0000
1000
0000
,
0001
0000
1000
0000
0010
0000
0100
0001
0100
0000
0000
0001
0000
0000
0010
0000
,
0100
0000
1000
0000
0001
0000
1000
0010
1000
0000
0000
0001
0000
0000
1000
0000
,
0001
0010
1000
0010
0001
0010
1000
0010
,
0001
1100
0011
1001
,
2000
0000
3010
0100
2000
0000
3100
0001
,
0020
0000
0100
0000
0100
0000
0130
1000
,
0010
0000
0001
0000
0010
0000
1000
0001
1000
0000
0000
0010
0000
0000
0100
0000
,
0001
0000
0010
0000
1000
0000
0010
0001
0010
0000
0000
0001
0000
0000
1000
0000
,
0010
0000
0100
0000
0001
0000
1000
0100
1000
0000
0000
0001
0000
0000
0100
0000
,
0001
0000
1000
0000
0010
0000
1000
0001
1000
0000
0000
0100
0000
0000
0010
0000
,
0001
0100
1000
0010
0001
0100
1000
0100
,
0002
0023
0230
2300
,
3002
0000
0013
0100
0002
0000
0013
0100
,
1000
0010
0100
0001
1000
0100
0010
0001
,
1000
0001
0100
0100
0001
1000
0100
0100
,
1000
0000
0001
0000
0010
0000
0010
0000
0100
0000
1000
0001
0000
1000
0010
0000
,
0100
0001
1000
1000
0100
1000
0001
0001
,
0100
0000
0001
0000
1000
0000
1000
0000
0001
0000
0010
0100
0000
0000
1000
0000
,
1001
1000
0100
0001
1000
0010
0100
0001
,
1001
0001
0100
1000
0001
0010
0100
1000
,
1001
0000
1000
0001
0200
0000
0310
1000
,
0010
0010
0100
0100
0001
0001
1000
1000
,
0001
0010
1000
0100
1000
0010
0001
0100
,
0020
0000
1030
0100
0020
0030
1001
0000
,
0200
0000
1300
0001
0100
0001
1000
0010
,
2000
0100
3010
1001
,
1000
0010
0001
0100
0001
0010
1000
0100
,
0001
0010
0001
0100
1000
0010
0100
0001
,
0010
1100
0010
0101
,
1000
0001
0100
0001
1000
0010
0100
0001
,
2000
0010
3200
1000
,
0302
0100
0023
0001
,
2030
0000
3020
0000
,
0230
0000
0000
0300
,
0102
0010
1000
0103
,
2000
0010
0001
3100
,
0011
0100
1010
0100
,
0011
0000
1000
0000
0001
0100
0001
0100
,
0010
1000
0010
1000
0100
1000
0010
0100
,
0001
0010
0001
0010
0001
0100
0001
0010
,
0100
1000
0100
0010
0001
0101
0001
1100
,
1000
0100
0010
1001
,
0001
0100
1000
0010
1000
0100
0001
0010
,
1000
0100
1000
0010
0001
0100
0010
1000
,
0001
1010
0100
0011
,
0200
1000
0001
0310
,
0100
1000
0100
0001
0100
1000
0010
0100
,
0001
0100
1000
0100
0001
0000
0011
0000
,
0010
1000
0010
0001
0010
1000
0100
0001
,
0010
0000
0000
0000
0100
0000
0000
0000
0010
0000
0000
0000
0100
1000
0100
1000
,
0200
0000
1300
0010
0200
0000
0301
1000
,
0200
0000
0310
0001
0200
0000
0310
1000
,
1001
0011
1100
1001
,
1000
0100
1000
0100
1000
0010
0001
0100
,
1000
0100
1000
0100
0001
0010
1000
0100
,
0020
0000
0000
0030
,
1001
0000
0000
0000
;

//---------------dance-single - ----------------
#NOTES:
     dance-single:
     :
     Hard:
     8:
     0.522,0.482,0.131,0.284,0.047:
0000
0000
0000
0000
,
0000
0000
0000
0000
,
0000
0000
0000
0000
,
0000
0000
0000
0000
,
1000
0000
0001
0000
1000
0000
0001
0100
,
0001
0000
1000
0000
0001
0000
1000
0100
,
1000
0101
0010
1100
,
0001
0000
0001
0000
1000
0010
1000
0010
,
0200
0000
0302
0000
,
0023
0000
0230
0000
,
1300
0010
0100
0001
,
0010
0100
0010
0100
1000
0010
0100
0001
,
1000
0100
0001
0100
1000
0100
0001
0100
,
2000
0010
3001
1010
,
1000
0001
0100
1000
0010
1000
0100
0001
,
0020
0100
1030
0012
,
0103
0010
0100
0010
2000
0000
3010
0100
,
0002
0000
0013
0100
1000
0000
0001
0100
,
2000
3002
0023
2030
,
3200
0010
0010
0310
,
0001
0000
0010
0000
0100
0000
1000
0000
0010
0000
0000
0010
0000
0000
0010
0000
,
1000
0000
0010
0000
0100
0000
0001
0000
0010
0000
0000
0010
0000
0000
0010
0000
,
0100
0000
1000
0000
0100
0000
0001
0000
0010
0000
0000
0010
0000
0000
0010
0000
,
0001
0000
1000
0000
0010
0000
0001
0000
0100
0000
0000
0100
0000
0000
0100
0000
,
0010
1000
0010
1000
0001
0100
0001
0100
,
0002
0010
1000
0103
,
1010
0000
0001
0100
0010
0000
1000
0100
,
0010
0001
1000
0001
1000
0100
1000
0001
,
0010
0000
0100
0000
1000
0000
0010
0000
0001
0000
0000
0001
0000
0000
0001
0000
,
0010
0000
1000
0000
0100
0000
0001
0000
0010
0000
0000
0010
0000
0000
0010
0000
,
0001
0000
0100
0000
1000
0000
0001
0000
0100
0000
0000
0100
0000
0000
0100
0000
,
0001
0000
0010
0000
1000
0000
0001
0000
0100
0000
0000
0100
0000
0000
0100
0000
,
1000
0100
1000
0001
0100
0001
0100
0010
,
1000
0010
1000
0001
0010
0001
0010
0100
,
1000
0000
0001
0100
0010
0000
1000
0100
,
0010
0001
0010
0100
0010
0001
0010
0100
,
1000
0000
0000
0000
1000
0000
0000
0000
1000
0000
0000
0001
0100
0000
0010
0000
,
0100
0000
0000
0000
0100
0000
0000
0000
0100
0000
0001
1000
0000
0001
0010
0000
,
0100
0000
0000
0000
0100
0000
0000
0000
0100
0000
0000
1000
0001
0000
0010
0000
,
0100
0000
0000
0000
0100
0000
0000
0000
0100
0000
1000
0001
0000
0000
0000
0000
,
0010
0100
1000
0100
0010
0010
0001
0001
,
0100
0010
1000
0010
0100
0100
0001
0001
,
1000
0000
0001
0100
0010
0000
1000
0100
,
0010
0001
0010
0001
1000
0010
1000
0010
,
0100
0001
0100
1000
0100
0001
0100
1000
,
0200
0001
0310
1100
,
0100
0001
0010
0100
1000
0010
1000
0100
,
0020
0001
0031
1100
,
0001
0100
1000
0001
0010
1000
0100
1000
,
0100
0010
0001
0010
0100
1000
0001
1000
,
0200
0010
0301
0101
,
1200
0010
0301
1100
,
0021
0001
0001
0031
,
0120
0100
0100
0130
,
2100
0000
3020
0000
,
0230
0010
0010
0310
,
0100
0001
1000
0010
1000
0000
0001
1000
,
0100
1000
0001
0010
0100
0000
1000
0100
,
0001
0000
0100
1000
0010
0000
0100
0001
,
0010
0000
0010
0000
0010
0100
0010
0100
,
1000
0100
1000
0100
0001
0100
0001
0100
,
0001
0010
1000
0100
0010
0000
1100
0000
,
0001
0100
0001
0100
1000
0010
0001
0100
,
0020
1000
1030
0101
,
0100
0001
1000
0010
2000
0000
3001
1000
,
0200
0000
1300
0001
0020
0000
0130
1000
,
0002
0100
0010
0103
,
1000
0010
1000
0010
0100
0000
0101
0000
,
1000
0001
1000
0001
0010
0100
0010
0100
,
0001
1000
0001
1000
0200
0000
0310
0000
,
1000
0010
0100
0001
1000
0010
0100
0001
,
0020
0100
0130
1100
,
0001
0100
1000
0001
0020
0000
1030
0010
,
0002
0000
0103
1000
0020
0000
0031
0100
,
0020
2030
3002
0023
,
0031
0010
0001
0010
1000
0010
1000
0010
,
1000
0100
1000
0100
0001
0100
0010
1000
,
0002
0000
0000
0003
,
1001
0000
0000
0000
;

//---------------dance-single - ----------------
#NOTES:
     dance-single:
     :
     Medium:
     6:
     0.394,0.482,0.073,0.284,0.000:
0000
0000
0000
0000
,
0000
0000
0000
0000
,
0000
0000
0000
0000
,
0000
0000
0000
0000
,
0000
0000
0000
0000
,
0000
0000
0000
0000
,
1000
0000
0001
0000
,
0010
0000
0100
0000
1000
0001
1000
0001
,
2000
0000
3002
0000
,
2003
0000
3002
0000
,
1003
0010
0100
0001
,
0010
0100
0010
0100
0010
0100
1000
0001
,
1000
0000
0001
0010
0001
0000
1000
0010
,
1000
0000
0001
0100
0001
0000
1000
0000
,
0001
0000
1000
0010
1000
0000
0001
0010
,
0002
0100
0103
2000
,
3200
0000
0300
1000
0002
0000
0103
0010
,
2000
0000
3000
0001
0020
0000
0130
1000
,
0001
0010
1000
0100
,
0002
0010
0010
0013
,
0100
0000
0100
0000
1000
0000
0001
0100
,
0001
0000
0001
0000
0001
0000
0010
0100
,
0010
0000
0010
0000
0010
0000
0100
1000
,
0100
0000
0100
0000
0100
0000
1000
0100
,
1000
0010
0001
0100
,
1000
0010
0100
0001
,
0020
0000
0000
0130
1000
0000
0100
2000
,
0000
0010
0010
3010
,
0001
0000
0000
0010
1000
0000
0100
0000
,
0001
0000
0000
1000
0010
0000
0001
0000
,
0100
0000
1000
0010
0000
0000
0100
0000
,
0001
0000
0000
0010
0100
0000
1000
0000
,
0001
0010
0001
0100
,
0001
0010
0001
0100
,
0010
0000
0000
1000
0100
0000
1000
0002
,
0000
0010
0010
0013
,
0100
0000
0100
0000
0100
0000
1000
0001
,
0010
0000
0010
0000
0010
0000
0100
1000
,
0010
0000
0010
0000
0010
0000
0100
0001
,
0010
0010
0010
0110
,
0100
1000
0100
1000
0001
0010
0100
1000
,
0001
0100
0001
0100
0010
1000
0010
0100
,
0002
0000
0023
0000
,
1030
0100
0001
0100
1000
0100
0001
0010
,
0100
0000
0010
0100
0010
0000
0100
0000
,
1100
0000
1000
0001
1000
0000
0010
0000
,
0110
0000
0100
0001
0100
0000
0001
0000
,
2002
0000
3003
1000
,
0002
0000
0003
0100
0002
0000
1003
0100
,
0020
0000
0030
0100
2000
0000
3001
0100
,
0020
0100
0100
0130
,
0010
0001
0100
1000
,
0010
0000
0100
0000
0010
0000
0100
0001
,
0010
0000
0100
0000
0010
0000
0100
1000
,
0020
0000
0230
0000
,
0302
0000
0003
2000
,
3020
0000
0000
0130
0002
0000
1003
0100
,
0020
0000
0000
0130
2000
0000
3001
0100
,
0010
0110
0100
0110
,
0010
0000
1000
0000
0001
1000
0001
1000
,
0010
0000
0100
0010
0100
0000
0010
0000
,
0011
0000
0001
1000
0001
0000
0100
0000
,
0110
0000
0010
1000
0010
0000
1000
0000
,
2002
0000
3003
0001
,
2000
0000
3000
0010
2000
0000
3001
0010
,
0200
0000
0300
0010
0002
0000
1003
0010
,
0200
0010
0010
0310
,
0100
1000
0010
0001
,
1000
0010
0100
0001
1000
0010
0100
0001
,
0010
0010
0100
0100
,
1000
0100
0010
0001
1000
0100
0010
0001
,
1000
0010
0100
0100
,
0001
0000
0010
0100
1000
0000
1000
0010
,
0100
0000
0100
0001
0010
0000
0010
0100
,
1000
0001
1000
0100
,
0010
0001
0100
1000
,
0010
0001
0100
1000
,
0020
0000
0000
0030
,
0110
0000
0000
0000
;

//---------------dance-single - ----------------
#NOTES:
     dance-single:
     :
     Easy:
     4:
     0.269,0.312,0.073,0.211,0.000: // measure 1
0000
0000
0000
0000
,  // measure 2
0000
0000
0000
0000
,  // measure 3
0000
0000
0000
0000
,  // measure 4
0000
0000
0000
0000
,  // measure 5
1000
0000
0000
0000
,  // measure 6
0001
0000
0000
0000
,  // measure 7
1000
0000
0001
0000
,  // measure 8
0100
0010
0100
0010
,  // measure 9
1000
0000
0101
0000
,  // measure 10
0001
0000
1100
0000
,  // measure 11
0001
0010
0100
1000
,  // measure 12
0002
0000
0000
0103
,  // measure 13
0010
1000
0100
0001
,  // measure 14
0010
1000
0100
1000
,  // measure 15
0010
0001
0100
1000
,  // measure 16
0020
0000
0000
0030
,  // measure 17
0100
0001
0010
1000
,  // measure 18
0100
0001
0010
0001
,  // measure 19
0100
1000
0010
0001
,  // measure 20
0200
0000
0000
0300
,  // measure 21
0010
0000
0010
0000
,  // measure 22
1000
0000
1000
0000
,  // measure 23
0001
0000
0001
0000
,  // measure 24
0010
0000
0010
0000
,  // measure 25
0100
1000
0100
0001
,  // measure 26
0100
1000
0010
0100
,  // measure 27
0002
0000
2003
0000
,  // measure 28
3001
0010
0100
1000
,  // measure 29
0001
0000
0001
0000
,  // measure 30
0010
0000
0010
0000
,  // measure 31
0100
0000
0100
0000
,  // measure 32
1000
0000
1000
0000
,  // measure 33
0001
0010
1000
0010
,  // measure 34
0001
0100
0001
0010
,  // measure 35
2000
0000
3020
0000
,  // measure 36
0031
1000
0001
1000
,  // measure 37
0001
0001
0100
0101
,  // measure 38
0100
0100
0010
0110
,  // measure 39
0010
0010
1000
1010
,  // measure 40
1000
1000
0001
1001
,  // measure 41
1000
0100
0010
0100
,  // measure 42
1000
0010
0100
0010
,  // measure 43
2000
0000
3002
0000
,  // measure 44
0013
0100
0010
0100
,  // measure 45
1000
1000
0010
0010
,  // measure 46
0001
0001
0100
0100
,  // measure 47
1000
1000
0010
0010
,  // measure 48
0200
0000
0000
0300
,  // measure 49
0001
0001
0010
0010
,  // measure 50
1000
1000
0100
0100
,  // measure 51
0001
1000
0001
1000
,  // measure 52
0200
0000
0000
0300
,  // measure 53
0020
0000
0000
0000
,  // measure 54
0032
0000
0000
0000
,  // measure 55
0203
0000
0000
0000
,  // measure 56
0320
0000
0000
0000
,  // measure 57
2030
0000
3002
0000
,  // measure 58
0023
0000
0230
0000
,  // measure 59
1300
0001
1000
0001
,  // measure 60
0010
0010
0010
0010
,  // measure 61
0001
0001
0100
0100
,  // measure 62
1000
1000
0010
0010
,  // measure 63
0001
0001
0100
0100
,  // measure 64
1000
1000
0010
0010
,  // measure 65
0001
0100
0010
1000
,  // measure 66
0010
0100
0001
0010
,  // measure 67
0200
0000
0320
0000
,  // measure 68
2030
0000
3002
0000
,  // measure 69
1003
0100
1000
0100
,  // measure 70
0001
0100
0001
0100
,  // measure 71
0001
0010
0001
0010
,  // measure 72
1000
0010
1000
0010
,  // measure 73
0001
0100
1000
0010
,  // measure 74
0001
1000
0001
1000
,  // measure 75
0001
0001
1000
1000
,  // measure 76
2002
0000
0000
3003
,  // measure 77
2002
0000
0000
3003
,  // measure 78
2002
0000
0000
3003
,  // measure 79
1001
0000
0000
0000
;
