#TITLE:Poker Face;
#SUBTITLE:;
#ARTIST:Lady Gaga;
#TITLETRANSLIT:;
#SUBTITLETRANSLIT:;
#ARTISTTRANSLIT:;
#CREDIT:;
#BANNER:POKER FACE-BN.png;
#BACKGROUND:POKER FACE-BG.png;
#LYRICSPATH:;
#CDTITLE:;
#MUSIC:06 Lady GaGa - Poker Face.mp3;
#OFFSET:-0.792;
#SAMPLESTART:56.646;
#SAMPLELENGTH:15.000;
#SELECTABLE:YES;
#BPMS:0.000=119.000;
#STOPS:;
#BGCHANGES:;

//---------------dance-single - Chewi----------------
#NOTES:
     dance-single:
     Chewi:
     Hard:
     8:
     0.466,0.431,0.177,0.248,0.000:
0000
0000
0000
0000
,
0000
0000
0000
0000
,
0000
0000
0000
0000
,
0000
0000
0000
0000
,
0000
0000
0000
0000
,
0000
0000
0000
0000
,
0000
0000
0000
0000
,
0000
0000
0000
0000
0000
0000
1000
0100
,
1000
0010
0100
0010
1000
0001
1000
0001
,
0010
0100
1000
0010
0001
0010
1000
0010
,
0100
0001
0010
0001
1000
0001
0010
0100
,
1000
0001
1000
0100
0001
0100
1000
0010
,
0100
0001
1000
1000
0001
0100
0010
1000
,
0100
0100
0010
0000
1001
0000
0001
0001
,
1000
1000
0100
0010
0100
1000
0010
0100
,
0001
1000
0200
1000
1000
1300
0010
0100
,
0001
0010
0001
1000
0100
1000
0001
0100
,
0001
0010
0100
0000
1001
0001
0100
0001
,
0100
0010
1000
0010
1000
0100
0001
0100
,
1000
0010
0100
0000
0110
0000
0020
0000
,
1030
0100
0010
0000
0110
0000
1001
0000
,
0001
0010
1000
0010
0100
1000
0001
0100
,
0010
1000
0020
0000
0130
0010
1000
0100
,
0010
0001
1000
0100
0001
0100
2000
0000
,
3001
0100
0010
0000
1010
0000
1001
0000
,
1000
0100
0001
0100
0010
0001
1000
0010
,
0010
0100
0020
0000
0130
0001
0010
0100
,
1000
0002
0000
0000
0003
0000
0001
1000
,
0010
2000
0000
3001
0100
0002
0000
0103
,
0010
0100
0001
0001
0100
0000
2001
0000
,
3001
1000
0010
1000
0001
0000
0201
0000
,
0301
0001
0010
0100
1000
0001
0000
1000
,
0100
0020
0000
0031
0010
0200
0000
1300
,
0010
0001
0010
1000
1000
0000
2010
0000
,
3010
0100
0001
0100
0010
0000
0200
0000
,
0301
0100
0010
1000
0100
0100
0110
0010
,
0001
1000
0100
0010
0100
1000
1000
0001
,
0010
0200
0000
1300
0001
0100
0010
0100
,
0100
0001
1000
0001
0100
0010
0010
0100
,
0001
0200
0000
0310
0100
0010
0100
0000
,
0001
0000
1000
0000
0001
0000
0100
0010
,
1000
0001
2000
0000
3010
0000
0100
0000
,
0001
0000
1000
0000
0100
0000
0010
0001
,
1000
0100
2000
0000
3001
0000
1000
0100
,
0001
0100
1000
0010
0100
0001
0010
0100
,
1000
0001
1000
0000
1001
0001
0100
0100
,
0010
0100
0001
1000
0100
0010
0001
0100
,
1000
0100
0001
0000
1001
0000
0201
0000
,
0301
1000
0100
0000
0110
0000
1001
0000
,
0001
0010
1000
0010
0001
0100
0001
1000
,
0100
0010
0002
0000
0103
0010
0010
1000
,
0001
1000
0001
0010
1000
0010
0002
0000
,
0103
0001
1000
0000
1001
0000
2010
0000
,
3100
0010
0001
1000
0100
0010
0001
1000
,
0001
1000
0200
0000
0310
0001
2002
0000
,
0000
0000
0000
0000
3003
0000
1001
0001
,
0100
0020
0000
1030
0001
0020
0000
0031
,
0010
1000
0010
0001
1000
0000
2001
0000
,
3100
0010
0001
0100
0010
0000
0210
0000
,
0310
1000
0001
1000
0100
1000
0001
0100
,
0010
2000
0000
3001
0100
0020
0000
1030
,
0100
0010
0001
1000
0001
0000
0201
0000
,
0301
0100
0010
1000
0100
0000
0210
0000
,
0310
0010
0001
1000
0001
0100
0110
0010
,
0010
0100
0001
0010
1000
0010
0010
0100
,
0010
0002
0000
0013
0001
1000
0100
1000
,
1000
0010
0001
0010
0100
0010
0010
0100
,
0001
2000
0000
3001
0010
0100
1000
0000
;

//---------------dance-single - Chewi----------------
#NOTES:
     dance-single:
     Chewi:
     Medium:
     6:
     0.336,0.335,0.191,0.071,0.000:
0000
0000
0000
0000
,
0000
0000
0000
0000
,
0000
0000
0000
0000
,
0000
0000
0000
0000
,
0000
0000
0000
0000
,
0000
0000
0000
0000
,
0000
0000
0000
0000
,
0000
0000
0000
0000
0000
0000
0010
1000
,
0100
0000
0110
0000
0010
0000
0001
0100
,
0010
0000
1000
0100
0010
0001
1000
0001
,
0100
0000
0101
0000
0001
0000
1000
0100
,
0010
0000
0100
1000
0100
1000
0001
0000
,
0100
0001
0100
0010
,
1000
0100
0110
0010
,
0001
1000
0100
1000
,
0010
0000
0001
0000
0010
0000
1000
0100
,
0010
0000
0001
0100
0010
0000
1000
0001
,
1000
0001
1000
0000
1001
0000
0001
0100
,
0001
0000
1000
0100
1000
0000
0010
0100
,
0010
0100
0010
0000
0110
0000
0002
0000
,
1003
0100
0011
1001
,
2000
0000
3010
0000
1010
0000
1000
0100
,
0002
0000
0103
0000
1100
0000
1000
0010
,
0100
0002
1003
0100
,
0010
0010
0001
0000
0101
0000
1010
0000
,
0010
0000
1000
0000
0001
1000
0001
0000
,
0100
0010
1000
2002
,
0000
0000
0000
0000
3003
0000
1010
1000
,
1000
0001
0000
0001
0001
0100
0000
0100
,
0010
1000
0001
0000
1001
0000
1010
0000
,
0010
0100
0000
0100
0001
0000
1000
0000
,
0100
0000
0010
0010
0001
0001
0100
0010
,
0010
1000
0000
1000
1000
0100
0000
0100
,
0010
0001
0100
0000
0110
0000
1010
0000
,
0010
1000
0000
1000
0100
0000
0001
0000
,
0100
1000
0010
0100
,
0100
0000
0100
0100
0100
0000
0010
0000
,
0010
1000
0001
1000
,
0001
0000
0100
0100
0100
0000
0001
0000
,
0010
0100
0010
0001
,
0001
0001
0001
0001
,
0001
0001
0000
1000
,
1000
1000
1000
1000
,
1000
0000
1000
0000
0000
0000
0001
0100
,
0001
0000
1000
0100
1000
0000
0010
0100
,
0010
0000
0110
0000
1001
0000
1000
0010
,
1000
0000
1000
0100
1000
0000
0100
0010
,
0001
0101
1001
0020
,
0130
0001
0100
0020
,
1030
0000
1000
0000
0100
0000
0010
0001
,
0100
0000
0001
0100
0010
0000
1000
0100
,
0010
0000
0001
1000
0001
1000
0001
0000
,
0100
0010
1000
0100
,
0010
0000
0001
0000
0100
0000
0010
1000
,
0100
0000
1000
0100
0010
0000
2002
0000
,
0000
0000
0000
0000
3003
0000
0001
0100
,
0100
0010
0000
1000
1000
0100
0000
0100
,
0010
0001
1000
0000
1001
0000
0001
0000
,
0001
0100
0000
0100
0010
0000
1000
0000
,
0100
0000
0010
0001
1000
0001
0000
0001
,
0100
0100
0000
0010
1000
1000
0000
1000
,
0100
0010
0001
0000
1001
0000
0101
0000
,
0001
0100
0000
0100
0001
0000
1000
0000
,
0100
0010
0001
0000
0101
0000
1000
0000
,
0100
0000
1000
1000
1000
0000
0001
0000
,
0100
0100
0000
0100
0010
0000
1000
0000
,
0100
0000
0010
0010
0010
0000
0001
0000
,
0100
0010
0000
0010
1000
0000
1001
0000
;

//---------------dance-single - ----------------
#NOTES:
     dance-single:
     :
     Easy:
     4:
     0.242,0.311,0.134,0.071,0.000:
0000
0000
0000
0000
,
0000
0000
0000
0000
,
0000
0000
0000
0000
,
0000
0000
0000
0000
,
0000
0000
0000
0000
,
0000
0000
0000
0000
,
0000
0000
0000
0000
,
0000
0000
0000
0001
,
0100
0001
0100
0000
,
0010
0000
0010
1000
,
0010
1000
0010
0000
,
0100
0000
0100
0001
,
0001
0001
0000
1000
,
1000
1000
1001
0000
,
0100
0100
0100
0000
,
0010
0010
0010
1000
,
0100
0001
0100
1000
,
0010
0110
0000
0010
,
1000
0001
0100
1000
,
0100
0001
1000
0002
,
0003
1000
0001
0200
,
0300
0010
1000
0100
,
0100
0010
0010
0001
,
0001
0100
1000
0200
,
0300
0001
0010
0200
,
0300
0010
0001
1000
,
0001
0001
0100
0100
,
0000
0000
0000
0010
,
1010
1000
1001
1000
,
0100
0010
0001
0201
,
0001
0001
0301
0100
,
0010
1000
0100
0010
,
0011
0001
0101
1000
,
1001
1000
0010
0210
,
0010
0010
0310
1000
,
0100
0010
0001
1000
,
1000
1000
1000
1000
,
1000
0000
0001
0000
,
0001
0001
0001
0001
,
0001
0000
0001
0100
,
0000
0100
0000
0001
,
0000
0001
0000
0010
,
0000
0010
0000
1000
,
0000
1000
0000
0010
,
0010
0001
0001
0100
,
0100
0110
0110
0010
,
0010
1000
1000
0001
,
0001
1001
1001
2000
,
3100
0010
0001
0002
,
0103
0010
1000
0001
,
0001
1000
1000
0001
,
0001
1001
1001
0001
,
0100
0010
0010
1000
,
1000
0100
0100
0010
,
0010
0001
0001
1001
,
0000
0000
0000
0001
,
0100
1000
0100
0001
,
0100
1000
0100
0201
,
0001
0001
0301
0001
,
0010
0100
1000
1000
,
0010
0001
0010
1000
,
0010
0001
0010
2010
,
0010
0010
3010
1000
,
0100
0001
0100
1000
,
1000
1000
1000
0001
,
0001
0000
0001
0100
,
0100
0100
0100
0000
,
0010
0010
0010
1001
;
