#TITLE:One;
#SUBTITLE:;
#ARTIST:Epik High;
#TITLETRANSLIT:;
#SUBTITLETRANSLIT:;
#ARTISTTRANSLIT:;
#GENRE:;
#CREDIT:;
#MENUCOLOR:;
#METERTYPE:DDR;
#BANNER:[Other Music Games] - One.png;
#BACKGROUND:[Other Music Games] - One-bg.png;
#LYRICSPATH:;
#CDTITLE:;
#MUSIC:[Other Music Games] - One.mp3;
#OFFSET:-0.029;
#SAMPLESTART:64.904;
#SAMPLELENGTH:15.000;
#SELECTABLE:YES;
#LISTSORT:;
#BPMS:0.000=135.000;
#STOPS:;
#BGCHANGES:;
#ATTACKS:;

//---------------dance-single - ----------------
#NOTES:
     dance-single:
     :
     Hard:
     7:
     0.539,0.490,0.194,0.143,0.026:
0000
0000
0000
0000
,
2000
0000
3100
0000
0001
0100
1000
0010
,
0000
0010
0000
0010
0100
0010
0100
0010
,
2000
0000
3100
0000
0001
0100
1000
0010
,
0000
0010
0000
0010
0100
0001
0100
0010
,
1000
0100
0010
0001
0100
0010
1000
0000
,
0001
0010
0100
1000
0010
0100
0001
0000
,
1000
0100
0001
0100
1000
0010
0100
0000
,
0001
0100
1000
0100
0001
0010
0100
0000
,
1000
0010
0100
0001
0100
0010
1000
0000
,
0001
0010
0100
1000
0100
0010
0001
0000
,
1000
0100
0001
1000
0010
0001
1000
0000
,
0001
1000
0101
1100
,
0001
0000
0100
0001
1000
0100
0010
0100
,
1000
0000
0010
0100
0001
0100
1000
0100
,
0010
0000
1000
0100
0001
0100
0010
0001
,
0100
0000
0010
1000
0100
0001
0100
0000
,
1000
0000
0001
0100
1000
0100
0001
0000
,
0001
0000
1000
0100
0001
0100
1000
0000
,
1000
0001
0100
0000
0001
1000
0100
0000
,
0010
0000
0001
0000
1100
0000
1000
0001
,
1001
0000
1000
0010
0100
0001
0010
0100
,
1100
0000
1000
0001
0100
0010
1000
0010
,
0110
0000
0100
0001
1000
0100
0010
0001
,
0011
0010
0100
1000
0001
0100
0100
0000
,
0010
0000
0000
0010
0000
0000
0010
0000
0100
0000
0001
0000
1000
0000
0000
0000
,
0100
0000
0000
0100
0000
0000
0100
0000
0010
0000
0001
0000
1000
0000
0000
0000
,
0010
0000
0000
0010
0000
0000
0010
0000
0100
0000
0001
0000
1000
0000
0100
0000
,
0010
0001
0100
1000
0100
0001
0010
0200
,
1000
0000
1000
0000
1000
0000
1300
0002
,
0100
0000
0100
0000
0103
0010
1000
0200
,
0010
0000
0010
0000
0310
0100
1000
0002
,
0100
0000
0100
0000
0100
0000
0103
0020
,
1000
0000
1000
0000
1000
0000
1030
0200
,
0010
0000
0010
0000
0310
0100
1000
0001
,
0100
0000
0001
1000
0001
0000
0100
0010
,
0200
0300
1001
1100
,
0101
0000
1001
0000
1000
0100
0001
0100
,
2000
0000
3010
0200
0000
0301
0100
0010
,
1000
0100
0010
0001
0100
0000
0001
0010
,
0110
0100
1000
0001
1001
0000
0110
0000
,
1001
0000
0110
0000
0001
0100
1000
0100
,
0002
0000
0013
0200
0000
1300
0100
1000
,
0001
0100
0010
0100
0001
0010
0100
1000
,
0001
0000
0100
0000
0001
0000
0000
0000
1000
0000
1000
0000
0001
0100
0001
0100
,
0001
1000
0100
0000
0010
0100
1000
0001
,
0100
0010
0100
0000
0001
1000
1100
0100
,
0010
0100
1000
0000
0001
0100
1000
0100
,
0010
1000
0100
0000
0010
0001
0101
0100
,
0010
1000
0100
0000
0001
0100
1000
0010
,
0100
0001
0010
0000
1000
0010
0011
0001
,
1000
0001
0100
0000
1000
0100
0010
1000
,
0100
0010
0001
0000
0100
0010
0001
1000
,
0200
0301
0000
0000
;

//---------------dance-single - ----------------
#NOTES:
     dance-single:
     :
     Medium:
     6:
     0.403,0.381,0.092,0.010,0.000:
0000
0000
0000
0000
,
1000
0000
0100
0000
0010
0000
0100
1000
,
0001
0000
0100
0000
0010
0000
0100
0001
,
1000
0000
0010
0000
0100
0000
0010
1000
,
0001
0000
0010
0000
0100
0010
0100
0010
,
0001
0000
1000
0001
0000
1000
0100
0000
,
0010
0000
0100
1000
0000
0001
1000
0000
,
0010
0000
0100
0001
0000
0100
0010
0000
,
0100
0000
1000
0100
0000
0010
0100
0000
,
0010
0000
1000
0100
0000
0001
0100
0000
,
1000
0000
0010
0100
0000
0001
0010
0000
,
0001
0000
1000
0010
0000
0001
0010
0000
,
0100
0000
0100
0000
0100
0000
0100
0100
,
0001
0000
1000
0000
0100
1000
0001
0000
,
0100
0000
0010
0000
1000
0001
0010
0000
,
0100
0000
0001
0000
0100
1000
0010
0000
,
1000
0100
0001
0010
,
0100
0000
1000
0001
1000
0001
0100
0000
,
0010
0000
1000
0100
1000
0100
0010
0000
,
0001
0000
0100
0010
0100
0010
0001
0000
,
1000
0010
0001
0100
,
1000
0000
0001
0000
1000
0100
0000
1000
,
0001
0000
0100
0000
0010
0100
0000
0001
,
1000
0000
0100
0000
0001
0100
0000
0010
,
1000
0000
0001
0000
0100
1000
0000
0001
,
0100
0000
0010
0000
1000
0100
0000
0001
,
0100
0000
0010
0000
1000
0100
0000
0001
,
0010
0000
0100
0000
1000
0001
0000
0100
,
0010
0010
0010
0010
,
0010
0000
0100
0010
0100
0000
0110
0000
,
0000
0000
0001
1000
0001
0000
1001
0000
,
0000
0000
1000
0100
1000
0000
1100
0000
,
0000
0000
0010
0001
0010
0000
0011
0000
,
0001
0100
1000
0010
,
0001
0100
0001
0010
,
1000
0000
0100
0010
0001
0000
0100
1000
,
0010
0100
0101
1100
,
1010
0000
0101
0000
1000
0001
0100
0000
,
0010
0000
0100
0001
0000
1000
0100
0000
,
0010
0001
0100
1000
,
0010
1000
0100
0000
0001
0010
0100
0000
,
1000
0000
0001
0000
0100
0010
0100
0000
,
0001
0000
1000
0100
0000
0001
0100
0000
,
0010
1000
0010
0000
0100
0001
0100
0000
,
0001
1000
0001
1000
0100
0000
0010
0010
,
0001
0000
0100
0100
0010
0000
1000
1000
,
0100
0000
0001
0100
1000
0010
0100
0000
,
0001
0000
0100
0100
0010
0000
1000
1000
,
0001
0000
0010
0100
1000
0000
0001
0000
,
0101
0000
1000
0100
0010
0000
0001
0000
,
1000
0100
0010
0000
0001
0000
0100
0010
,
1000
0000
0100
0010
0100
0000
0001
1000
,
0001
0000
0010
0000
0100
1000
0001
0000
,
0200
1300
0000
0000
;

//---------------dance-single - ----------------
#NOTES:
     dance-single:
     :
     Easy:
     3:
     0.258,0.272,0.020,0.102,0.000:
0000
0000
0000
0000
,
0000
0000
0000
0000
,
0000
0000
0000
0000
,
0000
0000
0000
0000
,
0000
0000
0000
0000
,
0001
0100
0001
0001
,
1000
0100
1000
1000
,
0001
0010
0100
0100
,
0010
0001
0100
0100
,
0010
1000
0010
0010
,
0100
0001
1000
1000
,
0100
0010
0001
0001
,
0020
0000
0000
0030
,
0001
0100
0010
1000
,
0100
0010
0100
1000
,
0001
0100
0010
1000
,
0100
0010
0100
1000
,
0001
0100
0001
0100
,
0001
1000
0100
1000
,
0100
0010
0001
0010
,
0001
0010
0100
1000
,
0001
0100
0010
1000
,
0100
0010
0001
0010
,
0100
1000
0001
0100
,
0010
1000
0001
0100
,
0010
1000
0100
0010
,
0001
0010
0100
1000
,
0001
0100
0010
1000
,
0100
0010
0001
0000
,
2000
0000
0000
3000
,
0002
0000
0000
0003
,
0200
0000
0000
0300
,
0020
0000
0000
0030
,
2000
0000
0000
3000
,
0200
0000
0000
0300
,
0020
0000
0000
0030
,
0002
0000
0000
0003
,
1000
1100
1000
0001
,
0100
0001
0100
0010
,
1000
0100
0001
0010
,
0100
1000
0001
0100
,
0010
0110
0100
0001
,
0010
1000
0100
0001
,
0100
1000
0010
0100
,
0001
0010
0100
1000
,
0001
0100
0010
1000
,
0100
1000
0010
0100
,
0001
0100
0010
1000
,
0100
0010
0001
0010
,
0100
1000
0001
0100
,
0010
1000
0100
0010
,
0001
1000
0010
0100
,
0001
0010
0100
1000
,
0002
0003
0000
0000
;

//---------------dance-single - ----------------
#NOTES:
     dance-single:
     :
     Beginner:
     2:
     0.146,0.163,0.000,0.000,0.000: // measure 1
0000
0000
0000
0000
,  // measure 2
0000
0000
0000
0000
,  // measure 3
0000
0000
0000
0000
,  // measure 4
0000
0000
0000
0000
,  // measure 5
0000
0000
0000
0000
,  // measure 6
0001
0000
0001
0000
,  // measure 7
1000
0000
1000
0000
,  // measure 8
0001
0000
0001
0000
,  // measure 9
1000
0000
1000
0000
,  // measure 10
0001
0000
0001
0000
,  // measure 11
1000
0000
1000
0000
,  // measure 12
0001
0000
0001
0001
,  // measure 13
0001
0000
0000
0000
,  // measure 14
1000
0000
1000
0000
,  // measure 15
0001
0000
0001
0000
,  // measure 16
0100
0000
0100
0000
,  // measure 17
0001
0001
0001
0000
,  // measure 18
1000
0000
1000
0000
,  // measure 19
0100
0000
0100
0000
,  // measure 20
0001
0000
0001
0000
,  // measure 21
0100
0100
0100
0000
,  // measure 22
1000
0000
1000
0000
,  // measure 23
0001
0000
0001
0000
,  // measure 24
1000
0000
1000
0000
,  // measure 25
0100
0100
0100
0000
,  // measure 26
0001
0000
0001
0000
,  // measure 27
1000
0000
1000
0000
,  // measure 28
0100
0000
0100
0000
,  // measure 29
0001
0001
0001
0000
,  // measure 30
1000
0000
0000
0000
,  // measure 31
0001
0000
0000
0000
,  // measure 32
0100
0000
0000
0000
,  // measure 33
0010
0000
0000
0000
,  // measure 34
1000
0000
0000
0000
,  // measure 35
0100
0000
0000
0000
,  // measure 36
0010
0000
0000
0000
,  // measure 37
0001
0000
0000
0000
,  // measure 38
1000
0000
1000
0000
,  // measure 39
0001
0000
0001
0000
,  // measure 40
1000
1000
1000
0000
,  // measure 41
0001
0001
0001
0000
,  // measure 42
0100
0000
0100
0000
,  // measure 43
0001
0000
0001
0000
,  // measure 44
1000
0000
1000
0000
,  // measure 45
0100
0100
0100
0000
,  // measure 46
1000
0000
1000
0000
,  // measure 47
0001
0000
0001
0000
,  // measure 48
1000
0000
1000
0000
,  // measure 49
0001
0001
0001
0000
,  // measure 50
0100
0000
0100
0000
,  // measure 51
0001
0000
0001
0000
,  // measure 52
1000
1000
1000
0000
,  // measure 53
0001
0001
0001
0000
,  // measure 54
0100
0100
0000
0000
;
