#TITLE:I Want You;
#SUBTITLE:;
#ARTIST:Lin-G;
#TITLETRANSLIT:;
#SUBTITLETRANSLIT:;
#ARTISTTRANSLIT:;
#GENRE:;
#CREDIT:;
#BANNER:iwantyou-bn.png;
#BACKGROUND:iwantyou-bg.opng;
#LYRICSPATH:;
#CDTITLE:;
#MUSIC:iwantyou.ogg;
#OFFSET:0.000;
#SAMPLESTART:42.857;
#SAMPLELENGTH:12.000;
#SELECTABLE:YES;
#BPMS:0.000=140.000;
#STOPS:;
#BGCHANGES:;
#KEYSOUNDS:;

//---------------dance-single - Taka----------------
#NOTES:
     dance-single:
     Taka:
     Hard:
     8:
     0.519,0.467,0.077,0.134,0.000:
2000
0000
3002
0000
,
0203
0000
0320
0000
,
2030
0000
3000
0000
,
0002
0000
0003
1001
,
1000
0100
0010
0100
0010
0001
1000
0010
,
0200
0000
0301
0010
0001
2000
0000
0000
,
3001
0100
0010
1000
0100
0001
0100
1000
,
0011
1001
0101
0110
,
0010
1000
0100
1000
0010
0100
0001
1000
,
0002
0000
1003
0010
0000
0010
0100
0000
,
0001
0000
1000
0000
0100
0010
0001
0020
,
0030
0001
1000
0010
0100
0010
1000
0000
,
0001
0000
0100
0000
0010
1000
0001
0010
,
0000
0001
1000
0010
0100
0000
0001
0000
,
0000
0000
1000
0000
0100
0001
0100
1000
,
0000
1010
0000
0110
0000
0101
0000
0000
,
0001
0000
0100
0010
1000
0010
0100
0001
,
0000
0010
1000
0010
0001
0000
1000
0000
,
0010
1000
0010
0000
1000
0100
0001
1000
,
0000
0020
0000
0000
0000
0000
0000
0000
,
0031
0000
1000
0000
0010
0100
0001
1000
,
0000
0200
0000
0000
0000
0000
0000
0000
,
0000
0000
0310
1000
0001
0100
1000
0010
,
0000
0100
0000
0001
0000
1000
0000
0001
,
0000
0000
0010
0100
1000
0100
0010
0002
,
0000
1003
0010
1000
0001
0000
0010
0000
,
0100
1000
0100
0001
1000
0010
0001
1000
,
0000
0010
0000
0100
0000
0001
0000
0000
,
1000
0010
1000
0010
0100
0010
0100
0001
,
0000
1000
0100
0010
0100
0000
0001
0100
,
1000
0010
1000
0010
0100
0001
0010
0100
,
0000
0100
0001
1000
0010
0001
1000
0010
,
0100
0001
0100
0001
1000
0010
1000
0001
,
0000
0100
0000
0010
1000
0001
0100
0010
,
1000
0100
0000
0001
0000
0100
0000
1000
,
0000
0010
1000
0100
0000
0000
0010
0000
,
0001
0010
0001
0010
0100
0010
0100
1000
,
0000
0001
0100
0010
0100
0000
1000
0100
,
0001
0010
0001
0010
0100
1000
0010
0100
,
0000
0100
1000
0001
0010
1000
0001
0010
,
0100
1000
0100
1000
0001
0010
0001
1000
,
0000
0100
0000
0010
0001
1000
0100
0010
,
0001
0100
0000
1000
0000
0100
0000
0001
,
0000
0010
0001
0100
0000
0010
0000
0000
,
1000
0100
1000
0010
0100
0001
0100
0010
,
1000
0010
0100
0001
1000
0100
0010
0001
,
0001
0100
0001
0010
0100
1000
0100
0010
,
0001
0010
0100
1000
0001
0100
0010
1000
,
1000
0100
1000
0010
0100
0001
0100
0010
,
1000
0010
0100
0001
1000
0100
0010
0001
,
0001
0100
0001
0010
0100
1000
0100
0010
,
0001
0010
0100
1000
0001
0100
0010
1000
,
0001
0100
0001
0100
0010
0100
0010
1000
,
0000
0001
0010
0100
0010
0000
1000
0010
,
0001
0100
0001
0100
0010
1000
0100
0010
,
0000
0010
1000
0001
0100
1000
0001
0100
,
0010
1000
0010
1000
0001
0100
0001
1000
,
0000
0010
0000
0100
0001
1000
0010
0100
,
0001
0010
0000
1000
0000
0010
0000
0001
,
0000
0100
0001
0010
0000
0100
0000
0000
,
1000
0001
0200
0000
,
0300
0000
0000
0000
;

//---------------dance-single - Taka----------------
#NOTES:
     dance-single:
     Taka:
     Medium:
     6:
     0.403,0.376,0.115,0.096,0.000:
0000
0000
0000
0000
,
0000
0000
0000
0000
,
0000
0000
0000
0000
,
0000
0000
0000
0000
,
1000
0100
1000
0000
0020
0000
0000
0030
,
0200
0000
0000
0300
,
0001
0010
0001
0000
2000
0000
0000
3000
,
0020
0000
0000
0030
0100
0000
0001
0000
,
1000
0100
1000
0000
0020
0000
0000
0030
,
0200
0000
0000
0000
0000
0000
0000
0300
,
0001
0100
0001
0000
0020
0000
0000
0030
,
0002
0000
0000
0000
0000
0000
0000
0003
,
1000
0010
0100
0000
0001
0000
0100
0000
,
0010
1000
0001
0000
0010
0000
0001
0000
,
1000
0001
0100
0000
0020
0000
0000
0030
,
2000
0000
0000
3000
0001
0000
0100
0000
,
0001
0000
1000
0010
0100
0000
0010
0000
,
1000
0001
0010
0000
0001
0000
1000
0000
,
0010
0100
0001
0000
0010
0100
1000
0000
,
0001
1000
0001
1000
,
1001
0000
0001
0100
0001
0000
1000
0010
,
1000
0000
0010
0100
0010
0000
1001
0000
,
1000
0100
0010
0000
0001
0010
0100
0000
,
1000
0010
0100
0000
1010
0000
0101
0000
,
1000
0010
1000
0000
0001
0100
0010
0000
,
0100
0001
0010
0100
1000
0000
0001
0000
,
0011
0000
1001
0000
,
1000
0010
0100
0001
,
1000
0001
1000
0001
1000
0000
0001
0100
,
0001
0000
1000
0010
1000
0000
0001
0000
,
1000
0010
1000
0010
1000
0000
0001
0010
,
0001
0000
1000
0100
1000
0000
0001
0000
,
1000
0100
0010
0001
1000
0000
0001
0100
,
0001
0000
1000
0010
1000
0000
0001
0000
,
1000
0100
0001
0010
,
1100
0110
0101
1001
,
0001
1000
0001
1000
0001
0000
1000
0100
,
1000
0000
0001
0010
0001
0000
1000
0000
,
0001
0010
0001
0010
0001
0000
1000
0010
,
1000
0000
0001
0100
0001
0000
1000
0000
,
0001
0100
0010
1000
0001
0000
1000
0100
,
1000
0000
0001
0010
0001
0000
1000
0000
,
0001
0100
1000
0010
,
0001
1000
0010
0100
,
0001
0100
0010
0000
1000
0000
1000
0000
,
0010
0100
0001
0000
0010
0000
0010
0000
,
0100
1000
0001
0000
0100
0000
0100
0000
,
0010
1000
0001
0000
0010
0000
0001
0000
,
1000
0010
0100
0000
0001
0000
1000
0000
,
0001
1000
0100
0000
0010
0000
0001
0000
,
0010
0001
0100
0000
0010
0000
1000
0000
,
0001
1000
0100
0000
1000
0000
0010
0000
,
1000
0001
1000
0001
1000
0000
0001
0100
,
0001
0000
1000
0010
1000
0000
0001
0000
,
1000
0010
1000
0010
1000
0000
0001
0010
,
0001
0000
1000
0100
1000
0000
0001
0000
,
1000
0100
0010
0001
1000
0000
0001
0100
,
0001
0000
1000
0010
1000
0000
0001
0000
,
1000
0100
0001
0010
,
1000
0001
0010
0100
,
0110
0000
1001
0000
;

//---------------dance-single - Taka----------------
#NOTES:
     dance-single:
     Taka:
     Easy:
     3:
     0.171,0.174,0.096,0.000,0.000:
0000
0000
0000
0000
,
0000
0000
0000
0000
,
0000
0000
0000
0000
,
0000
0000
0000
0000
,
1000
0000
0001
0000
,
1000
0000
0000
0000
,
0001
0000
1000
0000
,
0010
0000
0100
0000
,
0001
0000
1000
0000
,
0100
0000
0000
0000
,
0010
0000
0001
0000
,
1000
0000
0000
0000
,
1000
0000
0010
0000
,
1000
0000
0000
0000
,
0001
0000
0100
0000
,
0001
0000
1001
0000
,
1000
0000
0010
0000
,
1000
0000
0001
0000
,
1010
0000
0000
0000
,
0101
0000
0000
0000
,
1000
0000
0010
0000
,
1000
0000
0000
0000
,
0010
0000
0100
0000
,
0001
0000
0001
0000
,
1000
0000
1000
0000
,
0010
0000
0100
0000
,
0001
0000
1000
0000
,
0011
0000
0011
0000
,
0001
0000
0001
0000
,
0001
0000
0100
0010
,
1000
0000
1000
0000
,
1000
0000
0001
0000
,
1000
0000
0010
0000
,
0010
0000
0100
0000
,
0001
0000
0001
0000
,
1000
0000
1000
0000
,
1001
0000
0001
0000
,
0100
0000
0001
0000
,
0010
0000
0001
0000
,
1000
0000
0010
0000
,
1000
0000
0010
0000
,
0100
0000
0010
0000
,
1000
0000
0001
0000
,
1000
0000
1001
0000
,
0001
0000
0001
0001
,
1000
0000
1000
1000
,
0010
0000
0010
0010
,
0100
0000
0100
0100
,
0001
0000
1000
0001
,
1000
0000
0010
1000
,
0001
0000
0100
0001
,
1000
0000
1001
0000
,
1001
0000
1000
0000
,
0100
0000
1000
0000
,
0010
0000
1000
0000
,
0001
0000
0010
0000
,
0001
0000
0010
0000
,
0100
0000
0010
0000
,
0001
0000
1000
0000
,
0001
0000
1001
0000
,
1000
0000
1000
0000
;
