#VERSION:0.81;
#TITLE:Honestly;
#SUBTITLE:;
#ARTIST:Cartel;
#TITLETRANSLIT:;
#SUBTITLETRANSLIT:;
#ARTISTTRANSLIT:;
#GENRE:;
#ORIGIN:;
#CREDIT:;
#BANNER:honestly-banner.png;
#BACKGROUND:honestly-bg.png;
#PREVIEWVID:;
#JACKET:honestly-jacket.png;
#CDIMAGE:;
#DISCIMAGE:;
#LYRICSPATH:;
#CDTITLE:ssp-cdtitle.png;
#MUSIC:Honestly.mp3;
#OFFSET:-0.180;
#SAMPLESTART:46.444;
#SAMPLELENGTH:15.000;
#SELECTABLE:YES;
#BPMS:0.000=144.623;
#STOPS:;
#DELAYS:;
#WARPS:;
#TIMESIGNATURES:0.000=4=4;
#TICKCOUNTS:0.000=4;
#COMBOS:0.000=1;
#SPEEDS:0.000=1.000=0.000=0;
#SCROLLS:0.000=1.000;
#FAKES:;
#LABELS:0.000=Song Start;
#BGCHANGES:11.500=Honestly.avi=1.000=1=0=1===CrossFade==,
349.500=honestly-bg.png=1.000=0=0=1=====,
99999=-nosongbg-=1.000=0=0=0 // don't automatically add -songbackground-
;
#KEYSOUNDS:;
#ATTACKS:
;

//---------------dance-single - Blank----------------
#NOTEDATA:;
#CHARTNAME:;
#STEPSTYPE:dance-single;
#DESCRIPTION:Blank;
#CHARTSTYLE:;
#DIFFICULTY:Hard;
#METER:8;
#RADARVALUES:0.587,0.571,0.523,0.190,0.044,500.000,77.000,28.000,0.000,0.000,0.000,0.000,0.000,0.587,0.571,0.523,0.190,0.044,500.000,77.000,28.000,0.000,0.000,0.000,0.000,0.000;
#CREDIT:;
#NOTES:
// measure 0
0000
0000
0000
0000
,  // measure 1
0000
0001
0100
0000
0010
0000
0001
0000
,  // measure 2
0010
0001
0100
0010
1000
0000
0100
0000
,  // measure 3
0010
0100
0001
0010
0001
0000
0100
0010
,  // measure 4
0000
1000
0000
0001
0100
0000
0010
0000
,  // measure 5
1000
0001
0100
0001
0010
0000
0001
0000
,  // measure 6
0100
0001
0010
0100
1000
0000
1010
0000
,  // measure 7
0101
0001
0010
0001
1000
0000
0010
0001
,  // measure 8
0000
1000
0000
0001
1000
0000
0010
0001
,  // measure 9
0000
0000
0001
0100
0001
0000
0001
0010
,  // measure 10
0001
0100
0010
1000
0100
1000
0010
0100
,  // measure 11
0000
0100
0001
0010
0001
0000
0100
0010
,  // measure 12
0000
0110
0000
1100
0000
0110
0000
0011
,  // measure 13
0000
0101
1010
0000
0101
0000
0010
0001
,  // measure 14
0100
0001
0010
0001
0000
0100
0000
2010
,  // measure 15
0000
0000
0100
0000
3010
0000
0001
0100
,  // measure 16
0001
0000
0010
0000
0001
0000
0100
0000
0000
0000
1000
0001
1000
0000
0000
0000
,  // measure 17
2100
3100
0210
0301
,  // measure 18
0021
0130
2010
3001
,  // measure 19
0001
0100
0010
0001
0010
0001
0100
0000
,  // measure 20
0010
0000
1100
0001
0101
0000
0011
0000
,  // measure 21
0010
0100
0001
1000
0010
0100
0001
1001
,  // measure 22
0000
1100
0000
0010
0000
0001
0010
0000
,  // measure 23
0001
0100
0010
1000
0001
0000
0100
1000
,  // measure 24
0000
0010
0000
0100
0001
0010
0001
0100
,  // measure 25
0010
0000
0010
1000
0001
1000
0001
0000
,  // measure 26
0000
0000
0010
0100
0010
0000
0000
0000
,  // measure 27
0001
0000
0010
1000
0001
0100
0001
0000
,  // measure 28
0000
0001
0100
0000
0010
0000
1001
0000
,  // measure 29
2100
0000
3010
0000
0201
0000
0301
1000
,  // measure 30
0100
0010
1000
0001
0000
0001
0101
0010
,  // measure 31
0110
0000
0101
0000
0001
0000
0011
0100
,  // measure 32
1010
0000
0101
1010
0000
0001
0100
0001
,  // measure 33
0010
0001
0100
0010
2001
0000
3010
0100
,  // measure 34
0001
0000
0001
0010
0000
0001
0000
0100
,  // measure 35
0000
0010
1000
0000
0001
0000
0100
0000
,  // measure 36
0001
0010
0001
0100
0010
1000
0001
0000
,  // measure 37
1100
0001
0100
0011
,  // measure 38
0010
1000
0000
0100
0000
0010
0100
0010
,  // measure 39
0100
0011
0001
1100
,  // measure 40
0010
0100
0000
0011
0000
0001
0100
0010
,  // measure 41
1000
0100
1000
0010
0100
0000
1000
0001
,  // measure 42
0100
0000
0001
0020
0000
2030
0000
3200
,  // measure 43
0000
0320
0002
0000
0000
0000
0000
0033
,  // measure 44
0000
0100
1000
0100
0110
0010
1001
0001
,  // measure 45
1010
0000
0001
0100
0000
0001
0010
0000
,  // measure 46
0001
0100
0010
0000
0010
1000
0001
0100
,  // measure 47
0001
0000
0001
1000
0010
0100
0001
1000
,  // measure 48
0001
1000
0001
1000
1001
0000
1001
0000
,  // measure 49
0110
0000
1100
0000
0110
0000
0001
0010
,  // measure 50
0000
0101
0000
1010
0000
0001
0100
0010
,  // measure 51
1000
0000
1100
0000
0110
0001
0100
0010
,  // measure 52
0000
0000
1000
0000
0000
0000
0010
0000
1000
0100
0010
0100
1000
0100
0010
0000
,  // measure 53
2001
3001
0012
0103
,  // measure 54
2001
0000
3000
0010
1100
0000
0012
0000
,  // measure 55
0010
0000
0000
0010
0000
0000
0010
0000
,  // measure 56
0000
0100
0100
0000
1000
0000
1003
0000
,  // measure 57
2200
0000
3300
0022
0000
0033
2002
0000
,  // measure 58
3000
1000
1000
1000
1000
0000
1000
0003
,  // measure 59
0110
0000
0000
0011
0000
0000
1001
0000
,  // measure 60
0000
0000
0010
1000
0010
0000
0100
0000
0001
0000
0010
0000
0100
0000
0000
0000
,  // measure 61
0001
0000
0010
0001
0010
0000
0001
0000
0000
0000
0110
0000
0010
0000
0000
0000
,  // measure 62
1000
0100
1000
0000
0000
0000
0001
0010
0001
0000
0100
1000
0100
1000
0100
1000
,  // measure 63
0100
0000
0000
0000
0010
0100
0010
0000
0000
0000
0001
0010
0001
0000
0000
0000
,  // measure 64
0000
0001
1000
0000
1000
0001
1000
0001
,  // measure 65
1000
0000
0110
0000
0010
0001
0100
0010
,  // measure 66
1000
0001
0100
0001
0010
0001
1000
0100
,  // measure 67
1000
0000
1010
0000
0001
0100
0001
0010
,  // measure 68
0001
0100
0010
1000
0001
1000
0001
1000
,  // measure 69
0001
1000
0010
0100
0001
0000
0001
0010
,  // measure 70
0001
0000
0100
0010
0000
1100
0000
1001
,  // measure 71
0000
0000
0101
0000
0000
0001
0100
0010
,  // measure 72
0001
0010
0001
0100
0010
1000
0001
0000
,  // measure 73
2100
3010
0201
0310
,  // measure 74
0010
1000
0000
0001
0000
0001
0100
0001
,  // measure 75
0100
0010
2100
3010
,  // measure 76
0001
0100
0000
0001
1000
0010
0100
0010
,  // measure 77
0100
0001
1000
0001
0100
0000
0001
0010
,  // measure 78
0001
0000
0100
0010
0000
1000
0000
0001
,  // measure 79
0000
0100
1000
0010
0100
0001
0100
0001
,  // measure 80
0000
0001
1000
0010
0100
0010
1000
0010
,  // measure 81
1000
0010
0100
0001
0010
0000
0101
0000
,  // measure 82
1010
0001
0100
0001
0010
0000
1100
0000
,  // measure 83
0110
0010
1000
0001
0100
0000
0001
0101
,  // measure 84
0000
0011
0000
0110
1010
0000
0101
0001
,  // measure 85
0000
0010
0001
0100
0010
1000
0001
0100
,  // measure 86
0000
0010
0100
0010
0100
0001
0010
0001
,  // measure 87
0000
0010
0100
0001
1000
0010
0100
0010
,  // measure 88
0000
2002
0000
0000
3003
0000
0000
0000
;

//---------------dance-single - Blank----------------
#NOTEDATA:;
#CHARTNAME:;
#STEPSTYPE:dance-single;
#DESCRIPTION:Blank;
#CHARTSTYLE:;
#DIFFICULTY:Medium;
#METER:6;
#RADARVALUES:0.374,0.361,0.068,0.007,0.000,375.000,10.000,1.000,0.000,0.000,0.000,0.000,0.000,0.374,0.361,0.068,0.007,0.000,375.000,10.000,1.000,0.000,0.000,0.000,0.000,0.000;
#CREDIT:;
#OFFSET:-0.190;
#BPMS:0.000=144.623
;
#STOPS:;
#DELAYS:;
#WARPS:;
#TIMESIGNATURES:0.000=4=4
;
#TICKCOUNTS:0.000=4
;
#COMBOS:0.000=1
;
#SPEEDS:0.000=1.000=0.000=0
;
#SCROLLS:0.000=1.000
;
#FAKES:;
#LABELS:0.000=Song Start
;
#NOTES:
// measure 0
0000
0000
0000
0000
,  // measure 1
0000
0001
0100
0000
0010
0000
0001
0000
,  // measure 2
0001
0000
0100
0010
1000
0000
0001
0000
,  // measure 3
0100
0000
0001
0010
0001
0000
0100
0000
,  // measure 4
0010
1000
0001
0100
,  // measure 5
0010
0000
1000
0100
1000
0000
0010
0000
,  // measure 6
0100
0001
0010
0001
,  // measure 7
0100
0000
0010
0100
0010
0000
1000
0000
,  // measure 8
0001
0100
0001
1000
,  // measure 9
0010
0001
0100
0001
,  // measure 10
0010
0001
0100
0000
0010
0000
1000
0000
,  // measure 11
0010
0000
0100
0001
0010
0000
0100
0000
,  // measure 12
0010
1000
0100
0010
,  // measure 13
1000
0100
0010
0000
0100
0000
1010
0000
,  // measure 14
0001
0100
0100
0010
,  // measure 15
0101
0000
1010
0000
0110
0000
0001
0010
,  // measure 16
0001
0000
0100
0000
0010
1000
0010
0000
,  // measure 17
0100
0001
0010
0001
,  // measure 18
0100
0010
1010
0101
,  // measure 19
0010
0100
0010
1000
,  // measure 20
0100
0000
0010
0100
0010
0000
1000
0000
,  // measure 21
0001
0100
0010
0001
,  // measure 22
0100
0001
1000
0010
,  // measure 23
0100
0001
0010
0001
0100
0000
0010
0000
,  // measure 24
1000
0010
0100
0010
,  // measure 25
1000
0000
0000
0010
0000
0100
0000
0000
,  // measure 26
0000
0001
0010
0000
,  // measure 27
1000
0010
0100
0001
,  // measure 28
0000
0001
0100
0010
,  // measure 29
1010
0001
0100
0010
,  // measure 30
0001
0000
0100
0000
0010
0000
0100
0010
,  // measure 31
0100
0001
0010
0100
,  // measure 32
0010
0000
1000
0000
0010
1000
0100
1000
,  // measure 33
0010
0000
0100
0001
0010
0000
0001
0000
,  // measure 34
0100
0010
1000
0001
,  // measure 35
0100
0001
0010
0000
0100
0000
0010
0000
,  // measure 36
1000
0100
1000
0000
0010
0100
0010
0000
,  // measure 37
0100
0001
0010
0001
,  // measure 38
0100
0010
0100
0010
,  // measure 39
1000
0100
0010
0100
,  // measure 40
0001
0010
0001
0100
,  // measure 41
0010
0100
0010
0000
1000
0000
0100
0000
,  // measure 42
0001
0010
0001
0010
,  // measure 43
0001
0100
0010
0000
1000
0000
0100
0000
,  // measure 44
0010
0000
1000
0000
0001
0100
0001
0000
,  // measure 45
0010
0010
0100
0100
,  // measure 46
0001
0010
0001
0000
0100
0000
0010
0000
,  // measure 47
1000
1000
0100
0100
,  // measure 48
0010
1000
0010
0000
0001
0100
0001
0000
,  // measure 49
0010
0010
0100
0100
,  // measure 50
0010
0000
1000
0000
0100
0010
0001
0000
,  // measure 51
0100
0010
0001
0100
,  // measure 52
0010
0000
1000
0000
0100
1000
0010
0000
,  // measure 53
0100
0010
0001
0000
,  // measure 54
0100
0010
1000
0000
,  // measure 55
0100
0000
0000
0001
0000
0000
0010
0000
,  // measure 56
0000
0001
0100
0010
,  // measure 57
1000
0000
0000
0100
0000
0000
0001
0000
,  // measure 58
0000
0010
0100
0001
,  // measure 59
0010
0000
0000
0001
0000
0000
0100
0000
,  // measure 60
0000
0010
0001
0100
,  // measure 61
0010
0000
0000
1000
0000
0000
0100
0000
,  // measure 62
0000
0010
0000
0000
0010
0000
0100
0000
,  // measure 63
0010
0000
0000
0001
0000
0000
0100
0000
,  // measure 64
0000
0010
0001
0100
,  // measure 65
0010
1010
0100
0001
,  // measure 66
0010
0001
0100
0010
,  // measure 67
0001
0110
1000
0010
,  // measure 68
0100
0000
1000
0000
0100
0000
0010
1000
,  // measure 69
0010
0100
0001
0010
,  // measure 70
0001
0000
0100
0001
0000
0010
0000
0001
,  // measure 71
0000
0000
0100
0000
0000
0010
1000
0000
,  // measure 72
0000
0010
0100
0000
0000
0001
0010
0000
,  // measure 73
0001
0100
0010
0000
,  // measure 74
0100
1000
0100
0000
0010
0100
0010
0000
,  // measure 75
0001
0010
0101
0000
,  // measure 76
0010
1000
0010
0000
0100
0001
0100
0000
,  // measure 77
0001
0010
0001
0000
0100
0000
0010
0000
,  // measure 78
0100
0000
1000
0010
0000
0100
0000
0001
,  // measure 79
0000
0010
0100
0000
0010
1000
0100
0000
,  // measure 80
0010
0100
0001
0000
0100
1000
0010
0000
,  // measure 81
0100
1000
0010
0100
,  // measure 82
0010
0000
1000
0010
0100
0000
0001
0000
,  // measure 83
0010
0000
0001
0100
0010
0000
0001
0000
,  // measure 84
0100
0000
0010
0000
1000
0010
0100
0000
,  // measure 85
0010
0000
0100
1000
0010
0000
0010
0000
,  // measure 86
0100
0001
0010
0000
0001
0000
0100
0000
,  // measure 87
0010
0000
0010
1000
0100
0000
0010
0100
,  // measure 88
0000
0002
0000
0000
0003
0000
0000
0000
;

//---------------dance-single - Blank----------------
#NOTEDATA:;
#CHARTNAME:;
#STEPSTYPE:dance-single;
#DESCRIPTION:Blank;
#CHARTSTYLE:;
#DIFFICULTY:Easy;
#METER:4;
#RADARVALUES:0.303,0.327,0.129,0.149,0.000,271.000,19.000,22.000,0.000,0.000,0.000,0.000,0.000,0.303,0.327,0.129,0.149,0.000,271.000,19.000,22.000,0.000,0.000,0.000,0.000,0.000;
#CREDIT:;
#OFFSET:-0.190;
#BPMS:0.000=144.623
;
#STOPS:;
#DELAYS:;
#WARPS:;
#TIMESIGNATURES:0.000=4=4
;
#TICKCOUNTS:0.000=4
;
#COMBOS:0.000=1
;
#SPEEDS:0.000=1.000=0.000=0
;
#SCROLLS:0.000=1.000
;
#FAKES:;
#LABELS:0.000=Song Start
;
#NOTES:
// measure 0
0000
0000
0000
0000
,  // measure 1
0000
0001
0001
0000
,  // measure 2
0000
0010
0010
0000
,  // measure 3
0000
0100
0100
0000
,  // measure 4
0001
0000
0010
0000
,  // measure 5
0100
0001
0010
0010
,  // measure 6
0001
0100
0010
0010
,  // measure 7
1000
0100
1000
1000
,  // measure 8
0010
0100
0001
0100
,  // measure 9
0010
0010
0100
0100
,  // measure 10
0001
0010
0001
0100
,  // measure 11
0001
0000
0010
0100
,  // measure 12
0100
1000
0100
0010
,  // measure 13
0001
0100
1001
0000
,  // measure 14
0100
0010
1000
0100
,  // measure 15
1010
0001
0110
0000
,  // measure 16
0010
0100
1000
0000
,  // measure 17
0010
0000
0100
0000
,  // measure 18
0001
0010
0001
0100
,  // measure 19
0010
0100
1000
0100
,  // measure 20
0000
0010
0001
0100
,  // measure 21
0010
1000
0100
0010
,  // measure 22
0100
0001
1000
0100
,  // measure 23
0010
0001
0010
0100
,  // measure 24
1000
0100
0010
0100
,  // measure 25
0001
0000
0001
0000
,  // measure 26
0010
0100
0010
0000
,  // measure 27
1000
0010
0100
0001
,  // measure 28
0000
0010
0100
0100
,  // measure 29
0001
0000
1000
0000
,  // measure 30
0010
0100
1000
0010
,  // measure 31
0100
0000
0001
0010
,  // measure 32
0001
0100
0010
1000
,  // measure 33
0100
0010
1000
0100
,  // measure 34
1000
0100
0001
0010
,  // measure 35
0100
0100
0001
0001
,  // measure 36
0010
0001
0100
0010
,  // measure 37
1010
0000
0101
0000
,  // measure 38
0010
0100
0010
0001
,  // measure 39
1100
0000
0011
0000
,  // measure 40
0010
0100
1000
0100
,  // measure 41
0010
1000
0100
1000
,  // measure 42
0001
0010
0100
0010
,  // measure 43
0100
0001
0010
1000
,  // measure 44
0100
0010
0100
1000
,  // measure 45
0100
0010
1000
0100
,  // measure 46
1000
0100
1000
0100
,  // measure 47
0001
0010
0001
0010
,  // measure 48
0001
0010
0001
0010
,  // measure 49
0110
1001
0110
0001
,  // measure 50
0010
0100
0010
1000
,  // measure 51
1100
0110
0011
0100
,  // measure 52
0010
0001
1000
0100
,  // measure 53
0020
0000
0230
0000
,  // measure 54
0302
0000
2000
3003
,  // measure 55
0220
0000
0000
0000
,  // measure 56
0000
0000
0000
0330
,  // measure 57
2200
0000
0000
0000
,  // measure 58
0000
0000
0000
3300
,  // measure 59
0022
0000
0000
0000
,  // measure 60
0000
0000
0000
0033
,  // measure 61
0220
0000
0000
0000
,  // measure 62
0000
0000
0000
0330
,  // measure 63
2020
0000
0000
0000
,  // measure 64
0000
0000
0000
3030
,  // measure 65
0001
0100
1000
0100
,  // measure 66
0010
0100
0010
0001
,  // measure 67
0100
1001
0010
0100
,  // measure 68
1000
0010
0100
0010
,  // measure 69
0010
0100
1000
0100
,  // measure 70
0010
1000
0100
0010
,  // measure 71
0001
0000
0100
0000
,  // measure 72
0010
0001
0100
0000
,  // measure 73
0020
0000
0230
0000
,  // measure 74
0302
0000
2003
0000
,  // measure 75
3020
0000
0230
0000
,  // measure 76
0302
0000
2003
0000
,  // measure 77
3010
0100
0001
1000
,  // measure 78
0100
0010
0001
0100
,  // measure 79
0010
0010
0001
0001
,  // measure 80
0100
0010
1000
0100
,  // measure 81
0010
1000
0010
0100
,  // measure 82
0100
0001
0010
0100
,  // measure 83
0100
0010
0001
0100
,  // measure 84
0010
1000
0100
1000
,  // measure 85
0100
0001
0010
0001
,  // measure 86
0100
0010
1000
0100
,  // measure 87
0010
1000
0100
0000
;

//---------------dance-single - Blank----------------
#NOTEDATA:;
#CHARTNAME:;
#STEPSTYPE:dance-single;
#DESCRIPTION:Blank;
#CHARTSTYLE:;
#DIFFICULTY:Beginner;
#METER:2;
#RADARVALUES:0.168,0.207,0.054,0.000,0.000,165.000,8.000,0.000,0.000,0.000,0.000,0.000,0.000,0.168,0.207,0.054,0.000,0.000,165.000,8.000,0.000,0.000,0.000,0.000,0.000,0.000;
#CREDIT:;
#OFFSET:-0.190;
#BPMS:0.000=144.623
;
#STOPS:;
#DELAYS:;
#WARPS:;
#TIMESIGNATURES:0.000=4=4
;
#TICKCOUNTS:0.000=4
;
#COMBOS:0.000=1
;
#SPEEDS:0.000=1.000=0.000=0
;
#SCROLLS:0.000=1.000
;
#FAKES:;
#LABELS:0.000=Song Start
;
#NOTES:
// measure 0
0000
0000
0000
0000
,  // measure 1
0000
0000
0000
0000
,  // measure 2
0000
0000
0000
0000
,  // measure 3
0000
0000
0000
0000
,  // measure 4
0000
0000
0000
0000
,  // measure 5
0001
0000
0010
0000
,  // measure 6
0001
0000
0010
0000
,  // measure 7
0100
0000
1000
0000
,  // measure 8
0100
0000
1000
0000
,  // measure 9
0010
0000
0010
0000
,  // measure 10
0100
0000
0100
0000
,  // measure 11
0001
0000
0001
0000
,  // measure 12
1000
0000
1000
0000
,  // measure 13
1001
0000
0110
0000
,  // measure 14
0001
0001
0001
0000
,  // measure 15
1000
1000
1000
0000
,  // measure 16
0010
0010
0010
0000
,  // measure 17
0001
0000
1000
0000
,  // measure 18
0010
0000
0100
0000
,  // measure 19
0001
0001
0001
0000
,  // measure 20
1000
1000
1000
0000
,  // measure 21
0010
0000
0001
0000
,  // measure 22
0100
0000
0010
0000
,  // measure 23
1000
1000
1000
0000
,  // measure 24
0010
0010
0010
0000
,  // measure 25
1001
0000
0000
0000
,  // measure 26
0000
0000
0000
0000
,  // measure 27
0110
0000
0000
0000
,  // measure 28
0000
0000
0000
0000
,  // measure 29
0010
0000
0001
0000
,  // measure 30
0010
0010
0010
0000
,  // measure 31
1000
0000
0100
0000
,  // measure 32
0001
0001
0001
0000
,  // measure 33
1000
1000
1000
0000
,  // measure 34
0010
0010
0010
0000
,  // measure 35
0100
0100
0100
0000
,  // measure 36
0001
0001
0001
0000
,  // measure 37
0010
0000
0010
0000
,  // measure 38
0100
0000
0100
0000
,  // measure 39
0001
0000
0010
0000
,  // measure 40
0100
0000
1000
0000
,  // measure 41
0010
0010
0010
0000
,  // measure 42
0001
0001
0001
0000
,  // measure 43
0100
0100
0100
0000
,  // measure 44
1000
0000
0001
0000
,  // measure 45
0010
0010
0010
0010
,  // measure 46
0010
0010
0010
0000
,  // measure 47
0100
0100
0100
0100
,  // measure 48
0100
0100
0100
0000
,  // measure 49
1001
0000
0010
0000
,  // measure 50
0010
0000
0010
0000
,  // measure 51
0110
0000
1000
0000
,  // measure 52
1000
0000
1000
0000
,  // measure 53
0010
0000
0100
0000
,  // measure 54
0001
0000
0010
0000
,  // measure 55
0110
0000
0000
0000
,  // measure 56
0000
0000
0000
0000
,  // measure 57
0001
0000
0000
0000
,  // measure 58
0000
0000
0000
0000
,  // measure 59
1000
0000
0000
0000
,  // measure 60
0000
0000
0000
0000
,  // measure 61
0010
0000
0000
0000
,  // measure 62
0000
0000
0000
0000
,  // measure 63
0100
0000
0000
0000
,  // measure 64
0001
0000
0000
0000
,  // measure 65
0110
0000
0001
0000
,  // measure 66
0010
0000
0100
0000
,  // measure 67
1000
0000
0001
0000
,  // measure 68
0010
0000
0100
0000
,  // measure 69
1000
0000
0100
0000
,  // measure 70
0001
0000
0010
0000
,  // measure 71
0100
0000
0001
0000
,  // measure 72
0010
0000
0100
0000
,  // measure 73
0001
0000
0000
0000
,  // measure 74
1000
0000
0000
0000
,  // measure 75
0100
0000
0000
0000
,  // measure 76
0010
0000
0000
0000
,  // measure 77
0001
0000
0100
0000
,  // measure 78
0010
0000
0100
0000
,  // measure 79
1000
1000
1000
0000
,  // measure 80
0001
0001
0001
0000
,  // measure 81
0010
0000
0100
0000
,  // measure 82
0010
0000
0100
0000
,  // measure 83
1000
0000
0001
0000
,  // measure 84
1000
0000
0010
0000
,  // measure 85
0100
0000
0001
0000
,  // measure 86
0010
0000
0100
0000
,  // measure 87
0010
0000
0000
0000
;
