#TITLE:Hardkore of the North;
#SUBTITLE:;
#ARTIST:Diclonius Kid;
#TITLETRANSLIT:;
#SUBTITLETRANSLIT:;
#ARTISTTRANSLIT:;
#CREDIT:;
#BANNER:Hardkore of the North banner.png;
#BACKGROUND:Hardkore of the North bg.png;
#LYRICSPATH:;
#CDTITLE:;
#MUSIC:Hardkore of the North.ogg;
#OFFSET:-0.034;
#SAMPLESTART:22.773;
#SAMPLELENGTH:11.620;
#SELECTABLE:YES;
#DISPLAYBPM:*;
#BPMS:0.000=190.000,211.000=3040.000,227.000=47.501,229.000=190.002,261.000=380.003,373.000=190.002,433.000=190.002;
#STOPS:27.000=0.158
,30.500=0.158
,32.000=0.158
,33.500=0.158
,169.000=0.158
,172.500=0.158
,174.000=0.158
,175.500=0.158
,337.000=0.158
,338.000=0.158
,351.000=0.158
,352.000=0.158
,357.000=0.158
,358.000=0.158
,363.000=0.316
;
#BGCHANGES:;

//---------------dance-single - ----------------
#NOTES:
     dance-single:
     :
     Challenge:
     12:
     0.984,1.000,0.391,0.147,0.855:
0000
0000
0000
0000
,
0000
0000
0000
0000
,
1000
0001
0010
0100
0010
0001
0100
0001
,
1000
1000
0001
0001
,
0100
0010
1000
0001
0010
0100
0010
0001
,
1000
0010
0100
0100
,
1010
0000
0000
0000
0000
0000
0010
0000
1000
0000
0100
0000
0010
0000
0000
0000
0000
0000
1100
0000
0000
1001
0000
0000
,
0000
0000
0000
0001
0000
0100
0000
0010
0000
1000
0000
0000
0000
0000
0000
1001
0000
0000
0001
0000
0000
0100
0000
0000
,
0010
0100
0010
1000
1000
0001
1000
0001
,
0100
0000
0000
0001
0000
0000
0100
0000
0000
0001
0000
0000
0100
0000
0000
0001
0000
0000
0100
0000
0000
0001
0000
0000
0100
0000
0000
0000
0000
0000
0000
0000
0000
0000
0000
0000
0001
0000
0000
0000
0100
0000
0000
0000
1000
0000
0000
0000
,
0100
0000
0000
0010
0000
0000
0010
1000
0001
0010
0000
0000
,
0010
0000
0000
0001
0000
0000
0010
0000
0000
0001
0000
0000
1000
0000
0000
0000
0000
0000
1000
0000
0100
0000
0001
0000
,
0100
0000
0010
0000
0001
0100
1000
0000
,
1000
0000
0000
0100
0000
0000
0010
0000
0000
1000
0000
0000
0001
0000
0000
0000
0000
0000
0001
0000
0010
0000
0100
0000
,
1000
0000
0000
0100
0000
0000
0100
0010
0001
1000
0000
0000
,
0001
0000
0000
0100
0000
0000
0010
0000
0000
1000
0000
0000
0001
0000
0000
0000
0000
0000
1000
0000
0010
0000
1000
0000
,
0100
0010
0001
0000
,
1100
0000
0000
0000
0000
0000
1001
0000
0000
0001
0100
0100
,
0001
0000
0000
1010
0000
0000
1000
0010
0010
0100
0000
0000
,
0010
0000
0000
1000
0000
0000
0001
0000
0000
0010
0000
0000
0100
0000
0000
0000
0000
0000
0100
0000
0010
0000
0010
0000
,
0001
0000
1000
0000
0001
0100
1000
0000
,
1000
0000
0000
0100
0000
0000
0010
0000
0000
1000
0000
0000
1001
0000
0000
0000
0000
0000
0001
0000
0100
0000
0100
0000
,
0001
0000
0000
0100
0000
0000
0010
1000
1000
0100
0000
0000
,
1000
0000
0000
0100
0000
0000
0001
0000
0000
0100
0000
0000
0010
0000
0000
0000
0000
0000
0001
0000
0100
0000
0100
0000
,
0010
0000
1000
0000
0001
0100
0010
1000
,
0100
0010
0100
0010
0100
0010
0100
0010
0100
0000
0010
0000
0011
0000
0001
0000
,
0100
0000
0010
0000
1010
0000
1000
0000
0001
1000
0001
0000
1000
0000
0001
0100
,
0001
0000
0100
0000
0010
1000
0010
0000
1000
0000
0100
0000
0110
0000
0100
0000
,
1000
0000
0010
0000
0110
0000
0010
0000
0100
0001
0010
0000
0100
0000
1000
0100
,
1000
0000
1000
0000
0001
0100
0010
0000
1000
0000
0001
0000
0101
0000
0001
0000
,
0010
0000
0100
0000
0110
0000
0010
0000
0001
0010
0100
0000
0100
0000
0100
0010
,
0001
0000
1000
0000
0001
0100
0001
0000
1000
0001
1000
0000
0001
1000
0001
0000
,
1000
0001
1000
0000
0001
1000
0001
0000
0001
0100
0010
1000
0100
0010
0001
1000
,
0010
0000
0000
0000
0000
0000
0010
0000
0000
0000
0000
0000
0100
0000
0000
0010
0000
0000
1000
0000
0000
0001
0000
0000
1001
0000
0000
0000
0000
0000
0000
0000
0000
0000
0000
0000
1000
0000
0000
0000
0100
0000
0000
0000
0001
0000
0000
0000
,
0100
0010
0001
0020
0000
0000
0130
1000
0001
1000
0010
0100
,
0002
0000
0000
0103
0001
1000
0002
0000
0000
1003
0100
0010
,
0001
0010
0100
2000
0000
0000
3001
0100
0010
1000
0010
1000
,
0010
1000
0010
0200
0000
0000
0310
0000
0000
1000
0100
0010
,
0100
1000
0100
0020
0000
0000
0031
0010
0100
0010
0001
0010
,
0200
0000
0000
0320
0000
0000
0230
0000
0000
1300
0100
0001
,
0200
0000
0000
1300
0010
0001
0100
0001
0010
0100
1000
0100
,
0010
0001
1000
0001
1000
0001
0100
0000
0000
0010
0100
0001
,
1000
0000
0000
0000
0000
0000
1010
0000
0000
1001
0000
0000
0000
0000
0000
0001
0000
0010
0000
0100
0000
1000
0000
0000
,
0000
0011
0001
0100
0110
0010
1000
1001
,
1000
0000
0001
0000
0010
0000
0100
0000
1000
0100
0010
0001
0010
0100
1000
0010
,
0100
0010
1000
0000
0001
0010
0100
0000
0010
0001
0100
0000
0010
1000
0010
0000
,
0100
0001
0100
0001
0200
0000
0000
0000
0310
0000
1000
0000
0001
0000
1000
0000
,
0010
0100
0010
0000
0001
0100
0010
0000
0100
0001
1000
0000
0100
0010
0100
0000
,
1000
0100
1000
0100
2000
0000
0000
0000
3001
0000
0010
0000
0100
0000
0010
0000
,
0001
0100
0010
0000
0100
0010
1000
0000
0010
0100
0001
0000
0001
0010
0001
0000
,
0010
0100
1000
0001
0200
0000
0000
0000
0301
0000
0010
0000
0100
0000
1000
0000
,
0001
0100
0010
0000
0100
0010
1000
0000
0010
0100
0001
0000
0001
1000
0100
0000
,
0010
0001
1001
0020
,
0030
0000
0000
0000
,
0000
0000
0000
0000
,
0000
0000
0000
0000
,
0000
0000
0000
0000
,
0000
0000
0000
0000
0000
0000
0000
0000
0000
0000
0000
0000
0001
0000
0000
0000
0000
0000
0100
0000
0001
0000
0100
0000
0001
0000
0000
0000
0000
0000
0100
0000
0000
0000
0000
0000
0001
0000
0000
0100
0000
0000
0001
0000
0000
0000
0000
0000
,
0001
0000
0000
0100
0000
0000
0010
0000
0000
1000
0000
0000
0010
0000
0000
0000
0000
0000
0100
0000
0010
0000
0100
0000
0010
0000
0000
0000
0000
0000
0100
0000
0000
0000
0000
0000
0010
0000
0000
0100
0000
0000
0010
0000
0000
0000
0000
0000
,
0100
0000
0000
0001
0000
0000
0010
0000
0000
0100
0000
0000
1000
0000
0000
0000
0000
0000
0100
0000
1000
0000
0100
0000
1000
0000
0000
0000
0000
0000
0100
0000
0000
0000
0000
0000
1000
0000
0000
0100
0000
0000
1000
0000
0000
0000
0000
0000
,
1000
0000
0000
0100
0000
0000
0010
0000
0000
0001
0000
0000
0100
0000
0000
0000
0000
0000
0001
0000
0100
0000
0001
0000
0100
0000
0000
0000
0000
0000
0001
0000
0000
0000
0000
0000
1000
0000
0000
0000
0000
0000
0000
0000
0000
0000
0000
0000
,
0110
0000
0000
0000
0000
0000
0000
0000
0000
0000
0000
0000
0010
0000
0000
0000
0000
0000
1000
0000
0010
0000
1000
0000
0010
0000
0000
0000
0000
0000
1000
0000
0000
0000
0000
0000
0010
0000
0000
1000
0000
0000
0010
0000
0000
0000
0000
0000
,
0100
0000
0000
0010
0000
0000
1000
0000
0000
0001
0000
0000
0010
0000
0000
0000
0000
0000
0001
0000
0010
0000
0001
0000
0010
0000
0000
0000
0000
0000
0001
0000
0000
0000
0000
0000
0010
0000
0000
0001
0000
0000
0010
0000
0000
0000
0000
0000
,
0001
0000
0000
0010
0000
0000
0100
0000
0000
0010
0000
0000
0001
0000
0000
0000
0000
0000
1000
0000
0001
0000
1000
0000
0001
0000
0000
0000
0000
0000
1000
0000
0000
0000
0000
0000
0001
0000
0000
1000
0000
0000
0001
0000
0000
0000
0000
0000
,
0001
0000
0000
0100
0000
0000
0001
0000
0000
0010
0000
0000
0100
0000
0000
0000
0000
0000
1000
0000
0100
0000
1000
0000
0100
0000
0000
0000
0000
0000
0010
0000
0000
0000
0000
0000
0001
0000
0000
0000
0000
0000
0000
0000
0000
0000
0000
0000
,
1010
0000
0000
1001
0000
0000
1000
0100
1000
0100
0000
0000
,
1000
0000
0100
1000
0100
0000
0100
0010
,
0001
0000
0000
1000
0000
0000
0010
0000
0000
0000
0000
0000
1000
0000
0010
0000
1000
0000
0010
0000
0000
0000
0000
0000
,
1000
0000
0010
1000
0010
0000
1000
0100
,
0010
0000
0000
0100
0000
0000
1000
0000
0000
0000
0000
0000
1000
0000
0001
0000
1000
0000
0001
0000
0000
0000
0000
0000
,
1000
0000
0001
1000
0001
0000
0001
1000
,
0010
0000
0000
0100
0000
0000
0010
0000
0000
0000
0000
0000
0100
0000
0010
0000
0100
0000
0010
0000
0000
0000
0000
0000
,
0100
0001
0000
1010
,
0000
0000
0000
1001
0000
0000
0001
0010
0001
0010
0000
0000
,
0001
0000
0010
0001
0010
0000
0001
0010
,
0100
0000
0000
0010
0000
0000
0001
0000
0000
0000
0000
0000
0100
0000
0010
0000
0100
0000
0010
0000
0000
0000
0000
0000
,
0100
0000
0010
0100
0010
0000
0100
0010
,
1000
0000
0000
0010
0000
0000
0100
0000
0000
0000
0000
0000
0001
0000
0100
0000
0001
0000
0100
0000
0000
0000
0000
0000
,
0001
0000
0100
0001
0100
0000
0100
1000
,
0100
0000
0000
0010
0000
0000
1000
0000
0000
0000
0000
0000
0001
0000
1000
0000
0001
0000
1000
0000
0000
0000
0000
0000
,
0010
1000
0000
0110
,
0000
0010
1000
1010
,
0000
0010
0100
0110
,
0000
0010
1000
0010
,
0000
0011
1010
0001
,
0010
0100
0000
0100
,
1000
0001
0000
1000
,
0010
0100
0000
0110
,
1001
0001
0100
0010
,
0000
0110
0101
0001
,
0100
0010
0000
1010
,
0000
1001
0000
0110
,
0000
0011
0000
1100
,
0000
0020
0000
0000
,
0000
0030
0000
0000
;

//---------------dance-single - ----------------
#NOTES:
     dance-single:
     :
     Hard:
     10:
     0.817,0.967,0.342,0.068,0.469:
0000
0000
0000
0000
,
0000
0000
0000
0000
,
1001
0101
1001
1010
,
0010
0100
0000
0100
0010
1000
0001
0010
,
0011
1100
0011
0110
,
0010
1000
0000
1000
0010
0001
0010
0001
,
1001
0000
0000
0000
0000
0000
0001
0000
0010
0000
0100
0000
1000
0000
0000
0000
0000
0000
1001
0000
0000
0110
0000
0000
,
0000
0000
0000
0010
0000
1000
0000
0010
0000
0100
0000
0000
0000
0000
0000
1001
0000
0000
1000
0000
0000
0010
0000
0000
,
0100
0001
0010
0100
1000
0100
0010
0001
,
0100
0000
0000
0001
0000
0000
0100
0000
0000
0001
0000
0000
0100
0000
0000
0001
0000
0000
0100
0000
0000
0001
0000
0000
0100
0000
0000
0000
0000
0000
0000
0000
0000
0000
0000
0000
0001
0000
0000
0000
0100
0000
0000
0000
0010
0000
0000
0000
,
0100
0000
0100
0000
0100
0001
1000
0000
,
0100
0000
0000
1000
0000
0000
0100
0000
0000
1000
0000
0000
0001
0000
0000
0000
0000
0000
0001
0000
0010
0000
0100
0000
,
1000
0000
0100
0000
1000
0001
1000
0000
,
0001
0000
0000
0010
0000
0000
0100
0000
0000
1000
0000
0000
0100
0000
0000
0000
0000
0000
0010
0000
0001
0000
0010
0000
,
0001
0000
0000
0010
0000
0000
0010
0100
1000
0001
0000
0000
,
1000
0000
0000
0010
0000
0000
0100
0000
0000
0001
0000
0000
1000
0000
0000
0000
0000
0000
0001
0000
0100
0000
0001
0000
,
0010
0100
1000
0000
,
0011
0000
0000
0000
0000
0000
1001
0000
0000
1000
0100
0010
,
0100
0000
1000
0000
1000
0001
0100
0000
,
0010
0000
0000
0001
0000
0000
0010
0000
0000
0100
0000
0000
0001
0000
0000
0000
0000
0000
1000
0000
0001
0000
0010
0000
,
0100
0000
0010
0000
0100
1000
0100
0000
,
0010
0000
0000
1000
0000
0000
0010
0000
0000
0100
0000
0000
0010
0000
0000
0000
0000
0000
0010
0000
0001
0000
0010
0000
,
0100
0000
0010
0000
0100
1000
0010
0000
,
0100
0000
0000
0001
0000
0000
1000
0000
0000
0010
0000
0000
1000
0000
0000
0000
0000
0000
1000
0000
0001
0000
1000
0000
,
0010
1000
0120
0000
,
0001
0000
0030
0000
1000
0001
0100
0010
,
0100
0001
0010
0100
0010
0001
0100
0000
,
0001
0100
1000
0100
0010
1000
0010
0100
,
0010
1000
0001
0010
0100
0010
0001
0100
,
0001
1000
0100
1000
0001
0010
0100
0010
,
0001
0100
0010
1000
0001
0010
1000
0000
,
1000
0010
0001
0100
0010
1000
0001
1000
,
0001
0000
0010
0000
0100
0000
0010
0000
0001
0000
1000
0001
1000
0000
0001
1000
,
0001
0000
0000
0100
0000
0000
0001
0000
0000
0100
0000
0000
0101
0000
0000
0000
0000
0000
0001
0000
0100
0000
0001
0000
,
0100
0001
0100
0010
0000
0000
0010
0100
0010
0100
0010
0100
,
0001
0000
0000
0001
1000
0001
0100
0000
0000
0010
1000
0010
,
1000
0010
1000
0100
0000
0000
0010
0001
0010
0001
0010
0001
,
0010
0001
0010
0100
0000
0000
1001
0000
0000
0001
1000
0001
,
1000
0001
1000
0010
0000
0000
1000
0010
1000
0010
1000
0010
,
0100
0000
0000
0100
0000
0000
0100
0000
0000
0010
1000
0001
,
0100
0000
0000
0001
1000
0001
0010
0001
1000
0010
1000
0001
,
1000
0001
1000
0001
0010
0001
0100
0000
0000
0100
0010
1000
,
0001
0000
0000
0000
0000
0000
1100
0000
0000
1001
0000
0000
0000
0000
0000
0001
0000
0100
0000
0001
0000
0010
0000
0000
,
0000
1100
1000
0010
0010
0100
0001
0001
,
1000
0100
0010
0001
0020
0000
0032
0000
,
0103
0000
0000
0001
0100
0000
0000
0100
0010
0000
0000
0010
1000
0000
0000
1000
,
0100
0010
0100
0000
0100
0010
0001
1000
,
0010
0000
0000
0010
1000
0000
0000
1000
0100
0000
0000
0100
0010
0000
0000
0010
,
0001
0010
0100
0000
0010
0001
1000
0010
,
0100
0000
0000
0010
0100
0000
0000
0100
0001
0000
0000
0001
1000
0000
0000
1000
,
0100
0010
0100
0000
0010
0001
0100
0001
,
1000
0000
0000
0001
0100
0000
0000
0100
0010
0000
0000
0010
1000
0000
0000
1000
,
0001
1000
0220
0330
,
0000
0000
0000
0000
,
0000
0000
0000
0000
,
0000
0000
0000
0000
,
0000
0000
0000
0000
,
0000
0000
0000
0000
1000
0000
0001
1000
0001
0000
1000
0000
0001
0000
0100
0000
,
1000
0000
0100
0000
0010
0000
1000
0010
1000
0000
0010
0000
0100
0000
0001
0000
,
0010
0000
1000
0000
0010
0000
0100
0010
0100
0000
0010
0000
0100
0000
1000
0000
,
0100
0000
1000
0000
0001
0000
0100
0001
0100
0000
0001
0000
0010
0000
0000
0000
,
1100
0000
0000
0000
1000
0000
0010
1000
0010
0000
0100
0000
0010
0000
0100
0000
,
0001
0000
0010
0000
0100
0000
1000
0001
0100
0000
0001
0000
0010
0000
0100
0000
,
0010
0000
0001
0000
0100
0000
1000
0100
0010
0000
0100
0000
0010
0000
1000
0000
,
0001
0000
0010
0000
1000
0000
0010
0100
1000
0000
0001
0000
1000
0000
0000
0000
,
0101
0000
0010
0000
1000
0010
1000
0000
,
0010
0000
0100
0010
0100
0000
0010
0000
,
1000
0000
0001
0000
1000
0001
1000
0000
,
0010
0000
0100
0010
0100
0000
0010
0000
,
0001
0000
1000
0000
0001
1000
0001
0000
,
1000
0000
1000
0010
1000
0000
0010
0000
,
1000
0000
0001
0000
0010
0100
0010
0000
,
0001
1000
0000
1001
,
0000
0000
0001
0000
0100
0001
0100
0000
,
0010
0000
1000
0010
0100
0000
0010
0000
,
1000
0000
0001
0000
0010
0100
1000
0000
,
0001
0000
1000
0001
0100
0000
0001
0000
,
0010
0000
0100
0000
0010
0001
0100
0000
,
0100
0000
0010
1000
0001
0000
1000
0001
,
1000
0010
0100
0000
0001
0100
0010
0000
,
0100
0010
0000
1001
,
0000
0001
0100
0010
,
0000
0100
0010
1000
,
0000
0010
0100
0010
,
0000
0110
1001
0001
,
0001
0100
0000
0010
,
0010
0100
0000
0010
,
0010
1000
0000
1010
,
0101
0001
0001
0100
,
0000
0110
1001
0001
,
0001
0100
0000
1010
,
0000
0110
0000
0001
,
0000
1010
0000
0001
,
0000
2200
0000
0000
,
0000
3300
0000
0000
;

//---------------dance-single - ----------------
#NOTES:
     dance-single:
     :
     Medium:
     9:
     0.711,0.783,0.538,0.195,0.103:
0000
0000
0000
0000
,
0000
0000
0000
0000
,
1010
0101
0011
1100
,
1000
0000
0001
0000
0100
0001
0100
0001
,
0011
1100
1001
0101
,
0001
0000
0100
0000
0010
1000
0010
0100
,
0110
0000
0010
1000
0001
0000
1001
0001
,
0000
0010
0100
1000
0000
1100
1000
0100
,
0010
0010
0001
0100
0001
0100
0010
0100
,
0002
0000
2003
0000
3100
0000
1000
0100
,
1000
0000
0100
0000
0100
0010
0001
0000
,
0001
0010
0100
1000
0100
0000
1000
0100
,
0010
0000
0100
0000
0010
1000
0010
0000
,
0010
0100
0001
1000
0010
0000
0001
0010
,
0100
0000
0100
0000
0100
0010
0001
0000
,
0001
0100
0010
1000
0010
0000
0010
0100
,
0010
1000
1020
0000
,
0200
0000
0300
0030
0010
0000
0010
0100
,
0010
0000
0100
0000
0010
0010
1000
0000
,
0010
1000
0001
0010
0100
0000
1000
1000
,
0100
0000
1000
0000
1000
0100
0010
0000
,
0010
0100
1000
0010
0100
0000
0010
0010
,
0100
0000
0010
0000
0100
0100
0001
0000
,
1000
0001
0010
0100
1000
0000
0100
0100
,
1000
0100
1100
0000
,
0011
0000
0000
0000
0001
0100
0010
0000
,
0100
0010
1000
0000
0010
0100
0010
1000
,
0001
0010
0100
0010
0001
0010
0010
0000
,
0001
0010
0010
0000
0001
0100
0010
0100
,
0010
1000
0001
0001
1000
0001
0100
0000
,
0001
0100
0010
0000
0100
0010
1000
0100
,
0010
0100
1000
0010
0200
0000
0302
0000
,
0023
0000
0230
0000
1300
0100
0010
0001
,
0100
0000
0000
0100
0000
0000
0001
0000
0000
0001
0000
0000
1001
0000
0000
0000
0000
0000
0001
0000
0000
0000
0001
0000
,
0100
0000
0001
0100
0000
0000
0100
0000
0100
0010
0000
0100
,
0010
0000
0000
0010
0000
1000
0010
0000
0000
0010
0000
0100
,
0010
0000
0100
0001
0000
0000
0001
0000
0100
0010
0000
0010
,
1000
0000
1000
0010
0000
0000
0100
0000
0100
0001
0000
0001
,
1000
0000
1000
0100
0000
0000
0100
0000
0010
0001
0000
0001
,
0100
0000
0000
0100
0000
0000
0010
0000
0000
1000
0000
1000
,
0010
0000
0000
0010
0000
0100
0010
0000
0100
0010
0000
0100
,
0010
0000
0000
0000
0100
0000
0010
0000
0000
0000
0100
0000
0001
0000
0000
0000
0000
0000
0001
0000
0000
0010
0000
0000
,
0100
0000
1100
1001
0000
0001
0100
0010
,
0000
1010
0100
0010
0100
0010
0100
0010
,
0100
0001
0010
0100
1100
0000
0011
0000
,
1002
0103
2001
3100
,
0100
0010
0001
0000
0001
0010
1000
0010
,
0210
0310
0012
0103
,
0001
0100
0010
0000
0100
0010
0010
1000
,
1002
0013
0210
0310
,
0010
0100
1000
0000
0100
0010
0001
0100
,
0102
0103
2010
3100
,
1100
0011
0110
2002
,
0000
0000
0000
0000
,
3003
0000
0000
0000
,
0000
0000
0000
0000
,
0000
0000
0000
0000
,
0000
0000
1000
0001
0100
0001
0010
0000
,
0011
0000
0001
0010
0100
0010
0001
0000
,
0101
0000
0001
0100
0010
1000
0010
0000
,
0110
0000
0010
1000
0001
0010
0100
0000
,
1001
0000
0001
0010
1000
0010
0001
0000
,
0011
0000
0001
0100
1000
0100
0010
0000
,
0110
0000
0010
1000
0001
0010
0100
0000
,
1100
0000
1000
0100
0010
0001
1000
0000
,
1001
1000
0001
0100
,
0001
0010
0000
1100
,
0000
1000
0100
0010
,
0001
0100
0000
0101
,
0000
0001
0010
1000
,
0010
0001
0000
0011
,
0000
0001
0100
0010
,
1000
0100
0000
1001
,
0000
0001
0100
0010
,
1000
0100
0001
0100
,
0010
0001
0100
1000
,
0100
0001
0100
0010
,
1000
0001
0010
1000
,
0010
0001
0100
1000
,
0100
0010
1000
0001
,
0010
0100
0000
1001
,
0000
0001
0100
0001
,
0000
0100
0001
0100
,
0000
0001
0100
0001
,
0000
0101
1010
0010
,
1000
0010
0000
0010
,
1000
0010
0000
0010
,
1000
0010
0000
1010
,
0101
0001
0010
0100
,
0000
1100
0011
0001
,
0010
0100
0000
1100
,
0000
0011
0000
0000
,
0000
1100
0000
0000
,
0000
2002
0000
0000
,
0000
3003
0000
0000
;

//---------------dance-single - ----------------
#NOTES:
     dance-single:
     :
     Easy:
     7:
     0.545,0.737,0.313,0.205,0.000:
0000
0000
0000
0000
,
0000
0000
0000
0000
,
1000
0100
0100
1000
,
0000
0000
0000
0000
,
0001
0100
0100
0010
,
0000
0000
0000
0000
,
0100
0000
0010
0000
1000
0000
0000
0001
,
0000
1000
0000
0100
0000
0000
1000
0000
,
0000
0001
0000
0000
0100
0000
0100
0000
,
0010
0000
0100
0000
0010
0000
1000
0010
,
1000
0000
0010
0000
0100
0010
0100
0000
,
0010
0000
1000
0000
0001
0000
0010
0001
,
0010
0000
0001
0000
0001
0010
0100
0000
,
1000
0000
1000
0000
0100
0000
1000
0010
,
0100
0000
0100
0000
0100
0010
1000
0000
,
0010
0000
0100
0000
0010
0000
1000
0001
,
0010
0100
1000
0000
,
0011
0000
0000
0000
1001
0000
0001
1000
,
0001
0000
0100
0000
0001
0100
0001
0000
,
0001
0000
0100
0000
0010
0000
0100
0010
,
0100
0000
0010
0000
1000
0010
1000
0000
,
0010
0000
1000
0000
0100
0000
0010
0001
,
0010
0000
0001
0000
0001
0100
0001
0000
,
0001
0000
0100
0000
0010
0000
0100
0010
,
1000
0001
0010
0000
,
1100
0000
1000
0100
,
0010
0000
0001
0000
0001
0010
0100
0000
,
0100
1000
0100
1000
0100
0000
1000
0000
,
0010
0000
0100
0000
0010
0100
0010
0000
,
0100
0010
1000
0010
1000
0000
0010
0000
,
0100
0000
0100
0000
0010
1000
0010
0000
,
0100
0010
1000
1000
,
0001
0001
0200
0000
,
0000
0300
0101
0100
,
0100
0110
0010
1000
,
0110
0010
1100
1000
,
0100
0110
0100
1000
,
0100
1100
1001
0001
,
0010
1001
0010
0100
,
1100
1100
1001
0010
,
1001
0010
0010
0010
,
0010
0000
0010
0000
1001
0000
0001
0100
,
0010
0000
0110
0010
0000
1000
0001
0010
,
0000
0011
0001
1000
0001
1000
0001
1000
,
0001
0100
0010
0010
,
0020
2030
3020
0230
,
0310
1000
0010
0000
0010
0000
0100
0000
,
0020
2030
3200
0320
,
0031
0010
0001
0000
0010
0000
0001
0000
,
0020
0230
2300
3200
,
1300
0100
0010
0000
0100
0000
1000
0000
,
0020
0230
0302
2003
,
3010
0000
0100
2002
,
0000
0000
0000
3003
,
0000
0000
0000
0000
,
0000
0000
0000
0000
,
0000
0000
0000
0000
,
0000
0000
0001
0100
0001
0100
0001
0000
,
0100
0000
0010
0100
0010
0100
0010
0000
,
0100
0000
0010
1000
0010
1000
0010
0000
,
1000
0000
1000
0100
0010
0001
0010
0000
,
0011
0000
0001
0100
0001
0100
0001
0000
,
0100
0000
0010
0100
0010
0100
0010
0000
,
0100
0000
0010
1000
0010
1000
0010
0000
,
1000
1000
0100
0010
,
1001
0001
0100
0001
,
0100
0001
0000
0101
,
0000
0001
0100
0001
,
0100
0001
0000
0101
,
0000
0010
1000
0010
,
1000
0010
0000
1010
,
0000
0010
1000
0010
,
0100
0010
0000
0110
,
0000
0010
1000
0010
,
1000
0010
0000
0110
,
0000
0010
1000
0001
,
0010
0100
0000
1100
,
0000
1000
0100
1000
,
0100
1000
0000
1100
,
0000
1000
0100
0010
,
0001
0010
0000
0011
,
0000
0001
1000
0001
,
0000
0001
1000
0001
,
0000
0001
1000
0001
,
0000
0000
0000
0001
,
1000
0001
0000
1000
,
0001
1000
0000
0001
,
1000
0001
0000
0000
,
0000
0010
0100
0010
,
0000
0000
0000
0100
,
0010
0100
0000
0000
,
0000
0110
0000
0000
,
0000
1001
0000
0000
,
0000
0220
0000
0000
,
0000
0330
0000
0000
;

//---------------dance-single - ----------------
#NOTES:
     dance-single:
     :
     Beginner:
     3:
     0.223,0.365,0.137,0.000,0.000: // measure 1
0000
0000
0000
0000
,  // measure 2
0000
0000
0000
0000
,  // measure 3
0010
0000
0000
0000
,  // measure 4
0000
0000
0000
0000
,  // measure 5
0100
0000
0000
0000
,  // measure 6
0000
0000
0000
0000
,  // measure 7
0001
0000
0000
0000
0000
0000
0000
1000
,  // measure 8
0000
0000
0000
0001
,  // measure 9
0000
1000
0000
0000
0001
0000
0001
0000
,  // measure 10
0001
0000
0100
0000
,  // measure 11
0000
0000
0010
0000
,  // measure 12
1000
1000
1000
0000
,  // measure 13
0000
0000
0001
0000
,  // measure 14
0100
0100
0100
0000
,  // measure 15
0000
0000
0001
0000
,  // measure 16
0000
0000
1000
0000
,  // measure 17
0001
0000
0100
0000
,  // measure 18
0110
0000
0010
0000
,  // measure 19
0000
0000
0100
0000
,  // measure 20
0001
0001
0001
0000
,  // measure 21
0000
0000
1000
0000
,  // measure 22
0100
0100
0100
0000
,  // measure 23
0000
0000
0010
0000
,  // measure 24
0100
0100
0100
0000
,  // measure 25
1000
0000
0001
0000
,  // measure 26
1001
0000
0010
0000
,  // measure 27
0000
0000
0100
0000
,  // measure 28
0100
0000
0010
0000
,  // measure 29
0000
0000
1000
0000
,  // measure 30
1000
0000
0001
0000
,  // measure 31
0000
0000
0100
0000
,  // measure 32
0100
0000
0010
0000
,  // measure 33
1000
0000
0010
0000
,  // measure 34
0000
0000
0100
0000
,  // measure 35
0000
0010
0000
0000
,  // measure 36
0100
0000
0010
0000
,  // measure 37
0000
1000
0000
0000
,  // measure 38
0000
0001
0001
0000
,  // measure 39
0000
1000
0000
0000
,  // measure 40
0001
0001
1000
0000
,  // measure 41
0001
0000
0000
0000
,  // measure 42
0000
0000
1000
0000
,  // measure 43
0000
0000
0000
0010
0000
0000
0000
0000
,  // measure 44
0000
0000
0100
0000
0000
0010
0000
0000
,  // measure 45
0100
0100
0100
0000
,  // measure 46
0010
0010
0010
1000
,  // measure 47
0010
0010
0000
0000
,  // measure 48
0100
0100
0100
0100
,  // measure 49
0001
0100
0000
0000
,  // measure 50
0001
0001
0001
0001
,  // measure 51
1000
0001
0000
0000
,  // measure 52
1000
1000
1000
0100
,  // measure 53
1000
0000
0010
0000
,  // measure 54
0000
0000
0000
0000
,  // measure 55
0000
0000
0000
0000
,  // measure 56
0000
0000
0000
0000
,  // measure 57
0000
0000
0000
0000
,  // measure 58
0000
0010
0000
1001
,  // measure 59
0000
0100
0000
1001
,  // measure 60
0000
0010
0000
1001
,  // measure 61
0000
0100
0000
1001
,  // measure 62
1001
0110
0000
1000
,  // measure 63
0000
0110
0000
0001
,  // measure 64
0000
0110
0000
1000
,  // measure 65
0000
0110
0000
0000
,  // measure 66
0000
1000
0000
0000
,  // measure 67
0000
0010
0000
0000
,  // measure 68
0000
0100
0000
0000
,  // measure 69
0000
0010
0000
1000
,  // measure 70
0000
0001
0000
0000
,  // measure 71
0000
1000
0000
0000
,  // measure 72
0000
0001
0000
0100
,  // measure 73
0000
0010
0000
0110
,  // measure 74
0000
0100
0000
0000
,  // measure 75
0000
0010
0000
0000
,  // measure 76
0000
1000
0000
0000
,  // measure 77
0000
0001
0000
0000
,  // measure 78
0000
1000
0000
0000
,  // measure 79
0000
0001
0000
0000
,  // measure 80
0000
0001
0000
0100
,  // measure 81
0000
0010
0000
0110
,  // measure 82
0000
0010
0000
0000
,  // measure 83
0000
0100
0000
0000
,  // measure 84
0000
0010
0000
0000
,  // measure 85
0000
1000
0000
0001
,  // measure 86
0000
0000
0000
0001
,  // measure 87
0000
0000
0000
0001
,  // measure 88
0000
0000
0000
1000
,  // measure 89
0000
0001
0000
0000
,  // measure 90
0000
1000
0000
0010
,  // measure 91
0000
0000
0000
0100
,  // measure 92
0000
0010
0000
0000
,  // measure 93
0000
1000
0000
0000
,  // measure 94
0000
1001
0000
0000
;
