#TITLE:DANCE! おジャ魔女;
#SUBTITLE:;
#ARTIST:MAHO堂;
#TITLETRANSLIT:DANCE! OJAMAJO;
#SUBTITLETRANSLIT:;
#ARTISTTRANSLIT:MAHO-DOU;
#CREDIT:DigiMindAxel;
#BANNER:DANCE! OJAMAJO.png;
#BACKGROUND:DANCE! OJAMAJO-bg.png;
#LYRICSPATH:;
#CDTITLE:DMAxel original simfile.png;
#MUSIC:DANCE! OJAMAJO.mp3;
#OFFSET:-3.420;
#SAMPLESTART:40.473;
#SAMPLELENGTH:12.000;
#SELECTABLE:YES;
#BPMS:0.000=152.100;
#STOPS:192.000=1.183
;
#BGCHANGES:-12.000=DANCE! OJAMAJO.avi=1.000=1=1=0,
99999=-nosongbg-=1.000=0=0=0 // don't automatically add -songbackground-
;

//---------------dance-single - ----------------
#NOTES:
     dance-single:
     :
     Easy:
     3:
     0.235,0.289,0.132,0.132,0.000: // measure 1
1000
1000
1000
0000
,  // measure 2
0001
0001
0001
0000
,  // measure 3
0100
0100
0100
0000
,  // measure 4
0001
0010
0100
1000
,  // measure 5
0001
0000
0001
0000
,  // measure 6
0100
0000
0010
0000
,  // measure 7
1000
1000
1000
1000
,  // measure 8
0100
0000
0010
0000
,  // measure 9
0001
0000
1000
0000
,  // measure 10
0100
0000
0000
0000
,  // measure 11
1000
1000
1000
1000
,  // measure 12
0010
0000
0100
0000
,  // measure 13
0001
0000
0000
0000
,  // measure 14
0010
0000
0000
0000
,  // measure 15
0100
0000
0000
0000
,  // measure 16
1000
0000
0000
0000
,  // measure 17
0010
0000
0000
0000
,  // measure 18
0100
0000
0000
0000
,  // measure 19
0001
0000
0000
0000
,  // measure 20
1000
0000
0000
0000
1000
0000
0000
2002
,  // measure 21
0000
0000
0000
0000
3003
0000
0000
2002
,  // measure 22
0000
0000
3003
0000
,  // measure 23
0010
0100
0010
0000
,  // measure 24
0000
0000
1000
1000
,  // measure 25
0020
0000
0200
0000
0330
0000
0000
1001
,  // measure 26
0000
0000
0000
0000
,  // measure 27
1000
0001
1000
0000
,  // measure 28
0010
0100
0001
0001
,  // measure 29
0200
0000
0020
0000
0330
0000
0000
1001
,  // measure 30
0000
0000
0000
0000
,  // measure 31
0001
1000
0001
0000
,  // measure 32
0100
0010
1000
1000
,  // measure 33
1001
0000
0000
0001
0000
0000
1000
0000
,  // measure 34
0000
0001
0000
0000
1000
0000
0000
0000
,  // measure 35
0110
0000
0000
0010
0000
0000
0100
0000
,  // measure 36
0000
0010
0000
0000
0100
0000
0000
0000
,  // measure 37
0002
0000
0200
0000
0303
0000
0000
1001
,  // measure 38
0000
0000
0000
0000
,  // measure 39
1000
0001
1000
0001
,  // measure 40
0100
0010
0100
0100
,  // measure 41
0020
0000
2000
0000
3030
0000
0000
1001
,  // measure 42
0000
0000
0000
0000
,  // measure 43
0001
1000
0010
0100
,  // measure 44
0001
0001
1000
1000
,  // measure 45
1001
0000
0000
0001
0000
0000
1000
0000
,  // measure 46
0000
0001
0000
0000
0100
0000
0000
0000
,  // measure 47
0110
0000
0000
0010
0000
0000
0100
0000
,  // measure 48
0000
0010
0000
0000
1000
0000
0000
0000
,  // measure 49
1001
0001
1000
0001
,  // measure 50
0000
0100
0001
0010
,  // measure 51
0000
0100
1000
0010
,  // measure 52
0000
0100
0010
0100
,  // measure 53
0010
0000
1000
1001
;

//---------------dance-single - ----------------
#NOTES:
     dance-single:
     :
     Medium:
     6:
     0.425,0.406,0.395,0.197,0.000: // measure 1
0001
0100
0001
0100
,  // measure 2
0010
1000
0010
1000
,  // measure 3
0100
0010
0100
0010
,  // measure 4
0001
1000
0001
1000
0001
1000
0001
1000
,  // measure 5
0001
0100
1000
0100
,  // measure 6
0001
0000
0000
1000
0000
0110
0000
0000
,  // measure 7
0001
1001
1000
1001
,  // measure 8
0010
0100
0010
0000
0110
0000
0000
0000
,  // measure 9
1000
0100
0001
0100
,  // measure 10
1000
0000
0000
0001
0000
0110
0000
0000
,  // measure 11
1000
1001
0001
1001
,  // measure 12
0100
0010
0100
0000
0110
0000
0000
0000
,  // measure 13
0001
0100
0001
1000
,  // measure 14
0100
0010
0001
0100
,  // measure 15
0020
0000
0000
1030
,  // measure 16
0100
0000
0000
0010
0000
0000
0001
0000
,  // measure 17
0100
0010
1000
0100
,  // measure 18
1000
0100
0010
0001
,  // measure 19
0200
0000
0000
0301
,  // measure 20
0010
0000
0100
0000
1000
0010
0100
0001
,  // measure 21
0000
0100
0010
0100
0010
0100
0000
1001
,  // measure 22
0000
0010
0100
0010
0100
0010
0000
0000
,  // measure 23
1000
0000
1000
0000
0010
0100
0000
0001
,  // measure 24
0000
0000
0000
0000
1000
0001
1000
0001
,  // measure 25
0100
0000
0220
0000
0000
0330
0000
2002
,  // measure 26
0000
0000
3003
0000
,  // measure 27
0001
0100
0001
0000
1000
0010
1000
0000
,  // measure 28
0010
0100
0010
0000
1000
0100
0010
0001
,  // measure 29
0100
0000
0220
0000
0000
0330
0000
2002
,  // measure 30
0000
0000
3003
0000
,  // measure 31
1000
0100
1000
0000
0001
0010
0001
0000
,  // measure 32
0010
0100
1000
0000
0010
0100
0010
0000
,  // measure 33
1001
0000
0000
1001
0000
0000
0110
0000
,  // measure 34
0000
0110
0000
0000
1000
0001
1000
0000
,  // measure 35
1001
0000
0000
1001
0000
0000
0110
0000
,  // measure 36
0000
0110
0000
0000
0001
1000
0001
0100
,  // measure 37
0010
0000
0220
0000
0000
0330
0000
2020
,  // measure 38
0000
0000
3030
0000
,  // measure 39
0100
0010
0100
0000
0001
0010
0100
0000
,  // measure 40
1000
0100
0010
0000
0001
1000
0001
0100
,  // measure 41
0010
0000
0220
0000
0000
0330
0000
0202
,  // measure 42
0000
0000
0303
0000
,  // measure 43
0010
1000
0010
0000
1000
0100
0010
0000
,  // measure 44
0001
0010
0100
0000
1000
0001
0100
0000
,  // measure 45
0110
0000
0000
0110
0000
0000
1001
0000
,  // measure 46
0000
1001
0000
0000
0010
0100
0010
0000
,  // measure 47
0110
0000
0000
0110
0000
0000
1001
0000
,  // measure 48
0000
1001
0000
0000
0100
0010
0100
0000
,  // measure 49
0110
1001
0001
1000
,  // measure 50
0001
0000
0010
0100
1000
0000
0010
0100
,  // measure 51
0010
1001
1000
0001
,  // measure 52
0100
0000
0010
1000
0010
1000
0001
0010
,  // measure 53
1000
0010
0000
0000
0001
0001
0001
1000
;

//---------------dance-single - ----------------
#NOTES:
     dance-single:
     :
     Hard:
     8:
     0.641,0.667,0.340,0.603,0.143: // measure 1
1000
0100
0001
0100
0010
0001
1000
0000
,  // measure 2
0010
0100
0001
0010
0100
1000
1000
0000
,  // measure 3
0001
0100
1000
0100
0010
1000
0001
0000
,  // measure 4
0010
0100
1000
0001
0100
1000
0100
0001
,  // measure 5
1000
0000
0000
1000
0100
0000
0000
0100
0010
0000
0000
0010
0001
0000
0000
0000
,  // measure 6
0100
0010
1000
0001
0000
0011
0000
0000
,  // measure 7
0001
0010
1000
0010
0001
0010
1000
0010
,  // measure 8
0001
1000
0001
0100
0010
0000
0110
0000
,  // measure 9
0001
0000
0000
0001
0100
0000
0000
0100
0010
0000
0000
0010
1000
0000
0000
0000
,  // measure 10
0100
0010
0001
1000
0000
1100
0000
0000
,  // measure 11
1000
0100
0001
0100
1000
0100
0001
0100
,  // measure 12
1000
0000
0001
0000
0100
0000
0010
0000
1000
0000
0000
0000
0010
0100
0010
0100
,  // measure 13
0010
2000
3200
0302
,  // measure 14
0103
0000
1000
0010
0100
0001
0010
0100
,  // measure 15
0020
0001
0100
0031
,  // measure 16
0100
1000
0100
0020
0000
0130
0001
0010
,  // measure 17
0100
0000
2000
0000
3010
0002
0000
0023
,  // measure 18
0000
0030
1000
0100
0010
0001
0100
0010
,  // measure 19
0200
0000
1000
0000
0010
0000
1300
0100
,  // measure 20
0010
0000
0000
0000
0001
0000
0000
0000
1000
0001
1000
0001
1000
0000
0110
0000
,  // measure 21
0000
0100
0001
0100
1000
0100
0000
0110
,  // measure 22
0000
0010
1000
0010
0001
0010
0000
0000
,  // measure 23
0110
0000
1001
0000
0100
0100
0000
1002
,  // measure 24
0000
1000
1003
0000
0100
0010
0001
1000
,  // measure 25
0020
0000
0200
0000
0330
0000
0001
1001
,  // measure 26
0000
1000
0100
0001
0100
1000
0010
0100
,  // measure 27
0101
0000
0100
0001
0010
0100
0010
0001
,  // measure 28
0100
0001
0000
1000
0000
1000
0010
0000
0100
0000
0001
0000
0100
0000
1000
0000
,  // measure 29
0200
0000
0002
0000
0303
0000
1000
1001
,  // measure 30
0000
0010
0100
1000
0010
0001
0010
1000
,  // measure 31
0002
0000
1003
0010
0100
1000
0100
0001
,  // measure 32
1000
0010
0000
0100
0000
0100
0001
0000
1000
0000
0100
0000
0010
0000
0001
0000
,  // measure 33
0022
0000
0000
0033
0000
0000
2200
0000
0000
3300
0000
0000
0220
0000
0000
0330
,  // measure 34
0000
0000
2002
0000
0000
3003
0000
0000
1000
0000
0100
0000
0001
0000
0000
0000
,  // measure 35
2200
0000
0000
3300
0000
0000
0220
0000
0000
0330
0000
0000
0022
0000
0000
0033
,  // measure 36
0000
0000
2002
0000
0000
3003
0000
0000
0001
0000
0100
0000
0010
1000
0010
1000
,  // measure 37
0020
0000
0200
0000
0330
0000
0001
1001
,  // measure 38
0000
0001
0010
1000
0010
0001
1000
0010
,  // measure 39
1010
0000
1000
0001
0100
0010
0001
0010
,  // measure 40
1000
0001
0000
0100
0000
0100
0010
0000
1000
0000
0100
0000
0010
0000
0001
0000
,  // measure 41
2000
0000
0200
0000
3300
0000
1000
1001
,  // measure 42
0000
0001
0010
1000
0010
0001
1000
0010
,  // measure 43
0100
1000
0100
0001
0010
0100
0001
0100
,  // measure 44
1000
0010
0000
0100
0000
0100
0001
0000
1000
0000
0100
0000
0010
0000
0001
0000
,  // measure 45
0202
0000
0000
0303
0000
0000
2020
0000
0000
3030
0000
0000
0220
0000
0000
0330
,  // measure 46
0000
0000
2002
0000
0000
3003
0000
0000
0001
0000
0100
0000
1000
0000
0000
0000
,  // measure 47
0202
0000
0000
0303
0000
0000
0220
0000
0000
0330
0000
0000
2020
0000
0000
3030
,  // measure 48
0000
0000
2002
0000
0000
3003
0000
0000
1000
0000
0001
0000
1000
0001
0010
0001
,  // measure 49
0010
0000
0002
2000
0000
0000
0003
0000
,  // measure 50
3001
0100
0020
0000
1000
0000
0130
0001
,  // measure 51
0010
1000
0020
0000
0001
0000
0100
0000
,  // measure 52
0031
1000
0001
0001
0100
0010
1000
1000
,  // measure 53
0100
0010
0000
0000
0100
0100
0100
1001
;

//---------------dance-single - ----------------
#NOTES:
     dance-single:
     :
     Beginner:
     2:
     0.125,0.173,0.219,0.000,0.000: // measure 1
0001
0000
0000
0000
,  // measure 2
1000
0000
0000
0000
,  // measure 3
0001
0000
0000
0000
,  // measure 4
0100
0000
0000
0000
,  // measure 5
0110
0000
0000
0000
,  // measure 6
0000
0000
0000
0000
,  // measure 7
1000
0000
0000
0000
,  // measure 8
0001
0000
0000
0000
,  // measure 9
0110
0000
0000
0000
,  // measure 10
0000
0000
0000
0000
,  // measure 11
0001
0000
0000
0000
,  // measure 12
1000
0000
0000
0000
,  // measure 13
0110
0000
0000
0000
,  // measure 14
0010
0000
0100
0000
,  // measure 15
0010
0000
0000
0000
,  // measure 16
1000
0000
0000
0000
,  // measure 17
0001
0000
0000
0000
,  // measure 18
1000
0000
0001
0000
,  // measure 19
1000
0000
0000
0000
,  // measure 20
0000
0000
0000
0000
0000
0000
0000
1001
,  // measure 21
0000
0000
0000
0000
0000
0000
0000
1001
,  // measure 22
0000
0000
0000
0000
,  // measure 23
1000
0000
0000
0000
0001
0000
0000
1000
,  // measure 24
0000
0000
0000
0000
,  // measure 25
1001
0000
0000
0000
0000
0000
0000
1001
,  // measure 26
0000
0000
0001
0000
,  // measure 27
1000
0000
0001
0000
,  // measure 28
0100
0000
0000
0000
,  // measure 29
1001
0000
0000
0000
0000
0000
0000
1001
,  // measure 30
0000
0000
1000
0000
,  // measure 31
0001
0000
1000
0000
,  // measure 32
0010
0000
0000
0000
,  // measure 33
1001
0000
0000
0000
,  // measure 34
0000
0000
0000
0000
,  // measure 35
0110
0000
0000
0000
,  // measure 36
0000
0000
0000
0000
,  // measure 37
1001
0000
0000
0000
0000
0000
0000
1001
,  // measure 38
0000
0000
0001
0000
,  // measure 39
1000
0000
0001
0000
,  // measure 40
0100
0000
0000
0000
,  // measure 41
1001
0000
0000
0000
0000
0000
0000
1001
,  // measure 42
0000
0000
1000
0000
,  // measure 43
0001
0000
1000
0000
,  // measure 44
0010
0000
0000
0000
,  // measure 45
1001
0000
0000
0000
,  // measure 46
0000
0000
0000
0000
,  // measure 47
0110
0000
0000
0000
,  // measure 48
0000
0000
0000
0000
,  // measure 49
1001
1001
0000
0000
,  // measure 50
0000
0001
0000
1000
,  // measure 51
0000
0001
0000
0000
,  // measure 52
0000
0100
0000
0100
,  // measure 53
0000
0000
0110
0000
;
