#VERSION:0.81;
#TITLE:Cradle of Love;
#SUBTITLE:;
#ARTIST:Billy Idol;
#TITLETRANSLIT:;
#SUBTITLETRANSLIT:;
#ARTISTTRANSLIT:;
#GENRE:;
#ORIGIN:;
#CREDIT:;
#BANNER:[Other Music Games] - Cradle of Love.png;
#BACKGROUND:[Other Music Games] - Cradle of Love-bg.png;
#PREVIEWVID:;
#JACKET:[Other Music Games] - Cradle of Love-jacket.png;
#CDIMAGE:;
#DISCIMAGE:;
#LYRICSPATH:;
#CDTITLE:;
#MUSIC:[Other Music Games] - Cradle of Love.mp3;
#OFFSET:0.200;
#SAMPLESTART:67.620;
#SAMPLELENGTH:15.000;
#SELECTABLE:YES;
#DISPLAYBPM:144.000;
#BPMS:0.000=143.950;
#STOPS:;
#DELAYS:;
#WARPS:;
#TIMESIGNATURES:0.000=4=4;
#TICKCOUNTS:0.000=4;
#COMBOS:0.000=1;
#SPEEDS:0.000=1.000=0.000=0;
#SCROLLS:0.000=1.000;
#FAKES:;
#LABELS:0.000=Song Start;
#BGCHANGES:0.000=[Other Music Games] - Cradle of Love.avi=1.000=0=0=0=StretchNoLoop====,
99999=-nosongbg-=1.000=0=0=0 // don't automatically add -songbackground-
;
#KEYSOUNDS:;
#ATTACKS:
;

//---------------dance-single - ----------------
#NOTEDATA:;
#CHARTNAME:;
#STEPSTYPE:dance-single;
#DESCRIPTION:;
#CHARTSTYLE:;
#DIFFICULTY:Hard;
#METER:7;
#RADARVALUES:0.499,0.467,0.471,0.173,0.010,296.000,49.000,18.000,0.000,0.000,0.000,0.000,0.000,0.499,0.467,0.471,0.173,0.010,296.000,49.000,18.000,0.000,0.000,0.000,0.000,0.000;
#CREDIT:;
#DISPLAYBPM:144.000;
#NOTES:
0000
1000
0100
1000
0001
0100
0001
0010
,
0010
0000
0110
0100
1000
0000
1001
0001
,
0100
0000
0101
0001
0010
0100
0010
0000
,
0100
0000
1100
1000
0001
0000
0101
0001
,
0010
0100
1000
0100
0000
1000
0001
1000
,
0001
0000
0011
0010
0100
0000
1100
1000
,
0010
0000
0110
0100
0001
0010
0001
0000
,
1000
0010
1000
0100
0010
0001
0010
2000
,
0000
0000
0000
3010
0000
0000
0000
0000
,
0000
0011
0000
0001
0100
1000
0100
0002
,
0000
0013
0000
0000
0000
0000
0100
1000
,
0000
1010
0000
1000
0010
0001
0010
2000
,
0000
3010
0000
0000
0000
0010
1000
0100
,
1000
0010
0010
0000
0110
0000
0000
0000
,
0101
0000
0001
0011
0000
0110
0000
0000
,
0100
1000
0100
1000
0000
0000
1000
0002
,
0000
0000
0000
0013
0000
0100
0000
0000
,
0000
0110
0000
0100
1000
0100
0001
0200
,
0000
1300
0000
0000
0000
0000
0000
0200
,
0000
1300
0000
1000
0010
0001
0010
0100
,
0000
0000
0000
0000
0110
0010
0100
0001
,
0010
0100
0100
0000
0110
0000
0000
0000
,
1100
0000
1000
1001
0000
0101
0000
0000
,
0001
0010
0100
0001
0000
0001
0100
1000
,
0000
0000
1000
0010
0000
0100
0000
0000
,
0101
0000
0001
0001
0000
0010
0000
0100
,
1000
0001
0100
0000
0101
0000
0000
0000
,
1100
0000
1000
0010
1000
0010
0100
0001
,
0010
0100
0010
0000
0110
0000
1100
0000
,
1001
0000
0001
0101
0000
0000
0000
0000
,
0100
0010
0100
0010
0000
0100
0000
0000
,
1000
0100
1000
0200
0000
1000
0000
0020
,
0000
0000
0330
0110
0000
0000
0000
0000
,
1001
0000
1000
0010
0000
0100
0000
0100
,
0010
1000
0001
0000
0011
0000
0001
0010
,
0001
1000
0000
1000
0010
1000
0100
0010
,
0100
0000
1000
1000
0000
0000
0000
0001
,
0101
0000
0001
0010
0000
0010
0001
1000
,
0100
0000
0000
0000
0000
0000
0100
0010
0000
0000
0000
0000
0000
0000
0000
0000
,
0000
0110
0000
0100
1000
0000
0000
1000
,
0010
0001
0100
0010
0000
0000
0220
0000
,
0330
0010
0000
1000
0010
1000
0001
0200
,
0000
0310
0000
0010
1000
0001
1000
0100
,
0000
0110
0000
0001
0010
0001
1000
0200
,
0000
0310
0000
0000
0110
0010
0100
1000
,
0000
1100
0000
0001
1000
0001
1000
0100
,
0000
0000
0010
0010
0100
0010
0100
0000
,
1000
0100
0010
0100
1000
0010
1000
0200
,
0000
0310
0000
0000
2002
0000
3003
0000
,
1000
0010
0000
0010
1000
0010
0100
0001
,
0000
0000
0000
0102
0000
0000
0000
1003
,
0000
1000
0100
0010
0001
0000
1001
0000
,
0000
0001
0100
0010
0000
0000
0000
0000
,
0000
0000
1000
0000
0000
0010
0000
0000
0100
0000
0001
0000
0010
0000
0100
0000
,
0000
0100
1000
0010
0100
0010
1000
0001
,
0000
0001
1000
0100
0010
0000
0000
1001
,
0000
0000
0000
0220
0000
0000
0330
0000
,
0010
0010
0010
0010
,
1010
0011
1010
0011
,
0100
0100
0100
0100
,
0101
1100
0101
1100
;

//---------------dance-single - ----------------
#NOTEDATA:;
#CHARTNAME:;
#STEPSTYPE:dance-single;
#DESCRIPTION:;
#CHARTSTYLE:;
#DIFFICULTY:Medium;
#METER:6;
#RADARVALUES:0.363,0.404,0.260,0.183,0.010,218.000,27.000,19.000,0.000,0.000,0.000,0.000,0.000,0.363,0.404,0.260,0.183,0.010,218.000,27.000,19.000,0.000,0.000,0.000,0.000,0.000;
#CREDIT:;
#DISPLAYBPM:144.000;
#NOTES:
0000
1000
0000
0000
0001
0000
0010
0010
,
0100
1000
1100
1000
,
0001
0000
0101
0001
0010
0100
0010
0000
,
0100
1000
1100
1000
,
0001
0100
0010
0100
0000
0010
0100
0010
,
0001
1001
1000
1001
,
1000
0000
1100
0100
0010
0100
0010
0000
,
0010
0000
0110
0000
0100
0000
0001
2000
,
0000
0000
0000
3001
0000
0000
0000
0000
,
0000
0010
0000
1000
0100
0000
0100
0020
,
0000
0130
0000
0000
0000
0000
0000
0000
,
0000
0010
0000
0001
0100
0000
0100
0020
,
0000
0130
0000
0000
0000
0101
0000
1000
,
0100
1000
0100
0000
1100
0000
0000
0000
,
0000
0000
0000
1000
0000
1000
0000
0000
,
0101
0000
0001
0101
0000
0000
0010
0100
,
0000
0000
0000
0010
0000
1000
0000
0000
,
0000
0100
0000
0010
0001
0000
0001
0200
,
0000
0310
0000
0000
0000
0000
0000
0200
,
0000
0310
0000
1000
0100
0000
0100
0020
,
0000
0130
0000
0000
0000
1100
0000
0001
,
0100
0001
0100
0000
0101
0000
0000
0000
,
0000
0000
0000
1000
0000
0010
0000
0000
,
1000
0000
0100
1000
0000
0000
1000
0001
,
0000
0000
0100
0100
0010
0000
0110
0000
,
0000
0000
0100
0001
0000
0001
0000
0001
,
2000
3200
2300
3000
,
0000
0000
0100
1000
0010
0000
0100
0001
,
0010
0100
0110
1001
,
2000
0000
0000
3010
0000
0000
0000
0000
,
0000
0000
0000
0100
0000
0001
0000
0000
,
0000
0000
0000
2000
0000
0010
0000
3001
,
0000
0000
0000
1001
0000
0000
0000
0000
,
0000
0000
0001
0100
0000
0100
0000
0100
,
0010
1000
0010
0000
0100
0000
0000
0000
,
0000
1000
0000
0100
1000
0000
0100
0000
,
0010
0000
0000
0010
0000
0000
0001
0000
0000
0000
0000
0000
0000
0000
0001
0000
,
0102
1000
0103
0000
,
2100
0001
3100
0000
,
0000
0010
0000
0010
0100
0000
0000
0000
,
1000
0001
1000
0001
0000
0000
1001
0000
,
0000
0010
0000
0010
1000
0000
1000
0200
,
0000
0310
0000
0000
0000
0000
0000
0000
,
0000
0010
0000
0010
0001
0000
0001
0200
,
0000
0310
0000
0000
0000
0000
0000
0000
,
0000
0110
0000
0010
1000
0000
1000
0100
,
0000
0000
0010
0010
0000
0000
0000
0000
,
0000
0010
0001
0100
0001
1000
0100
2000
,
0000
3010
0000
0000
2020
0000
3030
0000
,
1002
0000
0010
0000
,
1000
0000
1003
0000
,
1000
0100
0010
0000
0001
0000
1000
0000
,
0000
1001
0000
1000
0000
0000
0000
0000
,
0000
0000
0010
0000
0000
1000
0000
0000
0010
0000
1000
0000
0001
0000
0000
0000
,
0010
0000
0001
0000
0010
0001
1000
0000
,
0010
0100
0010
0100
0010
0000
0000
0100
,
0000
0000
0000
0110
0000
0000
0000
0000
,
0001
0001
0001
0001
,
1001
0000
0000
0000
,
1000
1000
1000
1000
,
0110
0000
0000
0000
;

//---------------dance-single - Blank----------------
#NOTEDATA:;
#CHARTNAME:;
#STEPSTYPE:dance-single;
#DESCRIPTION:Blank;
#CHARTSTYLE:;
#DIFFICULTY:Easy;
#METER:4;
#RADARVALUES:0.265,0.292,0.260,0.038,0.000,162.000,27.000,4.000,0.000,0.000,0.000,0.000,0.000,0.265,0.292,0.260,0.038,0.000,162.000,27.000,4.000,0.000,0.000,0.000,0.000,0.000;
#CREDIT:RIME;
#DISPLAYBPM:144.000;
#NOTES:
// measure 0
0000
0000
0000
0000
,  // measure 1
0010
0010
1000
0001
,  // measure 2
0000
0010
0100
0010
,  // measure 3
0100
0100
1000
0001
,  // measure 4
0000
1000
0100
0001
,  // measure 5
0100
0010
0001
1000
,  // measure 6
0000
0010
0100
0010
,  // measure 7
1000
0100
0010
0001
,  // measure 8
1001
0000
0110
0000
,  // measure 9
0000
0001
0100
1000
,  // measure 10
0020
0000
0000
0000
,  // measure 11
0000
1030
0100
0001
,  // measure 12
0020
0000
0000
0031
,  // measure 13
0011
0000
0000
0000
,  // measure 14
1010
0000
0000
0000
,  // measure 15
1100
0000
0000
0000
,  // measure 16
0101
0000
0000
0000
,  // measure 17
0000
0001
0010
1000
,  // measure 18
0200
0000
0000
0000
,  // measure 19
1300
0010
0001
0100
,  // measure 20
2000
0000
0000
3001
,  // measure 21
1001
0000
0000
0000
,  // measure 22
0011
0000
0000
0000
,  // measure 23
0110
0000
0000
0000
,  // measure 24
1100
0000
0000
0000
,  // measure 25
0001
0000
0100
0000
,  // measure 26
0001
0100
0010
0000
,  // measure 27
1000
0000
0100
0000
,  // measure 28
1000
0100
0010
0000
,  // measure 29
1001
0000
0000
0000
,  // measure 30
0011
0000
0000
0000
,  // measure 31
1001
0000
0000
0000
,  // measure 32
1010
0000
0010
0000
,  // measure 33
0100
0001
0100
0010
,  // measure 34
1000
0100
1000
0000
,  // measure 35
0001
0100
0001
0010
,  // measure 36
0100
1000
0100
0000
,  // measure 37
1001
0000
0000
0000
,  // measure 38
1100
0000
0000
0000
,  // measure 39
1001
0000
0000
0000
,  // measure 40
0101
0000
0110
0110
,  // measure 41
0010
1000
0100
1000
,  // measure 42
0010
0000
0110
0000
,  // measure 43
0100
0001
0010
0001
,  // measure 44
0100
0000
0110
0000
,  // measure 45
0010
1000
0001
0010
,  // measure 46
0100
1000
0001
0001
,  // measure 47
0100
0010
1000
0001
,  // measure 48
0100
0000
0110
0000
,  // measure 49
0010
1000
0010
1000
,  // measure 50
0001
0100
0001
0100
,  // measure 51
0010
1000
0100
0010
,  // measure 52
0001
1000
0001
0000
,  // measure 53
1001
1000
0010
0010
,  // measure 54
1001
0001
0010
0010
,  // measure 55
0110
0100
1000
0001
,  // measure 56
0110
0100
0001
1000
,  // measure 57
0010
0010
0010
0010
,  // measure 58
1000
0001
1000
0001
,  // measure 59
0010
0010
0010
0010
,  // measure 60
0001
1000
0001
1000
;
