#TITLE:Clash On The Big Bridge;
#SUBTITLE:;
#ARTIST:植松伸夫;
#TITLETRANSLIT:;
#SUBTITLETRANSLIT:;
#ARTISTTRANSLIT:Nobuo Uematsu;
#CREDIT:;
#BANNER:Clash On The Big Bridge.png;
#BACKGROUND:Clash On The Big Bridge-bg.png;
#LYRICSPATH:;
#CDTITLE:;
#MUSIC:Clash On The Big Bridge.mp3;
#OFFSET:-0.161;
#SAMPLESTART:32.750;
#SAMPLELENGTH:12.000;
#SELECTABLE:YES;
#BPMS:0.000=178.000,81.000=180.000,97.000=178.001,124.000=160.000,125.000=177.500,229.000=179.000;
#STOPS:;
#BGCHANGES:;

//---------------dance-single - ----------------
#NOTES:
     dance-single:
     :
     Hard:
     9:
     0.709,0.681,0.306,0.272,0.045: // measure 1
0000
0000
0000
0000
,  // measure 2
0000
0000
0000
0000
,  // measure 3
0000
0000
0000
0000
,  // measure 4
0000
0000
0000
0000
,  // measure 5
0000
0000
0000
0000
,  // measure 6
0000
0000
0000
0000
,  // measure 7
1000
0100
0010
0100
1000
0010
0100
1000
,  // measure 8
0100
0010
1000
0001
0010
0100
0010
0001
,  // measure 9
0100
0010
0100
0001
0010
0001
0100
0010
,  // measure 10
1000
0100
0001
0100
1000
0010
0001
0010
,  // measure 11
1000
0010
0100
0010
1000
0100
0001
0100
,  // measure 12
0010
0100
0001
0100
0010
0001
1000
0001
,  // measure 13
0100
0000
0010
0000
1010
0000
0000
0000
0110
0000
0000
0100
0001
0000
0000
0000
,  // measure 14
0101
0000
1001
1000
0100
0010
0011
0000
,  // measure 15
0101
0000
0100
0010
1000
0010
0100
0010
,  // measure 16
0001
0010
1000
0100
0010
0100
1000
0100
,  // measure 17
0001
0100
1000
0010
0100
1000
0100
0010
,  // measure 18
0001
0000
0010
0000
0100
0000
1000
0000
1100
0000
0000
0000
0101
0000
0000
0001
,  // measure 19
0010
0000
1010
0000
0011
0001
0100
0010
,  // measure 20
1010
0000
0101
0000
0001
1000
1100
0000
,  // measure 21
1001
0000
0001
0100
0000
1000
0100
0001
,  // measure 22
0000
0000
1000
0000
0001
0000
0100
0000
0010
0000
1000
0000
0001
0100
0001
0000
,  // measure 23
0100
0000
0010
0000
1000
0000
0100
0000
0000
0010
0000
0001
0000
0100
0000
0000
,  // measure 24
2010
0100
0010
0001
,  // measure 25
3100
0000
1000
0001
0100
0001
0010
0100
,  // measure 26
1000
0100
0010
0001
0100
0010
1000
0002
,  // measure 27
0000
1003
0100
0010
0100
1000
0010
0200
,  // measure 28
0000
0310
1000
0100
0001
0100
1000
0010
,  // measure 29
0001
0010
1000
0001
0100
0001
0010
0100
,  // measure 30
1000
0100
0010
0001
0100
0010
1000
0002
,  // measure 31
0000
1003
0100
0010
0100
1000
0010
0200
,  // measure 32
0000
0301
1000
0100
0001
0100
1000
0010
,  // measure 33
0001
0010
1000
0100
1000
0001
1000
0010
,  // measure 34
1000
0001
0100
0001
0010
0001
0100
0001
,  // measure 35
1000
0001
0200
0000
0310
2000
0000
3001
,  // measure 36
0200
0000
0302
0000
0013
0200
0000
1300
,  // measure 37
0002
0000
1003
0010
0100
0010
1000
0100
,  // measure 38
0010
0100
1000
0010
0001
0010
1000
0100
,  // measure 39
0001
0100
2000
0000
3100
0020
0000
0031
,  // measure 40
2000
0000
3002
0000
0103
0020
0000
0130
,  // measure 41
0001
0000
1001
0000
0001
0100
0000
1000
,  // measure 42
0200
0001
0310
0110
,  // measure 43
1010
0000
1100
0000
1000
0010
0000
0001
,  // measure 44
0020
0000
1000
0000
0100
0100
0000
0001
,  // measure 45
0031
0000
0110
0000
0010
1000
0100
0001
,  // measure 46
0100
2000
0000
3002
0000
0100
0103
0000
,  // measure 47
0101
0000
0001
0100
1000
0100
0001
0010
,  // measure 48
1000
0010
0001
0100
0010
0100
0001
0010
,  // measure 49
0100
0010
0001
0000
0101
0000
1000
0000
,  // measure 50
1100
0000
0001
0100
1000
0100
0001
0010
,  // measure 51
1000
0000
0010
0001
0100
0010
1000
0100
,  // measure 52
0010
0100
1000
0010
0100
0001
0010
1000
,  // measure 53
0010
0001
0100
0010
0000
1000
0100
0001
,  // measure 54
0000
0000
1000
0000
0010
0000
0001
0000
0100
0000
0010
0000
1000
0001
1000
0000
,  // measure 55
0001
0100
0020
0100
0130
0002
1000
1003
,  // measure 56
0001
0000
0100
0010
1010
0000
0110
0000
,  // measure 57
0101
0000
0001
1000
0001
1000
0001
1000
,  // measure 58
0001
1000
0010
0100
0010
0100
0010
0100
,  // measure 59
0010
0100
1000
0001
1000
0001
1000
0001
,  // measure 60
1000
0001
0100
0010
0100
0010
0100
0010
,  // measure 61
0100
0010
0001
1000
0000
0100
1000
0010
,  // measure 62
0000
0000
0100
0000
0001
0000
0010
0000
0100
0000
1000
0000
0001
1000
0001
0000
,  // measure 63
0100
0010
2002
0000
0000
0000
0000
0000
,  // measure 64
0000
3003
0000
0000
;

//---------------dance-single - ----------------
#NOTES:
     dance-single:
     :
     Beginner:
     2:
     0.136,0.176,0.011,0.000,0.000:
0000
0000
0000
0000
,
0000
0000
0000
0000
,
0000
0000
0000
0000
,
0000
0000
0000
0000
,
0000
0000
0000
0000
,
0000
0000
0000
0000
,
1000
0000
0000
0000
,
0000
0000
0001
0000
,
0000
0000
0000
0000
,
0100
0000
0000
0000
,
0000
0000
0010
0000
,
0000
0000
0000
0000
,
0000
1000
0000
0000
,
0001
0000
0000
0100
,
0000
0010
0000
0000
,
0000
0000
0000
1000
,
0000
0000
0000
0000
,
0000
0001
0000
0000
,
0000
0100
0000
0000
,
0010
0000
0000
1000
,
0000
0001
0000
0001
,
0000
0100
0000
0100
,
0000
0010
0000
1000
,
1000
0000
0000
0000
,
0000
0001
0000
0000
,
0000
0100
0000
0000
,
0000
0010
0000
0000
,
0000
1000
0000
1000
,
0000
1000
0000
0000
,
0000
0100
0000
0000
,
0000
0010
0000
0000
,
0000
0001
0000
0001
,
0000
0001
0000
0000
,
0000
1000
0000
0000
,
0000
0010
0000
0010
,
0000
0100
0000
0100
,
0000
0001
0000
0001
,
0000
1000
0000
1000
,
0000
0010
0000
0010
,
0000
0100
0000
0100
,
0000
0001
0000
0001
,
0000
0001
0000
0000
,
0000
1000
0000
1000
,
0000
1000
0000
0000
,
0000
0010
0000
0010
,
0000
0100
0000
0100
,
0000
0001
0000
0001
,
0000
1000
0000
0000
,
0000
0000
0001
0000
,
0001
0000
1000
0000
,
1000
1000
0000
0010
,
0000
0100
0000
0001
,
0000
1000
0000
1000
,
0000
0001
0000
0001
,
0000
0000
0100
0000
0000
0100
0000
0000
,
0100
0000
0010
0000
,
0010
1000
0000
0000
,
0000
0001
0000
0000
,
0000
0100
0000
0000
,
0000
0010
0000
0000
,
0000
1000
0000
1000
,
0000
0001
0000
0001
,
0000
1001
0000
0000
;

//---------------dance-single - ----------------
#NOTES:
     dance-single:
     :
     Easy:
     4:
     0.335,0.353,0.113,0.011,0.000:
0000
0000
0000
0000
,
0000
0000
0000
0000
,
0000
0000
0000
0000
,
0000
0000
0000
0000
,
0000
0000
0000
0000
,
0000
0000
0000
0000
,
1000
0100
0010
0100
,
1000
0100
0010
0001
,
0100
0001
0010
0001
,
0100
0010
1000
0010
,
0100
0010
1000
0001
,
0100
0001
1000
0100
,
0000
1000
0001
0000
,
0100
0010
0000
1000
,
0001
1000
0100
0001
,
0100
1000
0100
0001
,
0100
0010
0100
1000
,
0100
0000
0010
0001
,
0000
0100
0010
0000
,
1000
0001
0000
0100
,
0001
1001
0000
0110
,
0000
1000
0100
0001
,
0100
1100
0000
0001
,
0001
0000
0000
0000
,
0000
1000
0010
0100
,
0010
1000
0100
0010
,
0000
0100
1000
0001
,
0000
0010
0001
0100
,
0010
1000
0010
0100
,
0001
1000
0100
0010
,
0000
0001
0100
0010
,
0000
1000
0001
0010
,
0001
1000
1000
1000
,
1000
0001
0001
0001
,
0001
0000
0100
0000
0000
0010
0000
0000
,
0100
0000
0001
0000
0000
1000
0000
0000
,
0100
0010
0100
1000
,
0100
0010
0001
0100
,
0010
0000
1000
0000
0000
0001
0000
0000
,
0100
0000
0010
0000
0000
0100
0000
0000
,
0001
0010
0100
1000
,
0002
0100
0103
0001
,
0100
0010
1000
0100
,
0010
0100
0100
1000
,
1000
0001
0100
1000
,
0100
0001
0010
1000
,
0010
0001
0100
0010
,
1000
0001
0001
1000
,
1000
0000
1001
0000
,
1001
1000
0010
0100
,
0010
1000
0100
0001
,
0100
1000
0010
0001
,
0010
1001
0000
1001
,
0000
0001
0100
0010
,
0100
0000
0001
0000
0000
0010
0000
0000
,
0100
0000
1000
0001
,
0100
0010
0010
0010
,
0010
0100
0100
0100
,
0100
0001
0001
0001
,
0001
1000
1000
1000
,
1000
1001
0000
0110
,
0000
1000
0100
0001
,
0100
1001
0000
0000
;

//---------------dance-single - ----------------
#NOTES:
     dance-single:
     :
     Medium:
     6:
     0.500,0.494,0.442,0.000,0.000:
0000
0000
0000
0000
,
0000
0000
0000
0000
,
0000
0000
0000
0000
,
0000
0000
0000
0000
,
0000
0000
0000
0000
,
0000
0000
0000
0000
,
1000
0100
1000
0000
0100
0010
0100
0000
,
0010
0001
0010
0000
0001
0100
0001
0000
,
0100
0010
0100
0000
0010
1000
0010
0000
,
1000
0100
1000
0000
0001
1000
0001
0000
,
0010
0001
0010
0000
0001
0100
0001
0000
,
0100
0010
0100
0000
0010
1000
0010
0000
,
1000
1100
1100
0000
,
0011
0011
0000
0101
,
0101
0000
0100
0010
0100
0000
0010
1000
,
0010
0000
1000
0100
1000
0000
0100
0010
,
0100
0000
0010
0001
0010
0000
0001
0100
,
0001
0100
0110
0110
,
0000
1010
1010
0000
,
1001
1001
0000
0101
,
0101
0000
0100
0010
0000
0000
1000
0001
,
0000
0000
1000
0100
1000
0000
0001
0100
,
0001
0000
1000
0001
0000
0000
0010
0100
,
0010
0000
0000
0000
,
0000
0001
0100
0010
,
1000
0000
0001
1000
0001
1000
0001
1000
,
0000
0000
0010
0100
0010
0100
0010
0100
,
0000
0110
0110
1001
,
1001
1000
0100
0010
,
0001
0000
0100
0010
0100
0010
0100
0010
,
0000
0000
1000
0001
1000
0001
1000
0001
,
0000
0000
1000
0100
1000
0000
0001
0100
,
0001
1000
1100
0100
,
0110
0010
0011
0001
,
0101
0000
0100
0000
0000
0010
0000
0000
,
1010
0000
0100
0000
0000
0010
0000
0000
,
0011
0000
0001
0100
0001
0000
0100
1000
,
0100
0000
1000
0010
1000
0000
0010
0001
,
0010
0000
0001
0000
0000
0100
0000
0000
,
1010
0000
1000
0000
0000
0100
0000
0000
,
0011
0000
0001
0000
0100
0010
0000
0100
,
0001
0010
0100
1100
,
0101
0000
1001
0000
0001
0010
0000
0100
,
0010
0001
0100
0010
,
1000
0000
1001
0000
1000
0000
0010
0100
,
0010
0100
0000
0001
0000
0100
0010
0000
,
1000
0001
0010
1000
,
0010
0000
0001
0100
0001
0000
1000
0100
,
1000
0001
0101
1000
,
1100
0000
0001
1000
0001
0000
0100
0010
,
0100
0000
0001
0100
0001
0000
0100
1000
,
0100
0000
1000
0010
1000
0000
0010
0001
,
0010
0000
0001
0100
0000
0000
0010
1000
,
0000
0000
0001
1000
0001
0000
0010
0100
,
0010
0000
0011
0000
0000
1100
0000
0000
,
0101
0000
1010
1001
,
0101
0000
0001
1000
0001
0000
1000
0001
,
1000
0000
0010
0100
0010
0000
0100
0010
,
0100
0000
1000
0001
1000
0000
0001
1000
,
0001
0000
0010
0100
0010
0000
0100
0010
,
0100
0000
1000
0001
0000
0000
0100
0010
,
0000
0000
1000
0100
0001
0000
1000
0010
,
0001
1001
0000
0000
;
