#TITLE:Canon D;
#SUBTITLE:;
#ARTIST:BanYa;
#TITLETRANSLIT:;
#SUBTITLETRANSLIT:;
#ARTISTTRANSLIT:;
#CREDIT:;
#BANNER:[Other Music Games] - Canon D.png;
#BACKGROUND:[Other Music Games] - Canon D-bg.png;
#LYRICSPATH:;
#CDTITLE:;
#MUSIC:[Other Music Games] - Canon D.mp3;
#OFFSET:0.245;
#SAMPLESTART:48.140;
#SAMPLELENGTH:12.000;
#SELECTABLE:YES;
#BPMS:0.000=160.000;
#STOPS:;
#BGCHANGES:;

//---------------dance-single - ----------------
#NOTES:
     dance-single:
     :
     Hard:
     7:
     0.353,0.487,0.204,0.213,0.044: // measure 1
0000
0000
0000
0000
,  // measure 2
0000
0000
0000
0000
,  // measure 3
0000
0000
0000
0000
,  // measure 4
0000
0000
0000
0000
,  // measure 5
0000
0000
0000
0000
,  // measure 6
0000
0000
0000
0000
,  // measure 7
0000
0000
0000
0000
,  // measure 8
0000
0000
0000
0000
,  // measure 9
0000
1010
0000
0000
,  // measure 10
0000
0010
1000
0000
0000
0000
0000
0000
,  // measure 11
0000
0110
0000
0000
,  // measure 12
0000
0010
0100
0000
0000
0000
0000
0000
,  // measure 13
0000
0101
0000
0000
,  // measure 14
0000
0100
0001
0000
0000
0000
0000
0000
,  // measure 15
0000
0110
0000
0000
,  // measure 16
0000
0010
0100
0000
0000
0000
0000
0000
,  // measure 17
0000
1001
0000
0000
,  // measure 18
0000
1000
0001
0000
0000
0000
0000
0000
,  // measure 19
0000
1001
0000
0000
,  // measure 20
0000
0001
1000
0000
0000
0000
0000
0000
,  // measure 21
0000
0110
0000
0000
,  // measure 22
0000
0100
0010
0000
0000
0000
0000
0000
,  // measure 23
0000
0110
0000
0000
,  // measure 24
0000
0010
0100
0001
1000
0100
0010
0001
,  // measure 25
1000
0010
0220
0000
0000
0000
0000
0330
,  // measure 26
0000
0002
2000
3003
0000
1000
0010
0100
,  // measure 27
0001
0010
0220
0000
0000
0000
0330
0000
,  // measure 28
1000
0100
2200
0000
0000
0000
0000
0000
,  // measure 29
3300
0000
0000
0000
0010
0000
0000
1000
0000
0000
0001
0000
0100
0000
0000
0000
,  // measure 30
0000
0010
0100
0000
0000
0100
0010
0000
,  // measure 31
0000
0000
1001
0000
0000
0002
2000
3003
,  // measure 32
0000
0000
1001
0000
0000
2000
0002
3003
,  // measure 33
0000
0000
0101
0000
0001
0100
1000
0000
,  // measure 34
1000
0100
0001
0010
0100
1000
0100
0010
,  // measure 35
0001
0100
0001
0000
0001
0100
0010
0000
,  // measure 36
0010
0100
0001
0100
0010
1000
0100
0010
,  // measure 37
0001
0100
0010
0000
0010
1000
0001
0000
,  // measure 38
0001
0010
1000
0010
0001
0010
0100
1000
,  // measure 39
0100
0010
0001
0000
0001
0100
0010
0000
,  // measure 40
0100
0010
1000
0100
0010
0001
0010
0100
,  // measure 41
1000
0001
0210
0000
0010
0000
0001
0000
,  // measure 42
0001
0010
0010
0301
,  // measure 43
0000
2010
0010
0001
,  // measure 44
0001
0100
0100
0010
,  // measure 45
3010
0001
0010
0100
,  // measure 46
1000
1000
0100
0010
,  // measure 47
0001
0001
0010
0100
,  // measure 48
1000
0001
1000
0001
,  // measure 49
1000
0001
0010
0100
,  // measure 50
1000
0000
0000
0001
1000
0000
0000
0010
1000
0000
0000
0100
1000
0000
0000
0000
,  // measure 51
0000
1000
0010
0100
,  // measure 52
0001
0000
0000
1000
0001
0000
0000
0010
0001
0000
0000
0100
0001
0000
0000
0000
,  // measure 53
0000
0000
0000
0000
0010
0000
0000
1000
0000
0000
0001
0000
0100
0000
0000
0010
,  // measure 54
0000
1000
0001
0100
0010
1000
0001
1000
,  // measure 55
0100
0010
0002
0000
0000
2000
0000
0000
,  // measure 56
3003
0000
0220
0000
0000
0000
0000
0000
0000
0000
0000
0000
0000
0330
0000
0000
,  // measure 57
1001
2002
0000
0000
0000
0000
0000
0000
,  // measure 58
0000
0000
0000
0000
,  // measure 59
0000
0000
0000
0000
,  // measure 60
0000
0000
3003
0000
,  // measure 61
0000
0000
1001
0000
1000
0010
0100
0001
,  // measure 62
0010
0100
1000
0010
0001
0010
1000
0000
,  // measure 63
0100
0000
0010
0000
0100
0010
0001
1000
,  // measure 64
0001
0100
0010
1000
0001
0010
0100
1000
,  // measure 65
0100
1000
2200
0000
0000
0000
0000
0000
,  // measure 66
0000
0000
0000
0000
,  // measure 67
0000
0000
0000
0000
,  // measure 68
3300
0000
0000
0000
;

//---------------dance-single - ----------------
#NOTES:
     dance-single:
     :
     Medium:
     5:
     0.301,0.455,0.330,0.029,0.000:
0000
0000
0000
0000
,
0000
0000
0000
0000
,
0000
0000
0000
0000
,
0000
0000
0000
0000
,
0000
0000
0000
0000
,
0000
0000
0000
0000
,
0000
0000
0000
0000
,
0000
0000
0000
0000
,
0000
0110
0000
0000
,
0000
1001
0000
0000
,
0000
1010
0000
0000
,
0000
0101
0000
0000
,
0000
0110
0000
0000
,
0000
1010
0000
0000
,
0000
0011
0000
0000
,
0000
1100
0000
0000
,
0000
0110
0000
0000
,
0000
1010
0000
0000
,
0000
0011
0000
0000
,
0000
1010
0000
0000
,
0000
0101
0000
0000
,
0000
0110
0000
0000
,
0000
1010
0000
0101
,
0000
0000
0110
0000
1001
0000
0010
1000
,
0001
0010
2200
0000
0000
0000
0000
0000
,
3300
1001
0000
1000
,
0001
0100
0000
0000
,
1100
0011
0000
0000
,
0000
0010
0010
0100
,
0000
0010
0100
0000
0000
0100
0010
0000
,
0000
0000
1001
0000
0000
1000
0001
0000
,
0000
0000
1001
0000
0000
0001
1000
0000
,
0000
1010
0001
0101
,
1000
0000
0001
0010
0100
0000
0100
0010
,
0001
0101
0010
1010
,
0100
0000
0100
0010
1000
0000
1000
0010
,
0100
1010
0001
0101
,
0010
0000
0001
1000
0100
0000
0100
1000
,
0001
0110
0001
1100
,
1000
0000
0010
1000
0001
0100
0010
1000
,
0001
0010
0100
0000
0000
0000
0010
0000
,
0010
0100
0100
0001
,
0001
1000
0000
1000
,
1000
0010
0010
0100
,
0100
0001
0000
0001
,
0001
0010
0010
0100
,
0100
1000
0000
1000
,
0010
0100
0001
0010
,
0100
1000
1000
1000
,
1000
0010
0100
0001
,
0000
0001
0001
0001
,
0001
0010
0100
1000
,
0000
0010
0010
0100
,
0100
0000
0010
1000
0010
0000
1000
0010
,
1000
0000
0001
0100
0001
0000
0100
0001
,
0100
1000
1000
0001
,
0001
1000
0010
0100
,
0001
1000
0001
1001
,
0000
0010
0100
0001
,
0010
0100
1000
1100
,
0000
1000
0010
0100
,
0001
0010
0100
1000
,
0001
1000
0010
0100
,
0001
0000
1000
0010
0100
0000
0001
0010
,
0100
1000
0200
0000
0000
0000
0000
0000
,
0000
0000
0000
0000
,
0000
0000
0000
0000
,
0300
0000
0000
0000
;

//---------------dance-single - ----------------
#NOTES:
     dance-single:
     :
     Easy:
     3:
     0.168,0.292,0.010,0.019,0.000:
0000
0000
0000
0000
,
0000
0000
0000
0000
,
0000
0000
0000
0000
,
0000
0000
0000
0000
,
0000
0000
0000
0000
,
0000
0000
0000
0000
,
0000
0000
0000
0000
,
0000
0000
0000
0000
,
0000
0001
0000
0000
,
0000
0000
0000
0000
,
0000
1000
0000
0000
,
0000
0000
0000
0000
,
0000
0010
0000
0000
,
0000
0000
0000
0000
,
0000
0100
0000
0000
,
0000
0000
0000
0000
,
0000
0100
0000
0000
,
0000
0000
0000
0000
,
0000
0010
0000
0000
,
0000
0000
0000
0000
,
0000
0001
0000
0000
,
0000
0000
0000
0000
,
0000
1000
0000
0001
,
0000
1000
0001
1000
,
0001
1000
0000
0000
,
0000
0010
0000
0001
,
1000
0100
0000
0000
,
0100
1000
0000
0000
,
0000
0001
1000
0001
,
0000
0010
0000
0010
,
0000
0100
0000
0100
,
0000
0001
0000
0001
,
0000
0010
0000
0010
,
0000
0010
1000
0010
,
1000
1000
0000
1000
,
0000
1000
0001
1000
,
0001
0001
0000
0001
,
0000
0001
1000
0001
,
1000
1000
0000
1000
,
0000
1000
0001
1000
,
0001
1000
1000
0001
,
0001
1000
0010
0100
,
0001
0001
0001
0010
,
0010
0100
1000
0001
,
0100
0010
0000
0010
,
0000
0100
0000
0100
,
0000
0001
0000
0001
,
0000
1000
0000
1000
,
0000
0010
0100
0001
,
0100
0010
0010
0010
,
0000
1000
0010
0100
,
0010
1000
1000
1000
,
0000
0010
0000
0010
,
0000
0100
0000
0100
,
0000
0001
0000
0001
,
0000
1000
0000
1000
,
0000
0010
0000
0010
,
0000
0100
0100
0100
,
0000
0100
0000
0100
,
0000
0010
0010
0010
,
0000
0001
0000
1000
,
0000
0001
0000
1000
,
0000
0010
0000
0100
,
0000
0001
0000
1000
,
0000
2002
0000
0000
,
0000
0000
0000
0000
,
0000
0000
0000
0000
,
3003
0000
0000
0000
;
