#TITLE:BANDOLERO COMANCHERO;
#SUBTITLE:;
#ARTIST:FRANZ TORNADO & THE MAD COW GIRLS;
#TITLETRANSLIT:;
#SUBTITLETRANSLIT:;
#ARTISTTRANSLIT:;
#CREDIT:;
#BANNER:BANDOLERO COMANCHERO.png;
#BACKGROUND:BANDOLERO COMANCHERO-bg.png;
#LYRICSPATH:;
#CDTITLE:;
#MUSIC:BANDOLERO COMANCHERO.mp3;
#OFFSET:-0.663;
#SAMPLESTART:38.890;
#SAMPLELENGTH:12.000;
#SELECTABLE:YES;
#BPMS:0.000=163.000;
#STOPS:;
#BGCHANGES:;

//---------------dance-single - ----------------
#NOTES:
     dance-single:
     :
     Hard:
     9:
     0.687,0.605,0.389,0.075,0.220:
0000
0000
0000
0000
,
0000
0000
0000
0000
,
1000
0000
0100
0000
0010
0000
0100
1000
0000
0010
0000
0100
0010
0000
1000
0000
,
0001
0100
1000
0100
0001
0010
1000
0010
,
0001
0000
0100
0000
0010
0000
0100
0001
0000
0010
0000
0100
0010
0000
0001
0000
,
1000
0100
0001
0100
1000
0010
0001
0010
,
1000
0000
0100
0000
0010
0000
0001
0100
0000
0010
0000
0100
1000
0000
0100
0000
,
0010
1000
0100
0010
0001
0100
0010
0001
,
0010
0000
1000
0000
0001
0000
0010
0100
0000
1000
0000
0010
0100
0000
0001
0000
,
0100
0010
0000
1000
0000
0001
0000
0010
0100
0000
0000
0000
1001
0000
0000
0000
,
1100
0000
0101
0000
1001
0000
1000
0100
,
0001
0100
0000
1001
0000
0001
0010
1000
,
0010
0001
0100
1000
0100
0001
0010
0100
,
1000
0000
0000
0010
0000
0000
0100
0000
0001
0000
0000
0010
0000
0000
0100
0000
,
1100
0000
0101
0000
1001
0000
0001
0010
,
1000
0010
0000
1001
0000
0001
0100
0010
,
0100
1000
0100
0000
0110
0000
0010
1000
,
0100
0000
0000
0010
0000
0000
0001
0000
1000
0000
0001
0000
0100
0000
0010
0000
,
1000
0100
0011
0000
1000
0010
0101
0000
,
0001
0010
1100
0000
0001
0100
1010
0001
,
0000
1000
0010
0100
0010
1000
0100
0010
,
0000
0001
0100
0010
0100
0001
0010
0000
,
0100
1000
0101
0000
0100
1000
0011
0000
,
0001
0100
1010
0000
0001
0100
1100
0200
,
0000
0010
0310
0000
0100
0010
0001
1000
,
0001
0100
0010
1000
0002
0000
1003
0000
,
0001
0100
1000
0100
0001
0010
1000
0010
,
0001
0100
0010
1000
0001
0000
1001
0000
,
1000
0100
0010
0001
1000
0010
0100
0001
,
1000
0010
0001
0010
1010
0000
0101
0000
,
0001
0010
1000
0010
0100
0001
0100
0010
,
0001
0100
0010
1000
0001
0000
1001
0000
,
1000
0100
0001
0010
2000
0000
3001
0000
,
1100
0011
0101
1010
,
0001
0100
1000
0100
0001
0010
1000
0010
,
0001
0100
0010
0100
0001
0000
1100
0000
,
0100
0001
0100
1000
0010
0100
1000
0100
,
0001
0100
0010
1000
1001
0000
0101
0000
,
0010
1000
0100
0001
0100
1000
0010
0001
,
0010
1000
0001
0100
0010
0000
1001
0000
,
0001
0010
1000
0100
0002
0000
1003
0200
,
0000
1300
0010
0001
0010
1000
0010
0200
,
0010
0010
0010
0310
,
1000
0000
0100
0000
0010
0000
0100
1000
0000
0010
0000
0100
0010
0000
1000
0000
,
0001
0100
1000
0100
0001
0010
1000
0010
,
0001
0000
0100
0000
0010
0000
0100
0001
0000
0010
0000
0100
0010
0000
0001
0000
,
1000
0100
0001
0100
1000
0010
0001
0010
,
1000
0000
0100
0000
0010
0000
0001
0100
0000
0010
0000
0100
1000
0000
0100
0000
,
0010
1000
0100
0010
0001
0100
0010
0001
,
0010
0000
1000
0000
0001
0000
0010
0100
0000
1000
0000
0010
0100
0000
0001
0000
,
0100
0010
0000
1000
0000
0001
0000
0010
0100
0000
0000
0000
1001
0000
0000
0000
;

//---------------dance-single - ----------------
#NOTES:
     dance-single:
     :
     Beginner:
     2:
     0.167,0.255,0.000,0.013,0.000: // measure 1
0000
0000
0000
0000
,  // measure 2
0000
0000
0000
0000
,  // measure 3
1000
0000
0000
0000
,  // measure 4
0001
0000
0000
0000
,  // measure 5
0100
0000
0000
0000
,  // measure 6
0010
0000
0010
0000
,  // measure 7
0010
0000
0000
0000
,  // measure 8
0100
0000
0000
0000
,  // measure 9
0001
0000
0000
0000
,  // measure 10
1000
0000
1000
0000
,  // measure 11
1000
0000
0000
0000
,  // measure 12
0010
0000
0000
0000
,  // measure 13
0100
0000
0000
0000
,  // measure 14
0001
0000
0001
0000
,  // measure 15
0001
0000
0000
0000
,  // measure 16
0010
0000
0000
0000
,  // measure 17
0100
0000
0000
0000
,  // measure 18
1000
0000
1000
0000
,  // measure 19
0001
0000
0001
0000
,  // measure 20
0100
0000
0100
0000
,  // measure 21
0010
0000
0010
0000
,  // measure 22
1000
0000
1000
0000
,  // measure 23
0100
0000
0100
0000
,  // measure 24
0010
0000
0010
0000
,  // measure 25
0001
0000
0001
0000
,  // measure 26
1000
0000
1000
0000
,  // measure 27
0001
0000
0001
0000
,  // measure 28
0001
0001
0001
0000
,  // measure 29
1000
0000
1000
0000
,  // measure 30
1000
1000
1000
0000
,  // measure 31
0010
0000
0010
0000
,  // measure 32
0010
0010
0010
0000
,  // measure 33
0100
0100
0100
0000
,  // measure 34
0001
0001
0001
0001
,  // measure 35
1000
0000
1000
0000
,  // measure 36
1000
1000
1000
0000
,  // measure 37
0010
0000
0010
0000
,  // measure 38
0010
0010
0010
0000
,  // measure 39
0100
0000
0100
0000
,  // measure 40
0100
0100
0100
0000
,  // measure 41
0001
0001
0001
0000
,  // measure 42
1000
1000
1000
1000
,  // measure 43
0020
0000
0000
0030
,  // measure 44
1000
0000
0000
0000
,  // measure 45
0001
0000
0000
0000
,  // measure 46
0100
0000
0000
0000
,  // measure 47
0010
0000
0010
0000
,  // measure 48
0010
0000
0000
0000
,  // measure 49
0100
0000
0000
0000
,  // measure 50
0001
0000
0000
0000
,  // measure 51
1000
0000
0010
0010
;

//---------------dance-single - ----------------
#NOTES:
     dance-single:
     :
     Easy:
     5:
     0.369,0.414,0.226,0.013,0.000: // measure 1
0000
0000
0000
0000
,  // measure 2
0000
0000
0000
0000
,  // measure 3
1000
0100
1000
0100
,  // measure 4
0001
0100
0001
0100
,  // measure 5
1000
0010
1000
0010
,  // measure 6
0001
0010
0001
0010
,  // measure 7
1000
0010
0001
0010
,  // measure 8
1000
0100
0001
0100
,  // measure 9
1000
0010
0001
0010
,  // measure 10
1000
0100
1000
1001
,  // measure 11
0001
0100
0010
0100
,  // measure 12
0001
0010
0100
0010
,  // measure 13
0001
0100
0010
1000
,  // measure 14
0001
0001
1000
1000
,  // measure 15
0100
1000
0010
1000
,  // measure 16
0100
0010
0001
0010
,  // measure 17
0100
1000
0001
0100
,  // measure 18
0010
1000
0001
1001
,  // measure 19
1000
1100
1000
1100
,  // measure 20
0001
0101
0001
0101
,  // measure 21
1000
0010
0100
0001
,  // measure 22
1000
0100
0010
0001
,  // measure 23
1000
1010
1000
1010
,  // measure 24
0001
0011
0001
0011
,  // measure 25
0001
0010
0100
1000
,  // measure 26
0001
0001
1000
1001
,  // measure 27
1000
0100
0010
0001
,  // measure 28
0010
0100
1000
0000
,  // measure 29
0001
0100
0010
1000
,  // measure 30
0010
0100
0001
1001
,  // measure 31
1000
0100
0001
0100
,  // measure 32
1000
0010
0001
0000
,  // measure 33
1000
0100
0001
0000
,  // measure 34
1001
1001
1001
1001
,  // measure 35
1000
0010
0100
0010
,  // measure 36
1000
0100
0010
0000
,  // measure 37
1000
0001
0010
0001
,  // measure 38
0100
0010
1000
1001
,  // measure 39
1000
0100
0001
0100
,  // measure 40
1000
0010
0001
0000
,  // measure 41
1000
0100
0001
0000
,  // measure 42
1000
0010
0100
0001
,  // measure 43
2000
0000
0000
3000
,  // measure 44
0001
0010
0001
0010
,  // measure 45
1000
0010
1000
0010
,  // measure 46
0001
0100
0001
0100
,  // measure 47
1000
0100
1000
0100
,  // measure 48
0001
0100
1000
0100
,  // measure 49
0001
0010
1000
0010
,  // measure 50
0001
0100
1000
0100
,  // measure 51
0001
0010
0001
1001
;

//---------------dance-single - ----------------
#NOTES:
     dance-single:
     :
     Medium:
     6:
     0.491,0.478,0.289,0.038,0.000: // measure 1
0000
0000
0000
0000
,  // measure 2
0000
0000
0000
0000
,  // measure 3
1000
0000
0100
0000
0010
0001
0010
0000
,  // measure 4
0001
0000
0100
0000
0010
1000
0010
0000
,  // measure 5
0100
0000
0001
0000
1000
0100
1000
0000
,  // measure 6
0001
0100
0001
0000
1000
0001
1000
0000
,  // measure 7
0010
0000
1000
0000
0100
0010
0100
0000
,  // measure 8
1000
0000
0010
0000
0100
0010
0100
0000
,  // measure 9
0001
0000
0010
0000
0100
1000
0100
0000
,  // measure 10
0010
0001
0100
0001
1000
0000
1001
0000
,  // measure 11
1000
0010
0001
0100
,  // measure 12
1000
0010
0001
0100
,  // measure 13
1000
0001
1000
0000
0001
1000
0001
0000
,  // measure 14
1100
1100
0101
0101
,  // measure 15
0001
0010
1000
0100
,  // measure 16
0001
0010
1000
0100
,  // measure 17
0001
0100
0001
0000
1000
0100
1000
0000
,  // measure 18
1001
1001
0110
0110
,  // measure 19
1000
0100
1000
0000
0100
0001
0100
0000
,  // measure 20
0001
0010
0001
0000
0010
1000
0010
0000
,  // measure 21
1000
0100
0010
0011
,  // measure 22
0001
0100
0010
1010
,  // measure 23
1000
0010
1000
0000
0010
0001
0010
0000
,  // measure 24
0001
0100
0001
0000
0100
1000
0100
0000
,  // measure 25
1000
0010
0100
0001
,  // measure 26
1000
0100
0001
0100
2000
0000
3001
0000
,  // measure 27
1000
0010
1000
0000
0001
0010
0001
0000
,  // measure 28
1000
0100
1000
0000
0001
0000
0101
0000
,  // measure 29
1000
0100
1000
0000
0001
0100
0001
0000
,  // measure 30
1000
0010
1000
0000
0001
0000
0011
0000
,  // measure 31
1000
0100
0010
0000
0100
0010
0001
0000
,  // measure 32
0010
0001
0100
0000
0010
0000
0110
0000
,  // measure 33
0010
1000
0001
0000
1000
0000
0100
0000
,  // measure 34
0110
0110
0011
0011
,  // measure 35
0001
0100
0001
0000
0100
1000
0100
0000
,  // measure 36
1000
0010
1000
0000
0010
0000
0011
0000
,  // measure 37
0001
0100
0001
0000
0010
0001
0010
0000
,  // measure 38
1000
0010
1000
0000
0100
0000
1100
0000
,  // measure 39
1000
0100
0001
0000
1000
0010
0001
0000
,  // measure 40
1000
0100
0001
0000
1000
0000
1001
0000
,  // measure 41
0001
0100
1000
0000
0010
0000
0001
0000
,  // measure 42
1000
0100
0001
0000
0010
0000
1000
0000
,  // measure 43
2002
0000
0000
3003
,  // measure 44
0001
0000
0010
0000
0100
1000
0100
0000
,  // measure 45
1000
0000
0010
0000
0100
0001
0100
0000
,  // measure 46
0010
0000
1000
0000
0001
0010
0001
0000
,  // measure 47
1000
0010
1000
0000
0001
1000
0001
0000
,  // measure 48
0100
0000
0001
0000
0010
0100
0010
0000
,  // measure 49
0001
0000
0100
0000
0010
0100
0010
0000
,  // measure 50
1000
0000
0100
0000
0010
0001
0010
0000
,  // measure 51
0100
1000
0010
1000
0001
0000
1001
0000
;
